This file was generated by Ched 2.7.0.0.
#TITLE ""
#ARTIST ""
#DESIGNER ""
#DIFFICULTY 0
#PLAYLEVEL
#SONGID ""
#WAVE ""
#WAVEOFFSET 0
#JACKET ""
#REQUEST "ticks_per_beat 480"
#00002: 4
#BPM01: 175
#00008: 01
#TIL00: ""
#HISPEED 00
#MEASUREHS 00
#08818:0013000000000000
#08815:0000000000230000
#08718:0013000000130000
#0871b:0000001300000013
#08715:1300001300000013
#08712:0000000000130000
#08618:0013000000000000
#0861b:0000000000230000
#08615:0000000000230000
#08518:0013000000130000
#0851b:0000001300000013
#08515:1300001300000013
#08512:0000000000130000
#08418:0013000000000000
#0841b:0000000000230000
#08415:0000000000230000
#07815:13130000
#0781a:0014000000000000
#07818:0000001300000000
#07718:0013000000130013
#07715:00131300
#0771a:0000001400000000
#07712:24000014
#07710:41
#07212:0013000013000000
#07218:1300001300000000
#07115:0000130000000013
#07118:0013000000000000
#0711b:0000001300001300
#07112:2300000000130000
#06915:0000130000000013
#06918:0013000000000000
#0691b:0000001300001300
#06912:2300000000130000
#0701b:0000000000000013
#07015:0000000000130000
#07018:1300001300002300
#07012:0013000023000000
#06215:00000013
#05818:00000013
#05416:0000140000140000
#0541a:2400000000002434
#05412:2400002400000000
#0531b:0000000000130000
#05317:00130000
#05312:2400002400000000
#05316:00000024
#0461b:00000013
#04612:00000033333333330000000000000000
#04412:00000000000000000000001333003333
#04418:13
#0441b:00003333003333003300000000000000
#04012:00000000000000000000000000140000
#03818:0000000000140000
#0381a:00140000
#03812:24000024
#03814:0000002400000000
#03717:0000000000000013
#03719:0000000000130000
#0371b:0000001300000000
#0371a:14
#03714:0014000000002300
#03716:0023
#03612:24000014
#03618:0000000000140000
#03614:0000001400000000
#0361a:00140000
#03610:41
#0301b:00130000
#03012:23000013
#03018:0000000000130000
#03015:0000001300000000
#03112:0013
#03118:0000001300000000
#0311b:13
#03115:0013000000000000
#02915:0013000000002300
#0291b:1300000000000013
#02918:0000001300130000
#02912:0023
#02812:23000013
#02815:0000001300000000
#02818:0000000000130000
#0281b:00130000
#02612:00130000
#0261b:23000013
#02615:0000000000130000
#02618:0000001300000000
#02610:41
#02118:00001313
#02115:0000000000130013
#02119:0014000000000000
#02112:00240000
#02113:24
#0201a:0000000024000014
#02013:0000001400000000
#02012:0014000000000000
#02014:00000024
#02019:00240000
#02018:24
#01412:0000000000000013
#01418:0000001300000000
#01415:00130000
#0141b:0013000000000000
#01518:13001313
#0151b:0000130000130000
#01515:0013001300000000
#0111b:0000001300000000
#01118:0000000033000013
#01115:00000013
#0121b:0013000000000000
#01215:00130000
#01212:13
#01018:0000130000000013
#01015:00000013
#01012:0013000000130000
#0101b:13
#00912:0000001300000000
#00915:0000000033000013
#00918:00000013
#0081b:0013000000000013
#00815:00000013
#00818:0000330000130000
#00812:0013
#01312:0000000000000013
#01318:00000033000000000000000013000000
#01315:0000000000130000
#00312:0000001300000000
#00315:0000000033000013
#00318:00000013
#00412:0013000000000000
#00418:00130000
#0041b:13
#00215:0000130000000013
#00218:00000013
#0021b:0013000000130000
#00212:13
#08318:0013000000130000
#0831b:0000001300000013
#08315:1300001300000013
#08312:0000000000130000
#07612:0014001300000000
#07616:14
#0761b:0000001300000000
#0751a:24000014
#07512:0000001400000000
#07516:0000140000140000
#07418:13130000
#07412:0014000000000000
#07415:0000001300000000
#07315:0013000000130013
#07318:00131300
#07312:0000001400000000
#0731a:24000014
#0681b:0013000013000000
#06815:1300001300000000
#06718:0000130000000013
#06715:0013000000000000
#06712:0000001300001300
#0671b:2300000000130000
#06518:0000130000000013
#06515:0013000000000000
#06512:0000001300001300
#0651b:2300000000130000
#0651f:21
#05517:00000000001400000000000000000000
#0551a:3434343434343400
#05112:0000001300000000
#05115:0000000000000013
#05118:00000013
#05015:23000013
#0501b:0000000000130000
#05018:0000000000000023
#0491b:0000000000000013
#04915:00000013
#04918:0000000000130000
#04912:0013
#05612:0000000000000013
#03518:0014000013000000
#03515:0000001300000000
#03512:14
#03414:0000000000140000
#0341a:24000014
#03418:0000001400000000
#03412:00140000
#0271b:0013
#02715:0000001300000000
#02712:13
#02718:0013000000000000
#02518:0013000000002300
#02512:1300000000000013
#02515:0000001300130000
#0251b:0023
#02315:0023000000000013
#02319:0000000000240000
#02313:0000000000240000
#02312:0000002300000000
#02318:00230000
#0231b:23
#02212:00000000001300000000000000000000
#01912:0000001300000000
#01915:0000000000000013
#01918:00000013
#01712:0000001300000000
#01715:0000000000000013
#01718:00000013
#0181a:14141400
#01812:0014001400000000
#01818:0000000000000024
#01814:00000024
#01615:0013001300000000
#01618:0000130013000024
#01614:00000024
#01610:41
#0061b:0000000000000013
#00615:0000001300000000
#00618:00130000
#00612:0013000000000000
#00715:13001313
#00712:0000130000130000
#00718:0013001300000000
#0011b:0000001300000000
#00118:0000000033000013
#00115:00000013
#00012:0013000000000013
#00018:00000013
#00015:0000330000130000
#0001b:0013
#06612:0000000000000013
#06618:0000000000130000
#06615:1300001300002300
#0661b:0013000023000000
#06610:41
#05212:0000000000130000
#05216:00130024
#0521a:2400002400000000
#03914:0000000000000014
#0391a:00000014
#03913:0000000000140000
#03919:0014
#03912:0000001400000000
#03316:0000000000000013
#03314:0000000000130000
#03312:1400001300000000
#03318:0014000000000000
#03319:00000023
#03317:0023
#0321a:24000014
#03214:0000000000140000
#03218:0000001400000000
#03212:00140000
#0241b:23000013
#02418:0000001300000000
#02415:0000000000130000
#02412:00130000
#0051b:0000000000000013
#00515:00000033000000000000000013000000
#00518:0000000000130000
#0571f:11
#07912:24000024
#0791a:0000002400000000
#07916:0000240000240000
#08016:0000000000000024
#0801a:00000024
#08014:0000000000240000
#08018:0024
#08012:0000002400000000
#04512:00333300330000000000000000000000
#04810:41
#07952:14000014
#0795a:0000001400000000
#07752:14000014
#0775a:0000001400000000
#0755a:14000014
#07552:0000001400000000
#07152:13
#0715b:0000001300001300
#06952:13
#0695b:0000001300001300
#03852:14000014
#03854:0000001400000000
#03652:14000014
#03654:0000001400000000
#03052:13000013
#03055:0000001300000000
#02852:13000013
#02855:0000001300000000
#0675b:13
#06752:0000001300001300
#0545a:00000054
#05058:0000000000000053
#05055:53
#0345a:14000014
#03458:0000001400000000
#0265b:13000013
#02658:0000001300000000
#02359:0000000000140000
#02353:0000000000140000
#0735a:14000014
#07352:0000001400000000
#0655b:13
#06552:0000001300001300
#0325a:14000014
#03258:0000001400000000
#0245b:13000013
#02458:0000001300000000
#08858:0053000000000000
#08658:0053000000000000
#08458:0053000000000000
#0785a:0014000000000000
#07252:0013000063000000
#07052:0013000000000000
#04452:00000000000000000000005300000000
#04458:53
#04052:00000000000000000000000000240000
#03754:0014000000000000
#03152:0063
#03155:0013000000000000
#02955:0013000000000000
#01558:00006363
#0155b:0000000000230000
#0115b:0000005300000000
#01458:0000001300000000
#00952:0000006300000000
#0085b:0063000000000000
#01352:0000000000000013
#00352:0000006300000000
#07652:0014000000000000
#07452:0014000000000000
#0685b:0013000053000000
#05557:00000000002400000000000000000000
#05152:0000005300000000
#03558:0014000053000000
#0275b:0053
#02758:0013000000000000
#02558:0013000000000000
#02252:00000000002300000000000000000000
#02155:0000000000000063
#01952:0000005300000000
#01752:0000005300000000
#0185a:0014
#01658:0013
#00755:00005353
#00752:0000000000230000
#00655:0000001300000000
#0015b:0000005300000000
#00052:0053000000000000
#0665b:0013000000000000
#03954:0000000000000054
#03358:0014000000000000
#0055b:0000000000000013
#000320:0013000000000000
#000350:0000332300000000
#0013b0:0000001300000000
#001380:0000000033230000
#003320:0000001300000000
#003350:0000000033230000
#004350:0000000000130000
#004320:0000000000000033
#005350:00003333000000000000000000000000
#005320:00230000
#007350:00001333
#007320:0000000000530000
#008320:23
#0083b0:0013000000000000
#008380:0000332300000000
#009320:0000001300000000
#009350:0000000033230000
#0113b0:0000001300000000
#011380:0000000033230000
#012380:0000000000130000
#0123b0:0000000000000033
#013380:00003333000000000000000000000000
#0133b0:00230000
#015380:00001333
#0153b0:0000000000530000
#0163b0:23
#017320:0000001300000000
#017350:0000000000230000
#019320:0000001300000000
#019350:0000000000230000
#021350:0000000000000013
#022320:00000000005300000000000000000000
#022350:00000023
#0273b0:0013
#027380:00000023
#031320:0013
#031350:00000023
#035380:0013
#0353b0:00000023
#039340:0000000000000014
#040320:00000000000000000000000000540000
#041340:00000024
#0423b0:1323
#0423a0:00330000000000330000000000000000
#042390:0033003300000000
#042380:00000033003300000000000000000000
#042370:00330000
#042321:0013
#042331:00000000000000000033000000000033
#042341:0000000000330033
#042351:00000000000000000000003300330000
#042361:00000033
#043321:23
#0433b0:1323
#0433a0:00330000000000330000000000000000
#043390:0033003300000000
#043380:00000033003300000000000000000000
#043370:00330000
#043321:0013
#043331:00000000000000000033000000000033
#043341:0000000000330033
#043351:00000000000000000000003300330000
#043361:00000033
#044321:23
#044380:13
#0443b0:00003333003333003323000000000000
#044320:00000000000000000000001333003333
#045320:00333300330000000000000000000000
#045350:00000000002300000000000000000000
#0453b0:000000000000133333330000
#0453a0:000000000033
#045390:000000000000000000000033
#046380:23
#046320:00001333333333330000000000000000
#046360:0023
#0463b0:0000000000000013
#0463a0:00000000000000000000000000000053
#0473b0:5353535323000000
#0473a0:00530053005300530000000000000000
#048320:13
#048350:00230000
#0483b0:0000001300000000
#048380:0000000000230000
#048320:00000013
#049350:23
#0493b0:0013000000000000
#049380:0000002300000000
#050350:13
#050320:0000002300000000
#050380:0000000000000013
#0513b0:00230000
#051320:0000001300000000
#051350:0000000000230000
#0543a0:0000000000001434
#0553a0:3434343434343424
#055370:00000000005400000000000000000000
#057320:13330033
#057350:0000003300330000
#058320:3323
#058350:0033003300000000
#059350:13330033
#059320:0000003300330000
#060350:3323
#060320:0033003300000000
#0613b0:13330033
#061380:0000003300330000
#0623b0:3323
#062380:0033003300000000
#063380:13330033
#0633b0:0000003300330000
#064380:3323
#0643b0:0033003300000000
#0683b0:0013
#068380:00000023
#072320:0013
#072350:00000023
#0743a0:0014
#074380:0000000000340034
#074360:00000034
#0753a0:24
#076320:0014
#076340:0000000000340034
#076360:00000034
#077320:24
#078320:0014
#078340:0000000000340034
#078360:00000034
#079320:24
#080360:0000000000000014
#082360:0024
#084380:0013000000000000
#0843b0:0000002300000000
#086380:0013000000000000
#0863b0:0000002300000000
#088380:0013000000000000
#0883b0:0000002300000000
#088350:0000000000130000
#089350:0023
