This file was generated by Ched 2.7.0.0.
#TITLE ""
#ARTIST ""
#DESIGNER ""
#DIFFICULTY 0
#PLAYLEVEL
#SONGID ""
#WAVE ""
#WAVEOFFSET 0
#JACKET ""
#REQUEST "ticks_per_beat 480"
#00002: 4
#BPM01: 175
#00008: 01
#TIL00: ""
#HISPEED 00
#MEASUREHS 00
#00017:0013001300000000
#0001b:0000130013000013
#00018:0000000000130000
#00015:00000013
#00012:0014000000000013
#00016:00140000
#0011b:0000001300130000
#00115:00000013
#00118:0000000000000013
#00117:0013
#00116:0000141300000000
#00112:0013000000000000
#0021b:13130000
#00212:0000000000120000
#00217:0013000000001212
#0041b:0013001300130013
#00412:13130013
#00416:0000001300000013
#00417:00130013
#00516:0000000000130000
#0051b:0000000000001313
#00512:0013000000000000
#00515:00000013000000000000000000000000
#00518:00130000
#00612:0013000000000013
#00617:0000131300000000
#0061b:0000000000000013
#00615:0000000000130000
#00618:00000013
#00715:13
#00718:0013000000000000
#0071b:0000130000130000
#00719:0000001300000000
#00716:00130000
#00714:0000001300000000
#00717:00001313
#01712:0013001300130000
#01715:00000000001300000000000013000000
#01718:0000130000000013
#0171b:0013001300000000
#01717:0013
#0191b:0000001300130000
#01918:00000000000000000013000013000000
#01915:0000000013000013
#01912:0000001300000000
#0211b:00001300000000000013000000000000
#02119:00000000000000000000000000130000
#0211a:00000000000000000000001300000000
#02112:0013
#02114:00000013
#02113:0000000000130000
#02115:0000001300000013
#02118:00000000000000130000000000000000
#02117:23230000
#0231b:0000000000000013
#02312:2400000000260013
#02316:00140000240000000000000000000000
#02318:00000014000024000000260000000000
#0231a:00000000001400000000000000000000
#02314:0024000000000000
#02417:0000130000130000
#02412:2300130000130000
#02415:0000001300000000
#0241b:23000013
#02512:1300001323001300
#02517:1300001300000000
#0251b:00001323
#02516:0000000000140014
#02515:0013000000000000
#02615:00130000
#02618:0000001300000000
#0261b:2300000000130000
#02612:23000013
#02610:41
#02718:00001300000000000013000000000000
#02715:1300000013130000
#0271b:0000001300001313
#02712:0000000000001313
#0321b:2300131300131300
#03215:0013000000000013
#03214:00130000
#03217:0000001300000000
#03212:23003313
#0331b:1313001300000000
#03312:00331300
#03313:0000000000180000
#03319:00000013
#03315:0000000000000018
#03314:13000023
#03317:0013000023000000
#03416:2313141400001300
#0341b:2300000000131300
#03412:0000130000000013
#0351b:0000001300130000
#0351b:0000001300000000
#03512:1300000014000013
#03517:0013
#03516:1414000000001300
#0351a:00000014
#03915:0013001300130000
#03918:00130000001300000000000013000000
#0391b:00000013000000130000000000001300
#03912:13131300
#04012:12000000000000001200000000000012
#0401c:00120000000000000000120000000000
#04014:00001200000012000000000000120000
#0401a:00000012000000120000000012000000
#04016:00000000120000000000001200000000
#04018:00000000001200000000000000001200
#04612:00000033333333330000000012000000
#04617:00000012
#04613:12
#0461a:0000000000000012
#04618:00000000000000000000000000000012
#04818:1200001200000000
#0481c:0000120000120000
#04816:00000012
#04810:41
#05012:0000001200000022
#0501c:2200000000120000
#0501a:00000012
#05016:0000000000120000
#05014:00000012
#05017:22
#05018:0000000000000022
#05112:0000001300130000
#05114:00000013
#05116:0000000000000013
#0511b:00000000000013000000000000000013
#05117:00000000000000001300001300000000
#05119:00000000000000000000000000130000
#05218:13
#05216:0013130013130014
#0521b:0000001300001300
#05212:2400002400002400
#05417:00131300
#05416:0013000000130000
#05412:2400132400002400
#0541b:0000000000130000
#0541a:2400002400002434
#06518:00000000130000000013000000001300
#0651b:2300001300001300
#06515:0013000013130000
#06512:2300001300001300
#0651f:21
#06612:0013000023000000
#06615:13000000001300000000140000001400
#06618:0000131300000000
#0661b:0013000013002300
#06617:00000013
#06610:41
#06715:0000130000130013
#06716:0000001400000000
#0671b:23000013
#06718:00001300000000000013000000000000
#06712:2300001313001300
#06816:0014000000001300
#06818:13000000000013000013000000001300
#0681b:0013130000000000
#06812:0013
#06814:0000000000130000
#06815:00000000001300000000000000000000
#0681a:00000000000000000000001300000000
#07318:00131300
#0731b:0000001300000000
#07315:2913000000131913
#07312:1300001900001300
#07418:13130000
#07415:0000001300000000
#0741b:0013000000001300
#07412:0019000013000000
#07417:0013
#07419:0000000000130013
#07414:0000000000130013
#07416:00000013
#0751b:13130000
#07518:0013000000130013
#07515:00131300
#07512:2900001c00131c00
#07618:00000000000013000013000000000000
#07613:0013
#07615:1300130000130000
#0761a:00000000000000000000001300000000
#07612:001c001300001300
#07619:00000000000000000000000000130000
#07614:0000000000000013
#0761b:13000000000000000000000000000013
#08314:1200001200000000
#08312:0000000000120000
#08316:0000000000001212
#0831a:1200001200000000
#08318:0000000012120000
#0831c:0000000000000012
#08319:0012120000000000
#08317:00000012000000000000000000000000
#00312:0000001300000000
#00316:0000000000131300
#00315:0000000013000013
#00317:0000001300000000
#0031b:00000000000000000000001300000000
#0161b:0013000013002300
#01617:0000130000000023
#01618:00000000000000130000000000000000
#01616:0013000000002300
#01612:0000130013000023
#01615:0000001300000000
#01610:41
#01812:0013000013002300
#01816:1300130000000023
#01818:0000001300000000
#01817:0013000000002300
#0181b:1300130013000023
#01815:00000000000000130000000000000000
#03812:23130023
#0381b:0000002300130000
#03816:0000002300002400
#03817:23
#04914:0012
#04916:0012000000120000
#04918:00000012
#0491a:0000000000000012
#04912:1200001200000000
#05512:00000000001400000000000000002400
#0551a:3434343434343400
#08412:0000001200000000
#08417:0000001200120000
#0841a:0012000000000000
#08418:00000012000000000000000000000000
#08416:00120000
#0841c:0000000000220000
#00816:0013141300000000
#00812:0000130013000013
#00815:0000000000130000
#00818:00000013
#0081a:0014000000000000
#0081b:0000000000000013
#00912:0000001300130000
#00918:00000013
#00915:0000000000000013
#00916:00141300
#00917:0000001300000000
#0091b:0013000000000000
#01012:13130000
#0101c:0000000000120000
#01017:0000000000001212
#01016:0013000000000000
#01212:0013001300130013
#0121b:13130013
#01217:0000001300000013
#01216:00130013
#01317:0000000000130000
#01312:0000000000001313
#0131b:0013000000000000
#01318:00000013000000000000000000000000
#01315:00130000
#0141b:0013000000000013
#01416:0000131300000000
#01412:0000000000000013
#01418:0000000000130000
#01415:00000013
#01518:13
#01515:0013000000000000
#01512:0000130000130000
#01514:0000001300000000
#01517:00130000
#01519:0000001300000000
#01516:00001313
#0111b:0000001300000000
#01117:0000000000131300
#01118:0000000013000013
#01116:0000001300000000
#01112:00000000000000000000001300000000
#02016:2300230023140000
#02012:0013001300000000
#0201b:0000000000000013
#02017:00000023
#02212:00000000001300000000000000000000
#0221a:0013000013000000
#0221b:0000131300000000
#02219:0000000000130000
#02218:00000013
#03118:1300000013131313
#03115:00001300000000000013001300130013
#03112:0000001300000000
#02816:0000130000130000
#0281b:2300130000130000
#02818:0000001300000000
#02812:23000013
#0291b:1300001323001300
#02916:1300001300140014
#02912:00001323
#02918:0013000000000000
#03018:00130000
#03015:0000001300000000
#03012:2300000000130000
#0301b:23000013
#04112:00120000000000000000000000000000
#04118:12
#04113:00000012000000000000000000000012
#04119:0012000000000012
#04114:00000000001200000000000000120000
#0411a:00120012
#04115:00000000000000120000001200000000
#0411b:0000001200120000
#04116:00000000000000000012000000000000
#0411c:0012
#0431c:12
#04317:00120000000000000000000000001200
#0431a:0012000012000000
#04315:00000012000000000012000000000000
#0431b:00120000
#04316:00000000001200000000000000000000
#04319:0000001200001200
#04314:00000000000000120000000000120000
#04318:0000000000120000
#04313:00000000000000000000001200000000
#04312:00000000000000000000000000000012
#04519:000000000000121212120000
#04517:000000000012
#04515:000000000000000000000012
#04516:00120000000000000000000000000000
#04518:00120000
#0471a:1212121222000000
#04718:00120012001200120022000000000000
#0471c:0000000000220000
#05315:13
#05317:0013130013130000
#05312:0000001300001300
#05316:0000000000000014
#0531a:2400002400002400
#0561b:0000000000000013
#05616:0000000000000014
#05716:14
#0571f:11
#0581a:0000001400000000
#05816:0014
#05916:14
#06012:0000001400000013
#06016:0000000014000014
#06116:14
#06212:0000001400000000
#06216:0014
#06316:14
#0641a:0000001400000000
#06416:0014
#06915:00000000130000000013000000001300
#06912:2300001300001300
#06918:0013000013130000
#0691b:2300001300001300
#0701b:0013000023000000
#07018:13000000001300000000000000000000
#07015:0000131300000000
#07012:0013000013002300
#07017:0000000000140014
#07016:00000013
#07118:0000130000130013
#07116:0000001400000000
#07112:23000013
#07115:00001300000000000013000000000000
#0711b:2300001313001300
#07216:0014000000000000
#07215:13000000000013000013000000000000
#07212:00001300130000000000000000000013
#07218:00000000001300000000130000000000
#0721a:0013
#07213:00000000000000000000001300000000
#0721b:00000013
#07214:00000000000000000000000000130000
#07219:0000000000000013
#08514:1200001200000000
#08512:0000000000120000
#08516:0000000000001212
#0851a:1200001200000000
#08518:0000000012120000
#0851c:0000000000000012
#08519:0012120000000000
#08517:00000012000000000000000000000000
#08612:0000001200000000
#08617:0000001200120000
#0861a:0012000000000000
#08618:00000012000000000000000000000000
#08616:00120000
#0861c:0000000000220000
#08714:1200001200000000
#08712:0000000000120000
#08716:0000000000001212
#0871a:1200001200000000
#08718:0000000012120000
#0871c:0000000000000012
#08719:0012120000000000
#08717:00000012000000000000000000000000
#08812:0000001200000000
#08817:0000001200120000
#0881a:0012000000000000
#08818:00000012000000000000000000000000
#08816:00120000
#0881c:0000000000220000
#08918:00120000000000000000000000000000
#04412:00001200000000000000001200000000
#04414:00000000001200000000000000001200
#04416:0012
#03612:2300131300131300
#03618:0013000000000013
#03619:00130000
#03616:0000001300000000
#0361b:23003313
#03610:41
#03712:1313001300000000
#0371b:00331300
#03715:0000000000180000
#03714:00000013
#03713:0000000000000018
#03719:13000023
#03716:0013000023000000
#07715:0000131913000000
#07712:2900001300001900
#07718:0013000000130013
#0771b:13000013
#07710:41
#07815:1319130000000000
#07818:0000001300000000
#07812:0013000000001300
#0781b:0013
#07816:0013
#07814:0000000000130013
#07819:0000000000130013
#07817:00000013
#07915:2913000000130000
#07918:00131300
#07912:1300232c00002c00
#0791b:0000000000230000
#08016:1212120000240000
#08018:00120012001200000000000024000000
#08012:0000002400000024
#08014:0024
#0801a:0000000000000024
#00052:0054000000000000
#0005b:0000000000000053
#00056:00240000
#00156:0000005300000000
#00357:0000006300000000
#0035b:00000000000000000000002300000000
#0045b:0000002300000053
#00456:0000002300000000
#00452:00530000
#00457:00530000
#00557:0000000000000013
#00558:00530000
#0065b:0000001300000000
#0175b:0000005300000000
#01757:0023
#0245b:13000013
#02455:0000001300000000
#02555:0013000000000000
#02552:0033
#0255b:00000043
#02652:13000013
#02658:0000001300000000
#02758:0013000000000000
#05052:0000000000000052
#05058:0000000000000052
#0515b:0000005300000000
#05157:0023
#0545a:0000001400005400
#05452:14000014
#05552:00000000002400000000000000000000
#0655b:1300001300000000
#06552:00000013
#06652:0013000013000000
#0665b:00000013
#06752:13
#06756:0000001400000000
#0675b:00000013
#06856:0014000000000000
#00757:00005353
#0075b:0000000000230000
#00852:0000000000000063
#0085a:0064000000000000
#00856:00240000
#00957:0000006300000000
#0125b:00630000
#01252:0000002300000063
#01257:0000002300000000
#01256:00630000
#01156:0000005300000000
#01152:00000000000000000000002300000000
#01355:00630000
#01356:0000000000000013
#01556:00006363
#01552:0000000000230000
#01452:0000001300000000
#0165b:0043
#01652:0033
#01852:0033
#0185b:0043
#02155:0000000000000053
#02252:00000000002300000000000000000000
#02352:0000000000360000
#02358:0000000000460000
#02858:0000001300000000
#02852:13000013
#03055:0000001300000000
#0305b:13000013
#03155:0013000000000000
#02958:0013000000000000
#0295b:0043
#02952:00000033
#0325b:4300004300004300
#03257:0000005300000000
#0335b:0043000000000000
#03354:00000033
#03357:0053000043000000
#0345b:43000043
#03456:0000004400000000
#0385b:0000004300000000
#03852:33000033
#03952:0043
#03958:00000043
#03955:0000000000430000
#0395b:0000000000000043
#05252:1400001400001400
#0535a:1400001400001400
#06056:0014
#06456:0014
#06952:1300001300000000
#0695b:00000013
#0705b:0013000013000000
#07052:00000013
#07156:0000001400000000
#07152:00000013
#0715b:13
#07256:0014000000000000
#07355:49000049
#07352:0000003900000000
#07452:0039000000000000
#07552:3900004c00003c00
#07652:004c000000000000
#08857:0000000000520000
#08958:00220000000000000000000000000000
#03556:0044000000000000
#03652:3300003300003300
#03656:0000006300000000
#03752:0033000000000000
#03756:0063000033000000
#03759:00000043
#07755:0000004900000000
#07752:39000039
#07855:0049000000000000
#07955:49
#07952:0000003c00004c00
#08052:0000004400000054
#08054:0044
#08056:0000000000440000
#08058:00000044
#0805a:0000000000000044
#000320:0014002400000000
#000360:00540000
#0003b0:0000000000000013
#001370:0023000000000000
#001360:0000001300000000
#001320:0000000000230000
#002360:14240000
#002320:0034000000000000
#002370:0000000000120000
#0023c0:0000000000003222
#003370:0000001300000000
#0033b0:00000000000000000000005300000000
#004370:23
#004320:00132300
#004360:0000005300000000
#004371:00132300
#0043b1:0000005300000000
#0043b1:0000000000000013
#005371:0023000000000000
#005381:00130000
#0053b1:0023
#005321:0000000000130000
#005371:0000000000003323
#006361:0013000000000000
#0063b1:0000332300000000
#007321:0013
#007331:0000000000330033
#007341:00000033
#008321:23
#007370:00001333
#0073b0:0000000000530000
#0083b0:23
#0083a0:0014002400000000
#008360:00540000
#008320:0000000000000013
#009360:0023000000000000
#009370:0000001300000000
#0093b0:0000000000230000
#010360:14240000
#0103a0:0034000000000000
#010370:0000000000120000
#010320:0000000000003222
#011360:0000001300000000
#011320:00000000000000000000005300000000
#012360:23
#0123b0:00132300
#012370:0000005300000000
#012361:00132300
#012321:0000005300000000
#012321:0000000000000013
#013361:0023000000000000
#013351:00130000
#013321:0023
#0133b1:0000000000130000
#013361:0000000000003323
#014371:0013000000000000
#014321:0000332300000000
#0153b1:0013
#0153a1:0000000000330033
#015391:00000033
#0163b1:23
#015360:00001333
#015320:0000000000530000
#016320:23
#0173b0:0000001300230000
#017370:0053
#0203b0:13332300
#020370:0033003300000000
#020320:00000013
#020360:0000000000000033
#021320:33230000
#021360:0033000000000000
#021350:0000000000000013
#022320:00000000005300000000000000000000
#022350:00000023
#024320:13
#024360:0023000000000000
#024380:0000001300000000
#0243b0:0023
#024320:00000013
#024360:0000000000000023
#025380:0013000000000000
#0253b0:00230000
#0263b0:13230000
#026370:0033000000000000
#026350:0000001300230000
#026320:0033
#0263b0:00000013
#026370:0000000000000033
#0273b0:23
#027350:0013002300000000
#027320:00330000
#0283b0:13
#028370:0023000000000000
#028350:0000001300000000
#028320:0023
#0283b0:00000013
#028370:0000000000000023
#029350:0013000000000000
#029320:00230000
#030320:13230000
#030360:0033000000000000
#030380:0000001300230000
#0303b0:0033
#030320:00000013
#030360:0000000000000033
#031320:23
#031380:0013002300000000
#0313b0:00330000
#032370:0000001300000000
#032320:0000000033230000
#033370:0013000000000000
#033320:0000332300000000
#034320:0000001300000000
#034370:0000000033230000
#035320:0013000000000000
#035370:0000332300000000
#036360:0000001300000000
#0363b0:0000000033230000
#037360:0013000000000000
#0373b0:0000332300000000
#038370:13230000
#0383b0:0033000000000000
#038360:0000001300230000
#038320:0033
#042380:12
#0423a0:00320000000000000000000000000000
#0423c0:0022000000000000
#042321:0012000000000000
#042341:00000032000000000000000000000000
#042361:00220000
#042380:00120000
#0423a0:00000000003200000000000000000000
#0423c0:0000002200000000
#042321:0000001200000000
#042341:00000000000000320000000000000000
#042361:0022
#042380:0012
#0423a0:00000000000000000032000000000000
#0423c0:0000000000220000
#042321:0000000000120000
#042341:00000000000000000000003200000000
#042361:00000022
#042380:00000012
#0423a0:00000000000000000000000000320000
#0423c0:0000000000000022
#042321:0000000000000012
#042341:00000000000000000000000000000032
#043361:22
#044361:1222000000000000
#044381:00000012002200000000000000000000
#0443a1:0000001222000000
#0443c1:00000000000000000012002200000000
#044361:0000000000001222
#044381:00000000000000000000000000000012
#045381:00220000000000000000000000000000
#0453a1:0012220000000000
#0453c1:00000000001200220000000000000000
#045340:00000000000000122200000000000000
#046320:00001333333333330000000000000000
#0463b0:0023
#048320:12
#048360:0052000000000000
#048350:00220000
#048340:0000001200000000
#048330:0052
#048370:0000000000220000
#0483c0:00000012
#048380:0000000000000052
#049390:22
#0493a0:0012000000000000
#0493b0:00520000
#049370:0000002200000000
#0503c0:12
#050370:0000002200000000
#050320:0000000000000012
#051360:00220000
#050381:0000000000000012
#0513c1:00220000
#0513b1:0000001300230000
#051371:0053
#0543a1:0000000000001434
#0553a1:3434343434343424
#055321:00000000005400000000000000000000
#057321:13330033
#057361:0000003300330000
#058321:33
#058361:0033002300000000
#057360:00140000
#0573a0:0000002400000000
#0573a0:0000000000140000
#057360:00000024
#058360:14
#0583a0:0024000000000000
#058321:0013
#058351:0000000000230000
#058380:0000000000130000
#0583b0:00000023
#058321:00000013
#058351:0000000000000023
#058380:0000000000000013
#0593b0:33330033
#059370:0000003300330000
#0603b0:3323
#060370:0033003300000000
#059361:00140000
#059321:0000002400000000
#059321:0000000000140000
#059361:00000024
#060361:14
#060321:0024000000000000
#0613b0:13330033
#061370:0000003300330000
#0623b0:33
#062370:0033002300000000
#061361:00140000
#061321:0000002400000000
#061321:0000000000140000
#061361:00000024
#062361:14
#062321:0024000000000000
#0623b0:0013
#062380:0000000000230000
#062351:0000000000130000
#062321:00000023
#0623b0:00000013
#062380:0000000000000023
#062351:0000000000000013
#063321:33330033
#063361:0000003300330000
#064321:3323
#064361:0033003300000000
#063360:00140000
#0633a0:0000002400000000
#0633a0:0000000000140000
#063360:00000024
#064360:14
#0643a0:0024000000000000
#080321:0000000000000014
#0823a1:0024
#0883c1:0000000000120000
#0893c1:0022
#088370:0000000000120000
#089380:00520000000000000000000000000000
#089320:0022
