This file was generated by Ched 2.7.0.0.
#TITLE ""
#ARTIST ""
#DESIGNER ""
#DIFFICULTY 0
#PLAYLEVEL
#SONGID ""
#WAVE ""
#WAVEOFFSET 0
#JACKET ""
#REQUEST "ticks_per_beat 480"
#00002: 4
#BPM01: 175
#00008: 01
#TIL00: ""
#HISPEED 00
#MEASUREHS 00
#00214:14
#00218:00140000
#0011a:0000001400000000
#00118:0000000000340000
#00012:0014000000000000
#00014:0000003434343400
#00314:0000001400000000
#00312:0000000000343434
#0071a:14
#00714:00140000
#00718:0014
#00712:00000014
#01018:14
#01014:00140000
#00912:0000001400000000
#00914:0000000034340000
#0081a:0014000000000000
#00818:0000343434343400
#01118:0000001400000000
#0111a:0000000034343434
#01512:14
#01518:00140000
#01514:0014
#0151a:00000014
#01718:0014
#01714:00000014
#01914:0014
#01918:00000014
#02012:14000014
#02016:00140000
#0201a:0024
#02116:14
#02114:00001414
#02118:0000000000140014
#0211a:00240000
#03212:00140000
#03218:0000001400000000
#03214:0000000000140000
#0321a:24000014
#03312:14
#03318:0014000000000000
#03314:0000001400000000
#03412:00140000
#03418:0000001400000000
#03414:0000000000140000
#0341a:00000014
#03512:14
#03518:0014000000000000
#03514:0000001400000000
#0361a:00140000
#03614:0000001400000000
#03618:0000000000140000
#03612:24000014
#03610:41
#0371a:14
#03714:0014000000000000
#03718:0000001400000000
#0381a:00140000
#03818:0000000000140000
#03814:0000002400000000
#03812:00000024
#02512:00000014
#0291a:00000014
#03918:0014
#03914:00000014
#04018:14
#0401a:00000014
#04214:14
#04212:00000014
#0441a:14
#04418:00000014
#04612:14
#04614:00000014
#05014:0014
#05018:00000014
#05112:14
#05812:0014
#05818:00000014
#0621a:0014
#06214:00000014
#06014:0014
#0731a:00140000
#07314:0000001400000000
#07318:0000000000140000
#07312:24000014
#0741a:14
#07414:0014000000000000
#07418:0000001400000000
#0751a:00140000
#07514:0000001400000000
#07518:0000000000140000
#07512:00000014
#0761a:14
#07614:0014000000000000
#07618:0000001400000000
#07712:00140000
#07718:0000001400000000
#07714:0000000000140000
#0771a:24000014
#07710:41
#07812:14
#07818:0014000000000000
#07814:0000001400000000
#07912:00140000
#07914:0000000000140000
#07918:0000002400000000
#0791a:00000024
#08112:14
#08115:00000014
#0831a:14
#08317:00000014
#08514:14
#08512:00000014
#08718:14
#0871a:00000014
#01618:00000014
#01614:0000000000000014
#01610:41
#01814:00000014
#01818:0000000000000014
#0571f:11
#02312:2434340000000000
#0541a:24
#0651f:21
#00412:3434000000000000
#0121a:3434000000000000
#06612:0000000000343434
#06610:41
#0701a:0000000000343434
#02610:41
#04810:41
#00052:0054000000000000
#0015a:0000005400000000
#00354:0000006400000000
#00952:0000006400000000
#0085a:0064000000000000
#01158:0000005400000000
#02158:0000000000000054
#02354:0000000000140000
#04058:54
#0405a:00000024
#04254:64
#04252:00000024
#0445a:64
#04458:00000024
#04652:54
#04654:00000024
#05152:54
#08152:64
#08155:00000024
#0835a:54
#08357:00000024
#08554:54
#08552:00000024
#08758:64
#0875a:00000024
#02758:0014
#03154:0014
#03852:00000014
#06852:0014
#0725a:0014
#000320:0014000000000000
#000340:0000003434343424
#0013a0:0000001400000000
#001380:0000000000342400
#003340:0000001400000000
#003320:0000000000343434
#004320:3434240000000000
#0053a0:0000000000140000
#005390:00000034
#005380:0000000000000024
#006320:0014000000000000
#006330:00340000
#006340:0000002400000000
#0083a0:0014000000000000
#008380:0000343434343424
#009320:0000001400000000
#009340:0000000034342400
#011380:0000001400000000
#0113a0:0000000034343434
#0123a0:3434240000000000
#013320:0000000000140000
#013330:00000034
#013340:0000000000000024
#0143a0:0014000000000000
#014390:00340000
#014380:0000002400000000
#016320:1434343424000000
#0183a0:1434343424000000
#021380:0000000000000014
#0223a0:00000024
#023320:1434340000000000
#023340:0000003400240000
#0243a0:14000034
#024380:0000003400000000
#025380:0034000000000000
#0253a0:0024
#026380:14000034
#0263a0:0000003400000000
#0273a0:0034000000000000
#027380:0024
#028320:14000034
#028340:0000003400000000
#029340:0034000000000000
#029320:0024
#030340:14000034
#030320:0000003400000000
#031320:0034000000000000
#031340:0024
#0333a0:0014
#033380:00000034
#0343a0:24
#0353a0:0000000014342400
#037320:0014
#037340:00000034
#038320:24
#040380:14
#0403a0:00000054
#041380:0024
#042340:14
#042320:00000054
#043340:0024
#0443a0:14
#044380:00000054
#0453a0:0024
#046320:14
#046340:00000054
#047320:0024
#0483a0:14000034
#048380:0000003400000000
#049380:0034000000000000
#0493a0:00003434
#0503a0:24
#051320:14
#051340:0024
#0523a0:14000024
#052380:0000003400000000
#053320:14000024
#053340:0000003400000000
#0543a0:14000034
#054380:0000003400000000
#055380:0000000000000024
#057320:14
#057340:0000002400000000
#0573a0:00000014
#058380:0024000000000000
#059340:14
#059320:0000002400000000
#059380:00000014
#0603a0:0024000000000000
#0613a0:14
#061380:0000002400000000
#061320:00000014
#062340:0024000000000000
#063380:14
#0633a0:0000002400000000
#063340:00000014
#064320:0034000024000000
#0653a0:14000034
#065380:0000003400000000
#066380:0024000000000000
#066340:0014
#066320:0000000000343434
#067320:34000034
#067340:0000003400000000
#068340:0034000000000000
#068320:0024
#069320:14000034
#069340:0000003400000000
#070340:0024000000000000
#070380:0014
#0703a0:0000000000343434
#0713a0:34000034
#071380:0000003400000000
#072380:0034000000000000
#0723a0:0024
#074340:0014
#074320:00000034
#075340:24
#076320:0000000014342400
#078380:0014
#0783a0:00000034
#079380:24
#0793a0:00000014
#0803a0:0024
#081320:14
#081350:00000054
#082320:0024
#0833a0:14
#083370:00000054
#0843a0:0024
#085340:14
#085320:00000054
#086340:0024
#087380:14
#0873a0:00000054
#088380:0034
#089380:0024
