This file was generated by Ched 2.7.0.0.
#TITLE ""
#ARTIST ""
#DESIGNER ""
#DIFFICULTY 0
#PLAYLEVEL
#SONGID ""
#WAVE ""
#WAVEOFFSET 0
#JACKET ""
#REQUEST "ticks_per_beat 480"
#00002: 4
#BPM01: 225
#00008: 01
#TIL00: ""
#HISPEED 00
#MEASUREHS 00
#0011a:14
#0021a:14
#00314:14
#00414:14
#00518:14
#00618:14
#00912:14
#00910:41
#00818:0014
#01012:14
#01118:14
#01218:14
#01314:14
#01414:14
#0171a:14
#01814:14
#02112:14
#02218:14
#0251a:14
#02510:41
#02612:14
#02912:14
#0301a:14
#03318:2616
#03512:1616
#03718:1616
#03710:41
#03812:1616
#04112:16
#04118:0016
#04212:16
#04218:0016
#04312:16
#04318:0016
#04412:16
#04918:16
#04912:0016
#04910:41
#05018:16
#05012:0016
#05118:16
#05112:0016
#05218:16
#05718:14
#05814:14
#0591a:14
#06012:14
#06118:14
#06214:14
#06718:14
#0671f:11
#06814:14
#0691a:14
#07012:14
#0721a:14
#07312:14
#07412:14
#0751a:14
#07612:14
#07918:0016
#07912:26
#0791f:21
#08012:1616
#08010:41
#08118:16
#08112:0016
#08218:1616
#08312:16
#08318:0016
#08412:16
#08418:0016
#08718:16
#08712:0016
#08818:16
#08812:0016
#08918:1616
#09018:16
#09512:16
#09518:0016
#09612:16
#09618:0016
#09712:1616
#09812:16
#03412:16
#03418:0016
#03618:16
#03612:0016
#01614:0024
#05312:26
#05418:26
#05512:26
#0711a:24
#09918:26
#10012:26
#10118:26
#06310:41
#007320:14
#008320:24
#0153a0:14
#0163a0:24
#0193a0:14
#0203a0:24
#023320:14
#024320:24
#027380:1434
#028380:24
#031340:1434
#032340:3424
#039380:16
#040380:0026
#045380:16
#046380:26
#047320:16
#048320:26
#055320:16
#056320:26
#063380:14
#0643a0:24
#065340:14
#066320:24
#0773a0:14
#0783a0:24
#085320:16
#086320:0026
#091320:16
#092320:26
#093380:16
#094380:26
#101380:16
#102380:26
