This file was generated by Ched 2.7.0.0.
#TITLE ""
#ARTIST ""
#DESIGNER ""
#DIFFICULTY 0
#PLAYLEVEL
#SONGID ""
#WAVE ""
#WAVEOFFSET 0
#JACKET ""
#REQUEST "ticks_per_beat 480"
#00002: 4
#BPM01: 225
#00008: 01
#TIL00: ""
#HISPEED 00
#MEASUREHS 00
#00112:1313
#00118:1313
#00115:00230000
#0011b:00230000
#0081b:13130000
#00819:0013
#00817:00000013
#00814:0014
#00812:00000014
#00816:00140000
#0151b:00230013
#01512:00000000230000000033333300333333
#01615:00130000
#01612:0000000024240000
#01617:00333333003333330000000000000000
#0171b:1313
#01715:0013001300130013
#01718:00130013
#01712:13
#01818:00000013
#01815:0000130000000013
#01812:1313
#01912:00130000
#0191b:0000001300001300
#01915:00001313
#01918:0000000000130000
#02012:14
#02014:0000140000000024
#02016:0014
#02017:13
#0201a:00000014
#02118:0013001300130013
#02115:00130013
#02112:0013
#02215:00000013
#02218:0000230000000013
#0221b:2323
#02512:0000001300000013
#02515:0013000000130000
#0251b:0013
#02518:00230023
#02510:41
#02615:0013001300000013
#02612:0013
#0261b:1313
#02618:00230023
#02715:0000001300001300
#02712:1313
#0271b:1313
#02718:00230023
#0331b:00130000
#03318:00001313
#03315:0000001300000013
#03312:0000000000130000
#0341b:00000013
#03414:0014
#03418:0000000024000013
#03416:0014000000000000
#0341a:24
#03412:00240000
#03615:1313
#0361b:00130000
#03612:00130000
#03618:0013
#03818:00000013
#03815:0000000000000013
#03816:0000001400000000
#03812:2424
#0381a:00240000
#0391b:1300001300000013
#03912:0000132300000023
#03918:0000000000130000
#03915:0000000000230000
#05615:00130013
#05612:0000001300000013
#0561b:0013
#05618:0013000000130000
#0581a:14
#05816:0014001400000000
#05812:00140000
#05912:13
#0591b:13
#05918:0000130000130000
#05915:0013
#06018:00130000
#06012:0000001300000000
#0601b:0000000000130000
#06015:00000013
#0621b:13
#06215:001300000013000000130000
#06218:001313000000
#06212:00130000
#06318:00130013
#0631b:0013
#06310:41
#06615:00130013
#06612:0013
#06412:00130013
#06415:0013
#0651b:00130013
#06518:0013
#0671b:00130000
#06715:0000130000130000
#06718:2313
#06712:13
#0671f:11
#06818:00130013
#06815:0000001300000013
#0681b:0013
#06812:0000000000130000
#0691b:13130013
#06916:0014000014000000
#06912:0000001300130000
#06915:0000000000000023
#0711b:0013
#07118:00130013
#07115:0000000000000013
#07112:0023
#07218:1313
#0721b:00130000
#07215:0013000000000000
#07212:0023
#0731b:1323
#07312:1313
#07315:00130013
#07318:0000000000000013
#07415:1313
#07412:00130000
#07418:0013000000000000
#0741b:0023
#0751b:1313
#07512:1323
#07518:00130013
#07515:0000000000000013
#07618:1300000013000013
#0761b:00130000
#07615:0013000000001300
#07612:0023
#0781a:1400001400001400
#07816:0014000014000014
#07812:0000140000140000
#07917:0000001300000000
#07919:0000000000000013
#0791b:0000000000130000
#0791a:24
#07912:24242424
#0791f:21
#08019:00000013
#08016:0000000000000013
#08017:0013130000000000
#0801b:0013
#08012:24242424
#08010:41
#08112:2300001323000013
#0811a:24242424
#0831b:0000001300000000
#08319:0000000000130000
#08317:0000000000000013
#0831a:24
#08312:24242424
#08516:0000001400140014
#08512:0000140000240000
#0851a:2400002400000024
#08614:00120000
#08613:0012
#08612:00000012
#08616:00000000001400000000000000000000
#06115:00130000
#06118:00000013
#06112:13
#0021b:0013000000000000
#00218:0000001300000000
#00412:0013000000000000
#00415:0000001300000000
#0031b:0013
#00315:1313
#00312:00230000
#00318:00230000
#00712:14
#00716:0014
#0071b:00131313
#00915:1300000013130000
#0091b:2300000013130000
#00912:00230000
#00918:00230000
#00910:41
#01015:0013000000000000
#01018:0000001300000000
#0101b:0013000000000000
#01415:0013000000001300
#01412:0000001300000000
#01418:0000000013000013
#0141b:0013000000000000
#0291b:0000001300000013
#02918:0013000000130000
#02912:0013
#02915:00230023
#03018:0013001300000013
#0301b:0013
#03012:1313
#03015:00230023
#03118:1300000000000013
#0311b:0000001313000000
#03115:00230023
#03112:2323
#0281b:1313
#02818:00230023
#03712:00130000
#03715:13001313
#03718:0000001300000013
#0371b:0000000000130000
#03710:41
#04015:00000013000000000000000000000000
#04018:00000013000000000000000000000000
#08417:1313
#0841b:00130000
#08412:24242424
#08416:0000000000000024
#0951b:00130000
#09515:00000013
#09518:13
#00512:0013
#00518:1313
#00515:00230000
#0051b:00230000
#0061b:0013000000000000
#00618:0000001300000000
#01112:1300000013130000
#01118:0000000013130000
#0111b:00230000
#01115:00230000
#01218:0013000000000000
#01215:0000001300000000
#01212:0013000000000000
#01315:0000000013130000
#0131b:1300000013130000
#01318:00230000
#01312:00230000
#02415:00230013
#02418:23
#0241a:0024
#02412:0024
#0241b:000000000000000000000000000000000000003333333333
#04412:00000013
#0441b:00000013
#0321b:00130000
#03218:1323
#03215:00232300
#03212:23
#05519:00130000
#05516:23
#04912:00130000
#04918:00000013
#04915:13
#04910:41
#05214:0013
#05212:00130000
#05215:13
#0521b:13
#05216:00000013
#0511b:1313
#05112:00130013
#05118:00130013
#05115:0013
#09712:1313
#0971b:00130013
#09715:00130013
#09718:0013
#09818:1324
#09812:13
#0981a:00240000
#09816:00000024
#09916:0014
#09912:2424
#0991a:24
#10016:0014
#10012:24
#1001a:0024
#0961b:00130000
#09615:00000013
#0411b:00130000
#04115:00000013
#04118:13
#04312:1313
#0431b:00130013
#04315:00130013
#04318:0013
#08712:00130000
#08718:00000013
#08715:13
#0891b:1313
#08912:00130013
#08918:00130013
#08915:0013
#09012:00130013
#09018:00000013
#09015:1313
#08812:00130000
#08818:00000013
#07015:0013
#07018:2313
#0461b:00130000
#0461a:0013
#04619:00000013
#04612:00130000
#04613:0013
#04614:00000013
#04715:13
#04712:00000000000000130000000000000000
#0471b:0000000000001323
#04718:23
#04719:00230000
#0471a:0023
#04518:13
#0451b:00000000000000130000000000000000
#04515:13
#04514:00130000
#04513:0013
#04512:0000000000001323
#05316:0013
#0531b:2323
#05312:23
#05417:0013
#0541b:23
#05412:0023
#0921b:00130000
#0921a:0013
#09219:00000013
#09212:00130000
#09213:0013
#09214:00000013
#09115:1313
#09112:0000130000001323
#0911b:00000000000000130000000000000000
#09118:13
#09312:00000000000000130000000000000000
#09315:13
#0931b:0000230000001323
#09318:2323
#10112:000000000000000000000000000000130000000015000000000000000000000000000000000000000000000000000000
#10119:00000000000000000000000000000000000000000000000000000000000000000000000000000000000000000015000000000000000000000000000000000000
#10118:00000014000000000000000000000000
#1011a:0013
#10113:00000014
#00018:24
#08216:23
#08214:00230000
#08212:0023
#0821a:24242424
#03515:2323
#0351b:00230023
#07712:23
#0771b:23
#10212:25
#10219:25
#04818:00230000
#04815:0023
#09415:00230000
#09418:0023
#0231b:00330000000000000033000000000000
#0231a:0033000000330000
#02319:00000033000000000000003300000000
#02315:00000000003300000000000000330000
#02314:0000003300000033
#02313:00000000000000330000000000000033
#03352:14
#0335a:14
#03655:0013
#03658:0013
#0795a:14
#08256:33
#08254:00330000
#08252:0033
#0855a:0000000000000054
#08656:00000000002400000000000000000000
#06358:00130013
#06452:00130013
#0655b:00130013
#06655:00130013
#00152:0000000000000013
#00158:0000000000000013
#0035b:0000000000000013
#00355:0000000000000013
#00752:54
#00756:0024
#00958:0000000000000013
#00952:0000000000000013
#00955:0000000000530000
#0095b:1300000000530000
#01455:00000053
#01458:0000000000000063
#03952:0000000000000063
#0395b:5300000000000053
#04058:00000023000000000000000000000000
#04055:00000023000000000000000000000000
#04052:0034
#0405a:0044
#03255:0053
#03258:0053
#05952:13
#0595b:13
#0955b:00130000
#09555:00000013
#00058:0014
#00054:0014
#00552:0000000000000013
#00558:0000000000000013
#01155:0000000000000013
#0115b:0000000000000013
#01158:0000000000630000
#01152:0000000000630000
#01358:0000000000000013
#01352:0000000000000013
#01355:0000000000530000
#0135b:0000000000530000
#02057:63
#02054:0000000000000014
#0245a:0014
#02452:0014
#02455:00130000
#02458:13
#0255b:13
#09956:0024
#09952:34
#0995a:54
#10056:0024
#10052:64
#1005a:44
#0975b:00130000
#09755:00000013
#0965b:00130000
#09655:00000013
#06758:13
#08752:00130000
#08758:00000013
#08952:00130000
#08958:00000013
#08852:00130000
#08858:00000013
#0275b:0013
#02755:00000013
#0285b:13
#07055:0023
#07058:0023
#07152:33
#0715b:43
#00856:00340000
#00854:0034
#00852:00000034
#04755:53
#04752:00000000000000230000000000000000
#0475b:0000000000000013
#04558:63
#0455b:00000000000000230000000000000000
#04552:0000000000000013
#05356:0023
#0535b:43
#05352:63
#05457:0023
#0545b:53
#05452:33
#09352:00000000000000230000000000000000
#09355:53
#0935b:0000000000000013
#0915b:00000000000000230000000000000000
#09158:63
#09152:0000000000000013
#10158:00000054000000000000000000000000
#10159:00000000000000000000000000000000000000000000000000000000000000000000000000000000000000000025000000000000000000000000000000000000
#10152:000000000000000000000000000000530000000025000000000000000000000000000000000000000000000000000000
#1015a:0053
#05556:53
#09052:00130000
#09058:00000013
#01552:00130000
#0155b:00130000
#000340:1424
#000381:1424
#001321:0000000000130023
#001380:0000000000130023
#002350:00001323
#0023b1:00000013
#0033b1:23
#0033b1:0000000000130023
#003350:0000000000130023
#004380:00001323
#004321:00000013
#005321:23
#005321:0000000000130023
#005380:0000000000130023
#006350:00001323
#0063b1:00000013
#0073b1:23
#007320:14
#007360:0054
#008320:24
#0093b0:0000000000130000
#009380:0000000000000023
#009351:0000000000130000
#009321:0000000000000023
#010351:0013
#010321:00000023
#0103b0:00000013
#011380:23
#011320:0000000000130000
#011350:0000000000000023
#011381:0000000000130000
#0113b1:0000000000000023
#012381:0013
#0123b1:00000023
#012320:00000013
#013350:23
#0133b0:0000000000130000
#013380:0000000000000023
#013351:0000000000130000
#013321:0000000000000023
#014351:00000013
#015321:00230000
#014380:0000000000000013
#0153b0:00230000
#015320:00000000000000001333333300333333
#015360:00000033
#016320:23
#016371:13333333003333332300000000000000
#0163b1:00330000
#018371:1323
#0183b1:00330000
#019381:13230000
#020371:13
#0203b1:0023
#022361:1323
#022341:0033003300000000
#022321:00330000
#0233b1:13330000000000000000000000000000
#0233a1:0033000000000000
#023391:00000033000000000000000000000000
#023381:00230000
#023350:00000000133300000000000000000000
#023340:0000003300000000
#023330:00000000000000330000000000000000
#023320:0023
#0233b1:00000000000000001333000000000000
#0233a1:0000000000330000
#023391:00000000000000000000003300000000
#023381:00000023
#023350:00000000000000000000000013330000
#023340:0000000000000033
#023330:00000000000000000000000000000033
#024320:23
#024380:00000013
#0243b0:000000000000000000000000000000000000003333333333
#0253b0:23
#028320:1323
#028350:00330000
#028350:0000000000000013
#029320:0023000000000000
#032350:0013
#033320:24
#032381:0013
#0333a1:24
#035351:13
#035321:00230000
#0353b0:00130000
#035380:0023
#035351:0013
#035321:00000023
#0353b0:00000013
#036380:23
#0373b0:13
#037380:00230000
#0393b0:13
#039370:00230000
#039320:0000000000000013
#040350:00000053000000000000000000000000
#040320:0024
#0393b1:0000000000000013
#040381:00000053000000000000000000000000
#0403a1:0024
#041321:13330000
#041351:0023
#041380:00001333
#0423b0:23
#042321:13
#042351:00230000
#042380:00130000
#0423b0:0023
#042321:0013
#042351:00000023
#042380:00000013
#0433b0:23
#044320:1323
#044350:00330000
#044381:1323
#0443b1:00330000
#045381:1300000000000023
#0453b1:00000000000000530000000000000000
#047351:1300000000000023
#047321:00000000000000530000000000000000
#0493b1:13330000
#049381:0023
#049350:00001333
#050320:23
#0503b1:13
#050381:00230000
#050350:00130000
#050320:0023
#0503b1:0013
#050381:00000023
#050350:00000013
#051320:23
#052370:00130000
#052390:0033
#0523b0:00000023
#053320:13
#053360:0033
#054320:23
#0543b1:13
#054371:0033
#0553b1:23
#055360:13
#055320:0000000000000023
#0553b1:0013
#0553a1:0000000000330000
#055391:00000033
#055381:0000000000000023
#057381:13333333230000000000000000000000
#057340:00000000143434342400000000000000
#057381:00000000000000001535353525000000
#057320:00000000000000000000000016363636
#058320:26
#058320:000000000000145454240000
#058330:000000000000000000000000005400540054000000000000
#0583a1:000000000000145454240000
#058391:000000000000000000000000005400540054000000000000
#0593b1:000000000000000000000000000000000000000000135353
#0593a1:000000000000000000000000000000000000000000000000000000000000000000000000000000000000005300530053
#0603b1:535353230000000000000000000000000000000000000000
#0603a1:005300530053000000000000000000000000000000000000000000000000000000000000000000000000000000000000
#059320:000000000000000000000000000000000000000000135353
#059330:000000000000000000000000000000000000000000000000000000000000000000000000000000000000005300530053
#060320:535353230000000000000000000000000000000000000000
#060330:005300530053000000000000000000000000000000000000000000000000000000000000000000000000000000000000
#061380:1323
#061390:003300000033000000000000
#0613a0:003333000000
#0613b0:00330000
#061321:0013
#061331:000000000000003300000033
#061341:000000003333
#061351:00000033
#062321:23
#0623b1:00001323
#063351:13
#064321:23
#0643b0:13
#065380:23
#065351:13
#066321:23
#0663b0:13
#067380:23
#067380:0000000000000013
#0683b0:0023000000000000
#067321:0000000000000013
#068351:0023000000000000
#069351:0000000000000013
#070351:0053
#071321:23
#070380:1353
#0713b0:23
#081320:13
#081360:00230000
#081320:0013
#081360:00000023
#0853a0:14
#085360:00240000
#0853a0:0000000000000014
#086360:00000000005400000000000000000000
#0863a0:00000024
#087380:1323
#0873b0:00330000
#087321:0013
#087351:00000033
#088321:23
#0883b0:1323
#088380:00330000
#088351:0013
#088321:00000033
#089351:23
#0903b1:1323
#090381:00330000
#091381:1300000000000023
#0913b1:00000000000000530000000000000000
#093351:1300000000000023
#093321:00000000000000530000000000000000
#095351:1323
#095321:00330000
#0953b0:0013
#095380:00000033
#0963b0:23
#096321:1323
#096351:00330000
#096380:0013
#0963b0:00000033
#097380:23
#098360:00140000
#098340:0034
#098320:00000024
#0993a0:14
#099360:0034
#1003a0:24
#100321:14
#100361:0034
#101321:24
#101380:15550054000000000000000000000000
#101390:000000000000000000000000000000000000000000000000000000000000000000000000000000000000000000000000000000000000000000000000005300000000000000000000000000000000000000000000000000000000000000000000000000000000000000000000000000000000000000000000000000000000000000000000000000000000000000000000000000000000000000000000000000000000000000000000000000000000000000000053000000000000000000000000000000000000000000000000000000000000000000000000000000000000000000000000000000000000000000000000230000000000000000000000000000000000000000000000000000000000000000000000000000000000000000000000000000000000000000000000000000000000000000000000000000000000000000000000000000000000000000000000000000000000000000000000000000000000000000000000000000000000000000000000000000000000000000000000000000000000000000000000000000000000000000000000000000000000000000000000000000000000000000000000000000000000000000000000000000000000000000000000000000000000000000000000000000000000000000000000000000000000000000000000000000000000000000000000000000000000000000000000000000000000000000000000000000000000000000000000000000000000000000000000000000000000000000000000000000000000000000000000000000000000000000000000000000000000000000000000000000000000000000000000000000000000000000000000000000000000000000000000000000000000000000000000000000000000000000000000000000000000000000000000000000000000000000000000000000000000000000000000000000000000000000000000000000000000000000000000000000000000000000000000000000000000000000000000000000000000000000000000000000000000000000000000000000000000000000000000000000000000000000000000000000000000000000000000000000000000000000000000000000000000000000000000000000000000000000000000000000000000000000000000000000000000000000000000000000000000000000000000000000000000000000000000000000000000000000000000000000000000000000000000000000000000000000000000000000000000000000000000000000000000000000000000000000000000000000000000
#101321:000000000000000000000000000000000000000000000000000000000000000000000000000000000000000000000000000000000000000000000000000000000000000000000000000000000000000000000000000000000000000000000000000000000000000000000000000000000000000000000000000000000000000000000000000000000000000000000000000000000000000000000000000000000000000000000000000000000000000000000000000000000000000000000000000000000000000000000000000000000000000000000000000000000000000000000000000000000000000000000000000000000000000000000000000000000000000000000000000000000000000000000000000000000000000000000000000000000000000000000000000000000000000000000000000000000000000000000000000000000000000000000000000000000000000000000000000000000000000000000000000000000000000000000000000000000000000000000000000000000000000000000000000000000000000000000000000000000000000000000000000000000000000000000000000000000000000000000000000000000000000000000000000000000000000000000000000000000000000000000000150000000000000000000000000000000000000000000000000000000000000000000000000000000000000000000000000000000000000000000000000000000000000000000000000000000000000000000000000000000000000000000000000000000000000000000000000000000000000000000055530000000000000000000000000000000000000000000000000000000000000000000000000000000000000000000000000000000000000000000000000000000000000000000000000000000000000000000000000000000000000000000000000000000000000000000000000000000000000000000000000000000000000000000000000000000000000000000000000000000000000000000000000000000000000000000000000000000000000000000000000000000000000000000000000000000000000055000000000000000000000000000000000000000000000000000000000000000000000000000000000000000000000000000000000000000000000000000000000000000000000000000000000000000000000000000000000000000000000000000000000000000000000000000000000000000000000000000000000000000000000000000000000000000000000000000000000000000000000000000000000000000000000000000000000000000000000000000000000000000000000000000000000000000000000000000000000000000000000000000000000000000000000000000000000000000000000000000000000000000000000000000000000000000000000000000000000000000000000000000000000000000000000000000000000000000000000000000000000000000000000000000000000000000000000000000000000000000000000000000000000000000000000000000000000000000000000000000000000000000000000000000000000000000000000000000000000000000000000000000000000000000000000000000000000000000000000000000000000000000000000000000000000000000000000000000000000000000000000000000000000000000000000000000000000000000000000000000000000000000000000000000000000000000000000000000000000000000000000000000000000000000000000000000000000000000000000000000000000000000000000000000000000000000000000000000000000000000000000000000000000000000000000000000000000000000000000000000000000000000000000000000000000000000000000000000000000000000000000000000000000000000000000000000000000000000000000000000000000000000000000000000000000000000000000000000000000000000000000000000000000000000000000000000000000000000000000000000000000000000000000000000000000000000000000000000000000000000000000000000000000000000000000000000000000000000000000000000000000000000000000000000000000000000000000000000000000000000000000000000000000000000000000000000000000000000000000000000000000000000000000000000000000000000000000000000000000000000000000000000000000000000000000000000000000000000000000000000000000000000000000000000000000000000000000000000000000000000000000000000000000000000000000000000000000000000000000000000000000000000000000000000000000000000000000000000000000000000000000000000000000000000000000000000000000000000000000000000000000000000000000000000000000000000000000000000000000000000000000000000000000000000000000000000000000000000000000000000000000000000000000000000000000000000000000000000000000000000000000000000000
#101341:0000000000000000000000000000000000000000000000000000000000000000000000000000000000000000000000000000000000000000000000000000000000000000000000000000000000000000000000000000000000000000000000000000000000000000000000000000000000000000000000000000000000000000000000000053000000000000000000000000000000000000000000000000000000000000000000000000000000000000000000000000000000000000000000000000000000000000000000000000000000000000000000000000000000000000000000000000000000000000000000000000000000000000000000000000000000000000000000000000000000000000000000000000000000000000000000000000000000000000000000000000000000000000000000000000000000000000
#101331:0023
#1013a0:00001323
#101390:000000000000000000000000000000000000000000000000000000000000000000000000000000000000000000000000000000000000000000000000000000000000000000000000000000000000000000000000000000000000000000000000000000000000000000550000000000000000000000005500000055000000000000000000000000550000000000000000000000000000000000000000000000000000000000000000000000000000000000000000000000000000000000000000
#1013b0:000000000000000000000000000000000000000000000000000000000000000000000000000000000000000000000000000000000000000000000000000000000000000000000000000000000000000000000000000000000000000000000000000000000000000000000000000000000000000000000000000000000000000000000000000000000000000000000000000000000000000000000000000000000000000000000000000000000000000000000000000000000000000000000000000000000000000000000000000000000000000000000000000000000000000000000000000000000000000000000000000000000000000000000000000000000000000000000000000000000000000000000000000000000000000000000000000000000000000000000000000000000000000000000000000000000000000000000000000000000000000000000000000000000000000000000000000000000000000000000000000000000000000000000000000000000000000000000000000000000000000000000000000000000000000000000000000000000000000000000000000000000000000000000000000000000000000000000000000000000000000000000000000000000000000000000000000000000000000000000000000000000000000000000000000000000000000000000000000000000000000000000000000000000000000000000000000000000000000000000000000000000000000000000000000000000000000000000000000000000000000000000000000000000000000000000000000000000000000000000000000000000000000000000000000000000000000000000000000000000000000000000000000000000000000000000000000000000000000000000000000000000000000000000000000000000000000000000000000000000000000000000000000000000000000000000000000000000000000000000000000000000000000000000000000000000000000000000000000000000000000000000000000000000000000000000000000000000000000000000000000000000000000000000000000000000000000000000000000000000000000000000000000000000000000000000000000000000000000000000000000000000000000000000000000000000000000000000000000000000000000000000000000000000000000000000000000000000000000000000000000000000000000000000000000000000000000000000000000000000000000000000000000000000000000000000000000000000000000000000000000000000000000000000000000000000000000000000000000000000000000000000000000000000000000000000000000000000000000000000000000000000000000000000000000000000000000000000000000000000000005300000000000000000000000000000000000000000000000000000000000000000000000000000000000000000000000000000000000000000000000000000000000000000000000000000000000000000000000000000000000000000000000000000000000053530000000000000000000000000000000000000000000000000000000000000000000000000000000000000000000000000000000000000000000000000000000000000000000000000000000000000000000000000000000053530000000000000000000000000000000000000000000000000000000000000000000000000000000000000000000000000000000000000000000000000000000000000000000000000000000000000000000000000000000000000000000000000000000000000053000000000000000000000000000000000000000000000000000000000000000000000000000000000000000000000000000000000000000000000000000000000000000000000000000000000000000000000000000000000000000000000000000000000000000000000000000000000000000000000000000000000000000000000000000000000000000000000000000000000000000000000000000000000000000000000000000000000000000000000000000000000000000000000000000000000000000000000000000000000000000000000000000000000000000000000000000000000000000000000000000000000000000000000000000000000000000000000000000000000000000000000000000000000000000000000000000000000000000000000000000000000000000000000000000000000000000000000000000000000000000000000000000000000000000000000000000000000000000000000000000000000000000000000000000000000000000000000000000000000000000000000000000000000000000000000000000000000000000000000000000000000000000000000000000000000000000000000000000000000000000000000000000000000000000000000000000000000000000000000000000000000000000000000000000000000000000000000000000000000000000000000000000000000000000000000000000000000000000000000000000000000000000000000000000000000000000000000000000000000000
