This file was generated by Ched 2.7.0.0.
#TITLE ""
#ARTIST ""
#DESIGNER ""
#DIFFICULTY 0
#PLAYLEVEL
#SONGID ""
#WAVE ""
#WAVEOFFSET 0
#JACKET ""
#REQUEST "ticks_per_beat 480"
#00002: 4
#BPM01: 225
#00008: 01
#TIL00: ""
#HISPEED 00
#MEASUREHS 00
#00118:0013
#00115:00230000
#01815:00000013
#01818:0000000000000013
#02518:0000001300000013
#0251b:0013000000130000
#02515:1313
#02512:00230023
#02510:41
#03412:00000013
#03415:0013000023000000
#03418:0000230000000013
#0341b:23
#0381a:00000014
#03818:2300001300000034
#03812:0023
#03815:00230000
#03917:14
#03914:0000002400000000
#03918:0000000000240000
#03912:0000000000000024
#05818:00130000
#05812:00130000
#0591b:00130000
#05915:0000000000130000
#05918:0013
#05912:00130000
#06018:0000001300001300
#06015:0000130000130000
#06315:00130013
#0631b:00000013
#06318:1313
#06310:41
#0671b:00130000
#06715:00130000
#06718:0013
#06712:0000000000130000
#0671f:11
#07115:00130013
#0711b:0023
#07218:00131300
#0721b:13
#07215:0013000000000000
#07212:0023
#07312:00130013
#07318:1323
#07415:0013000013000000
#07418:13
#0741b:00132300
#07515:00130013
#0751b:1323
#0761b:00000013
#07618:1300001300000000
#07612:00130000
#07615:0000000023000013
#00315:0013
#00318:00230000
#00715:13
#00712:0013
#0071b:13
#00718:0013
#00814:00140014
#00818:0014
#02915:0000001300000013
#02912:0000000000130000
#02918:0013
#0291b:00230023
#03115:1313
#03112:00130013
#03118:00230023
#0311b:2323
#04015:00000014000000000000000000000000
#00518:0013
#00515:00230000
#00918:0013
#00912:0000000000130000
#00915:00230000
#0091b:00230000
#00910:41
#01115:0013
#0111b:0000000000130000
#01118:00230000
#01112:00230000
#0141b:0013
#01412:0013
#01418:0000000000000013
#01415:00000013
#01318:0013
#01312:0000000000130000
#01315:00230000
#0131b:00230000
#0201b:13
#02019:00330000
#05215:0013
#05212:00130000
#05218:13000013
#0521b:00130000
#04315:13
#04318:00130013
#04312:0013
#0431b:0013
#04612:00130000
#04615:0013
#04618:00000013
#04518:1300000000000023
#0451b:0013
#04418:00000013
#04415:13
#0061b:0013
#00615:0013
#00612:00000013
#00618:00000013
#02118:0000130000000013
#0211b:0013
#02112:00000013
#02115:0000001300000000
#02218:00000013
#02215:0000000000000013
#02214:0033003300000000
#03215:13130000
#03212:0023
#03218:0023
#0321b:23230000
#03012:00000013
#03018:13
#0301b:00130000
#03019:0033003300000000
#04715:1300000000000023
#04712:0013
#05118:13
#05115:00130013
#0511b:0013
#05112:0013
#0571b:00000000000000001333333333333333
#05718:13333333333333330000000000000000
#0641b:00000013
#06518:00130013
#06512:00000013
#06515:1313
#06915:00001313
#06912:13130000
#0691b:0013001300000000
#06918:0000000000130023
#06815:00130013
#06818:0000001300000013
#06812:0013
#0681b:0000000000130000
#07718:0000000000000013
#09818:0013
#0981b:00130000
#09815:13000013
#09812:00130000
#08918:13
#08915:00130013
#0891b:0013
#08912:0013
#0921b:00130000
#09218:0013
#09215:00000013
#09312:1300000000000023
#09315:0013
#09318:1300000000000023
#0931b:0013
#0901b:00130013
#09018:13
#09015:00000013
#09115:1300000000000023
#09112:0013
#0911b:1300000000000023
#09118:0013
#09715:13
#09718:00130013
#09712:0013
#0971b:0013
#0171b:13
#01718:0000001300001300
#01715:0000130013000013
#01712:13
#01918:0000001300000000
#01912:00000013
#0191b:0000000000130000
#01915:0013
#02618:00000013
#02615:1300000000000013
#02612:00130000
#02614:0033003300000000
#02818:13
#0281a:00330000
#02715:0000001300000000
#0271b:00000013
#02718:0013
#02712:00000013
#05415:13
#05412:0013
#05418:13
#0541b:0013
#05515:13
#05518:13
#05615:00130013
#05618:0013
#06215:003333133333000000000000
#06212:13
#06115:003333133333000000130000
#06112:130000000000133333003333
#10015:13
#10012:0013
#10018:13
#1001b:0013
#0361b:13
#0361a:00130000
#03619:0013
#03612:13
#03613:00130000
#03614:0013
#0231b:13
#02315:00130000
#02318:0000001300000000
#02312:0014
#02316:00000014
#0241a:1424
#02418:00140000
#03318:00130013
#03312:0000001300000013
#0331b:0013
#03315:0000000000130000
#0371b:1313
#03715:1300000000130000
#03718:00130013
#03712:0000130000000013
#03710:41
#08015:0000230000000013
#08018:0013000023000000
#0801b:00000013
#08012:23
#08010:41
#08412:00000014
#08415:2300001300000000
#0841b:0023
#08418:00230000
#08414:0000000000000034
#08515:14
#08518:0000002400000000
#08514:0000000000240000
#0851a:0000000000000024
#08617:00000014000000000000000000000000
#07915:00130013
#0791b:0000001300000013
#07912:2413
#07918:0000000000130000
#0791a:24
#0791f:21
#08312:1313
#08318:1300000000130000
#08315:00130013
#0831b:0000130000000013
#00018:24
#01618:0000000000240000
#01614:0024
#07015:23
#0531b:23
#05312:23
#05314:0033
#05319:0033
#10212:23
#10217:23
#04815:0023
#04818:00230000
#09415:00230000
#09418:0023
#0991b:23
#09912:23
#09914:0033
#09919:0033
#10112:00240000
#10116:0024
#1011a:00000024
#0351b:2323
#03515:2323
#08118:2323
#08112:2323
#08212:23
#08213:00230000
#0821b:23
#0821a:00230000
#08214:0023
#08219:0023
#04910:41
#03355:13
#0335b:13
#00152:0000000000000013
#0035b:0000000000000013
#00755:63
#00752:0023
#0075b:63
#00758:0023
#00955:0000000000000013
#00952:0000000000630000
#03952:0000000000000064
#03957:24
#04055:00000024000000000000000000000000
#04052:0014
#0385a:00000054
#00058:0014
#00552:0000000000000013
#01158:0000000000000013
#0115b:0000000000530000
#01355:0000000000000013
#01352:0000000000630000
#0205b:53
#0245a:5414
#02458:00240000
#04558:5300000000000013
#0455b:0063
#0535b:53
#05352:63
#04455:63
#04755:6300000000000013
#04752:0053
#0575b:0063
#05758:53
#07152:13
#07758:0000000000000053
#09352:5300000000000013
#09355:0063
#09358:5300000000000013
#0935b:0063
#09058:53
#0905b:00230000
#09155:6300000000000013
#09152:0053
#0915b:6300000000000013
#09158:0053
#0795a:14
#07952:14
#02858:63
#03058:53
#0305b:00530000
#02655:63
#02652:00630000
#05455:63
#05452:0063
#05458:53
#0545b:0053
#05555:63
#05558:53
#06252:63
#06255:00230000
#06152:6363
#06155:00230023
#07055:23
#10055:63
#10052:0063
#10058:53
#1005b:0053
#0995b:53
#09952:63
#00854:00140014
#00858:0014
#03659:0013
#03654:0013
#01458:0000000000000063
#08452:00000064
#08555:24
#0855a:0000000000000054
#08657:00000024000000000000000000000000
#0865a:0014
#08254:0013
#08259:0013
#000380:1424
#001320:0000000000130023
#002380:0013
#0023b0:00000023
#002321:0013
#002351:00000023
#0033b1:0000000000130023
#004351:0013
#004321:00000023
#0043b0:0013
#004380:00000023
#005320:0000000000130023
#007350:13
#007320:0053
#008350:23
#0073b1:13
#007381:0053
#0083b1:23
#009321:0000000000130000
#009351:0000000000000023
#010381:0013
#0103b1:00000023
#010320:0013
#010350:00000023
#0113b0:0000000000130000
#011380:0000000000000023
#012350:0013
#012320:00000023
#0123b1:0013
#012381:00000023
#013321:0000000000130000
#013351:0000000000000023
#014381:0000000000000013
#0163b1:23
#018381:1323
#0183b1:00330000
#019351:13
#019321:00230000
#0203b1:13
#020391:00330000
#020381:0023
#020351:0000000000000013
#021351:0023000000000000
#022351:1323
#022341:0033003300000000
#022321:00330000
#0243a1:1424
#024381:00540000
#026351:1323
#026341:0033003300000000
#026321:00330000
#027381:13
#0273b1:00230000
#028381:13
#0283a1:00330000
#0283b1:0023
#028351:0000000000000013
#029351:0023000000000000
#030381:1323
#030391:0033003300000000
#0303b1:00330000
#032321:0013
#033351:23
#032380:0013
#0333b0:23
#0353b0:13
#035380:00230000
#035351:13
#035321:00230000
#0353b1:0013
#035381:00000023
#035350:0013
#035320:00000023
#0383a0:00000014
#038380:0000000000000034
#039370:34
#0393a0:00240000
#039320:0000000000000014
#040350:00000054000000000000000000000000
#040320:0024
#041350:13230000
#0413b1:13230000
#041381:00001323
#041320:00001323
#042350:13230000
#0423b1:13230000
#042381:00001323
#042320:00001323
#044350:13
#044320:0023
#045380:1300000000000023
#0453b0:0033
#047350:1300000000000023
#047320:0033
#049380:13230000
#049321:13230000
#049351:00001323
#0493b0:00001323
#050380:13230000
#050321:13230000
#050351:00001323
#0503b0:00001323
#053320:13
#053340:0033
#054350:33
#054320:0033
#055350:33
#056320:23
#0533b1:13
#053391:0033
#054381:33
#0543b1:0033
#055381:33
#0563b1:23
#057381:13333333333333330000000000000000
#0573b1:00000000000000003333333333333333
#058381:23
#058351:000000000000135353535353
#058361:000000000000000000000000005300530053005300530053
#059351:23
#0583b0:000000000000135353535353
#0583a0:000000000000000000000000005300530053005300530053
#0593b0:23
#0593b0:000000000000000000000000000000000000000000135353
#0593a0:000000000000000000000000000000000000000000000000000000000000000000000000000000000000005300530053
#0603b0:535353230000000000000000000000000000000000000000
#0603a0:005300530053000000000000000000000000000000000000000000000000000000000000000000000000000000000000
#059321:000000000000000000000000000000000000000000135353
#059331:000000000000000000000000000000000000000000000000000000000000000000000000000000000000005300530053
#060321:535353230000000000000000000000000000000000000000
#060331:005300530053000000000000000000000000000000000000000000000000000000000000000000000000000000000000
#061321:130000000000333333003333
#061351:003333333333000000330000
#062321:33003323
#062351:003333333333000000000000
#064381:1323
#064320:1323
#066350:1323
#0663b1:1323
#067381:0000000000000013
#068381:0023000000000000
#070351:13
#071321:23
#077381:1300003300330033
#0783b1:0023
#081381:13
#0813b1:00230000
#081320:13
#081350:00230000
#081380:0013
#0813b0:00000023
#081321:0013
#081351:00000023
#084321:00000014
#084341:0000000000000034
#085351:34
#085321:00240000
#0853a1:0000000000000014
#086371:00000054000000000000000000000000
#0863a1:0024
#087351:13
#087321:00230000
#0873b0:13
#087380:00230000
#087380:0013
#0873b0:00000023
#087321:0013
#087351:00000023
#088351:13
#088321:00230000
#0883b0:13
#088380:00230000
#088380:0013
#0883b0:00000023
#088321:0013
#088351:00000023
#090381:1323
#0903b1:00530000
#091351:1300000000000023
#091321:0033
#0913b0:1300000000000023
#091380:0033
#093320:1300000000000023
#093350:0033
#093381:1300000000000023
#0933b1:0033
#095381:13
#0953b1:00230000
#095320:13
#095350:00230000
#095350:0013
#095320:00000023
#0953b1:0013
#095381:00000023
#096381:13
#0963b1:00230000
#096320:13
#096350:00230000
#096350:0013
#096320:00000023
#0963b1:0013
#096381:00000023
#099321:13
#099341:0033
#100351:33
#100321:0033
#101351:23
#0993b0:13
#099390:0033
#100380:33
#1003b0:0033
#101380:23
