This file was generated by Ched 2.7.0.0.
#TITLE ""
#ARTIST ""
#DESIGNER ""
#DIFFICULTY 0
#PLAYLEVEL
#SONGID ""
#WAVE ""
#WAVEOFFSET 0
#JACKET ""
#REQUEST "ticks_per_beat 480"
#00002: 4
#BPM01: 225
#00008: 01
#TIL00: ""
#HISPEED 00
#MEASUREHS 00
#00112:1300000013130000
#00117:1300000013130000
#00114:0013000000000000
#00119:0013000000000000
#00116:00230000
#0011b:00230000
#0081a:00140000
#00818:0014
#00816:00000014
#00814:0013
#00817:13
#00812:13000013
#02218:00000013
#02215:0000000000000013
#02219:0000001300000000
#02214:0013000000000000
#0221b:1313
#02212:00130000
#02216:2323
#02217:00230000
#02512:1313131800000000
#02514:0000000013131318
#02518:00000024
#02516:00240000
#02510:41
#02616:1313131800000000
#02612:0013
#02615:00000013
#0261b:0000000000000013
#02618:00000023
#0261a:00240000
#02712:0000001300002300
#02718:00130000
#02716:15
#02715:00231517
#03817:00000013
#03814:0000000000000013
#03812:2418000000001300
#03819:0000000000000013
#03816:0000241800000000
#0381a:0024
#0391b:13
#03912:0000132400000024
#03916:13
#0391a:0000001400000014
#03914:0000000000140000
#03918:0000000000240000
#05616:0000140000001313
#0561a:0014000000000000
#05612:0000001400000000
#05617:0000000013130000
#05816:0014001400000000
#05812:00140000
#0581a:14140000
#05912:13001c0000140000
#0591b:13
#05916:00001414
#0591a:0000000000140000
#06016:0000141400141400
#06012:0000001300000000
#0601b:00000013
#06212:130013000000130000130000
#06215:001400000013000000000000
#06218:001300
#0621b:00131300
#06216:0000000000130000
#06415:00130000
#06412:00000013
#06414:0013
#06413:0000000000130000
#0641b:00130000
#06417:13000013
#06419:0013
#0671b:00130000
#06712:2900130013130000
#06716:0000000013130000
#0671f:11
#0681b:00130000
#06815:0000001600000016
#06818:00001313
#06812:0000000000130000
#0691b:13131313
#06915:0013000000000000
#06918:0000001300000000
#06912:13131313
#06916:0000000000140024
#07112:0013
#07118:00000013
#07115:0000160000130013
#0711b:0023
#07212:1300000023000013
#0721b:00130013
#07216:00000013
#07218:0013000000000000
#07215:00130000
#07217:0000001300000000
#0731b:1323
#07316:13
#07312:0000000013000013
#07315:00000013
#07318:0000000000130000
#07317:0000001300000000
#0751b:1313
#07512:1323
#07515:00160013
#07518:0000000000130013
#07616:0000001313000014
#0761b:13130013
#07612:13002313
#0781b:1300001300001300
#07812:1300001300001300
#07816:0014140014140014
#08617:00140000000000001200000000000000
#0861a:00120000
#08614:00000012
#10112:261616000000262626001600
#10118:000000262616000000160016
#00214:0013001300000000
#00212:00130000
#0021b:1313
#00216:13
#00217:00130000
#0031b:0000000013130000
#00316:1300000013130000
#00314:0013000000000000
#00319:0013000000000000
#00312:00230000
#00317:00230000
#00712:1313
#0071b:00130013
#00717:00131313
#01416:0014001400001313
#01412:13131300
#0141b:1300130013000013
#01417:0000000000130000
#02412:00002313
#02415:00260013
#0241b:230000000000000000000000230000000000003333333333
#04416:00000013
#0441b:13001313
#04414:0000003300000013
#04419:0000000000000013
#04417:00130000
#04412:0033130000000000
#04415:13
#04512:1300130000130024
#04517:13
#0451b:0000000013130000
#04516:00000014
#0451a:0000000000000014
#04312:00130013
#04318:0000131300001313
#04315:1313000013130000
#0431b:1313
#0891b:00130013
#08919:0013000000130000
#08912:1313
#08914:0000001300000013
#08916:14141414
#01518:0013000000000000
#01515:00000000260000000013001300000000
#0151b:0000000013131313
#01512:00000000000000000000000000130013
#01618:1313131300000000
#01612:00130013000000002300230000000000
#01615:00000000001300130000000000000000
#0161b:0000000023230000
#02312:13
#02319:00330033000000000033003300000000
#02315:00000000003300330000000000330033
#03612:0016000000001300
#0361b:23000013
#0341b:00000013
#03415:0000000000000016
#03412:0000001824001300
#03416:0018240000000000
#0341a:24
#05515:0013
#05514:0000000000130000
#05513:00000013
#05512:0000130000000013
#05518:00130000
#05712:14000000000000000013000000000000
#05718:00130000000000000000000014000000
#0571a:00000000001300000000000000000000
#05719:00000013000000000000000000001400
#05714:00000000140000000000000000130000
#05713:00001400000000000000001300000000
#0571b:00000000000000130000000000000000
#05715:00000000000014000000000000000013
#05716:0014
#05717:0000000000140000
#06112:13
#06115:001300000000000000001400
#06118:001300000000
#06117:000000001400001400000000
#0611b:000000130013000000000000
#06114:000000131300
#06119:000000000000000000130013
#0631b:13000013
#06312:00130000
#06316:13000013
#06314:0013
#06318:00130000
#06319:0013
#0631a:0000000000130000
#06310:41
#06616:00131300
#06612:00000013
#06614:0000000000130000
#06618:12000012
#0661a:0012
#0661c:00120000
#03512:1316000000160000
#03518:0000001600000016
#03515:00230023
#0351b:2323
#00412:1300000013000013
#00415:00000013
#00417:1313
#0041b:0000130000130000
#00419:0013001300000000
#00416:00130000
#01818:00000013
#01815:0000000000000013
#01816:00130000
#01812:1313
#01817:1313
#0181b:00130000
#01814:0000001300000000
#01819:0013000000000000
#01917:13
#01915:00131313
#01918:0000001300130013
#01912:1300001300130000
#0191b:0013
#02012:1313
#0201b:1300130013001323
#02017:0000130000000013
#02117:0013000000000000
#02112:0000131300001313
#0211b:0000000013130000
#0051b:1300230013130000
#00517:0013000000000000
#00512:0013000013130000
#00516:00230000
#00616:0014001400130000
#00612:13131300
#0061b:1300130013000013
#00617:00000013
#05312:13
#05318:00130000
#05315:00130000
#0531b:23
#01712:1313000000000000
#01715:0000131300000000
#0171b:0000000000001313
#01718:0000000013130000
#03212:000000000000130000000000000000000000130000000000000000130000000000330000000033000000330000330000
#03216:000000000000000000000000000000000000000000000000000000000000000000000000000000000000000000000000130000000000000000000000000000000000000000000000000000000000000000000000000000000000000000000000141300000000000000000000000000000000000000000000000000000000000000000000000000000000000000000000000000000000000000000000000000000000000000000000000000000000000000000000000000000000000000000000
#0321b:000000000000000000000000130000000000000000000000000000000000000000000000130000000000000000000000000000000000130000000000330000000000000000000000330000000000000033000000000000330000000000330000
#03217:000000000000000000000000000000000000000000000000000000000000000000000000000000000000000000000000001300000000000000000000000000000000000000000000000000000000000000000000000000000000000000000000000000000000000000000000000000000000000000000000000000000000000000000000000000000000000000000000000000000000000000000000000000000000000000000000000000000000000000000000000000000000000000000000
#03215:23
#03218:23
#02816:0000000013002328
#02812:003333333333000000000000130000000000000000000000
#02815:19
#0281b:00230013
#03117:00000000001700000000000000000000
#03112:2700001300000013
#0311b:0013000000130013
#0311a:00210000
#03115:00002126
#04615:0016000000000000
#0461b:00130013
#04612:0000130000130000
#04616:0000001300000000
#04617:0013
#0511b:13131313
#05112:00131313
#05116:0014001400140014
#04912:0013130000131300
#04916:13131313
#0491b:1313
#04910:41
#05212:13000013
#0521b:13
#05216:00130000
#05214:0013
#0501b:0013130000131300
#05017:00131313
#05012:1313
#00014:00140000
#00018:24
#03016:0000000000000013
#03017:1313130000000000
#0301b:0000001300000000
#03015:0013
#03012:0000240000130000
#0301a:00000024
#07018:2212
#0701a:0012001200000000
#0701c:00120000
#07016:2212
#07014:0012001200000000
#07012:00120000
#09012:13130013
#09017:00000013
#09019:0000000000000013
#09015:0013
#09018:0033003300000000
#09212:00130013
#09215:0016000000000000
#0921b:0000130000130000
#09217:0000001300000000
#09216:0013
#0911b:1300130000130000
#09116:13000014
#09112:0000000013130014
#0911a:0000000000000024
#06512:00120000
#06516:12000012
#06514:0012
#06517:00131300
#0651b:00000013
#06519:0000000000130000
#08119:0000001300000000
#08114:0000000000000013
#08117:00230023
#0811b:2323
#08116:2323
#08516:000000000000000000000000000000000000000000000000141400000000000000000000000000000000000000000000000000000000000000000000000000000000000000000000000000000000000000000000000000000000000000000000000000000000000000000000000000000000000000000000000000000000000000000000000000000000000000000000000000000000000000000000000000000000000000000000000000000000000000000000000000000000000000000000
#0851a:2400002400000024
#08518:0000000000240000
#08512:2400002400000024
#08514:0000000000240000
#02916:0000241800000000
#02919:0000000013131300
#0291b:0013130000000000
#02914:0000000000002418
#04716:13
#04717:0000000000001313
#04712:0000000000000023
#0471c:22
#0471a:00220000
#04718:0022
#07418:0013000000001300
#07415:1300000000000013
#0741b:00132300
#07412:00130000
#07416:0000001300000000
#09712:13131313
#0971b:00131313
#09716:0014001400140014
#0981b:13000023
#09812:13
#09819:0023
#09817:00230000
#09912:13
#09918:00130000
#09915:00130000
#0991b:23
#0331b:0000000013000013
#03319:0000001300001300
#03317:0000130000130000
#03312:00130013
#03315:0013
#03714:0000001300001300
#03716:0000000000130000
#03712:1300000013000013
#03718:0013
#0371b:00130013
#03717:13
#03710:41
#04015:00140000000000000000000000000000
#04014:00120000
#04017:0012
#0401a:00000012
#04112:00000013
#04115:00330013
#0411b:23
#04118:23330000
#0421b:00000013
#04218:00330013
#04212:23
#04215:23330000
#0951b:0013130000131300
#09517:13131313
#09512:1313
#09612:0013130000131300
#09616:00131313
#0961b:1313
#09317:13
#09316:0000000022001313
#0931b:0000000000000023
#09312:22
#09314:00220000
#08715:00331300
#08718:23130013
#0871b:13
#08712:00000013
#08815:23130013
#08815:00000013
#0881b:00000013
#0881b:00000013
#08818:00331300
#08812:13
#08014:0000000000000013
#08012:26132613
#0801b:0013000000000000
#08018:13261326
#08010:41
#07915:0000001300000013
#0791b:0000000000130000
#07912:2c132613
#07918:00261326
#0791f:21
#08416:0000000000000014
#08412:2600001326001400
#0841a:00000014
#08418:0013260000000000
#0841b:1313
#08415:00130000
#08219:0000001300000000
#08216:2323
#08212:00230023
#0821b:2323
#08312:2600001326000013
#08318:0013260000132600
#08315:00130013
#0831b:1313
#0091b:0000000013130000
#00916:0000000013130000
#00914:14
#00917:00230000
#00912:00230000
#0091a:24
#00910:41
#01019:0013001300000000
#0101b:00130000
#01012:1313
#01017:13
#01016:00130000
#01112:0000000013130000
#01117:1300000013130000
#01119:0013000000000000
#01114:0013000000000000
#0111b:00230000
#01116:00230000
#0121b:1300000013000013
#01218:00000013
#01216:1313
#01212:0000130000130000
#01214:0013001300000000
#01217:00130000
#01312:1300230013130000
#01316:0013000000000000
#0131b:0013000013130000
#01317:00230000
#10212:2c
#0771b:23
#07712:23
#09418:0022
#0941a:00220000
#04814:00220000
#04816:0022
#07852:1300001300001300
#0785b:1300001300001300
#08657:00240000000000004200000000000000
#0865a:00420000
#08654:00000042
#06455:00130000
#06452:00000013
#0645b:00230000
#06457:63000023
#06459:0063
#00156:0000000000000013
#0015b:0000000000000013
#00152:0000000000530000
#00157:0000000000530000
#00357:0000000000000013
#00352:0000000000000013
#0035b:0000000000630000
#00356:0000000000630000
#00752:5353
#00757:00530053
#01456:0000000000000063
#0145b:0000000063000043
#01457:0000000000230000
#0395b:53
#0395a:0000004400000054
#03952:0000003400000034
#03958:0000000000440000
#03954:0000000000340000
#02455:00160023
#0245b:4343
#02452:0033
#04552:0000630000000014
#04557:63
#0455a:0000000000000014
#0895b:00130013
#0715c:42
#07152:32
#06656:00130000
#06652:00000013
#06658:62000022
#0665a:0062
#0665c:00220000
#06752:39
#0085a:00340000
#00858:0034
#00856:00330034
#00854:0033
#00852:53000033
#00452:0000000043000023
#00458:00000033
#00455:00000063
#00457:0053
#0045b:0000000000230000
#0065b:0000000000000023
#00656:0000000000230000
#00657:00000053
#00652:0053
#01957:53
#00552:0000000000530000
#0055b:0000000000530000
#00555:0000000000000013
#00558:0000000000000013
#0535b:53
#05352:53
#05355:00230000
#05358:00230000
#0255b:43
#02052:5353
#02057:0000530000001323
#0205b:0000000000000013
#0365b:0043
#03655:0043
#03252:00002300000023000023000000000000
#03256:000000000000000000000000000000000000000000000000000000000000000000000000000000000000000000000000630000000000000000000000000000000000000000000000000000000000000000000000000000000000000000000000546300000000000000000000000000000000000000000000000000000000000000000000000000000000000000000000000000000000000000000000000000000000000000000000000000000000000000000000000000000000000000000000
#03255:63
#0325b:00002300000023000023000000000000
#03257:000000000000000000000000000000000000000000000000000000000000000000000000000000000000000000000000005300000000000000000000000000000000000000000000000000000000000000000000000000000000000000000000000000000000000000000000000000000000000000000000000000000000000000000000000000000000000000000000000000000000000000000000000000000000000000000000000000000000000000000000000000000000000000000000
#03258:53
#02855:49
#02856:0000000000000048
#0315a:00610000
#03157:00000000002700000000000000000000
#03358:46
#03352:36
#02755:00004547
#02758:00430000
#02756:35
#02752:0000003300000000
#05556:34
#05552:34
#00054:00241400
#00058:54
#0005a:0044
#06256:0000000000230000
#0625b:0053
#07058:2222
#0705a:0052005200000000
#0705c:00220000
#07056:2222
#07054:0062006200000000
#07052:00220000
#09156:53
#0915b:00530000
#0915a:0000000000000014
#09152:0000000000000014
#06356:53000023
#06352:00230000
#06354:0053
#06358:00130000
#0635b:00000013
#06552:00220000
#06556:52000022
#06554:0052
#06557:00130000
#0655b:00000013
#07952:1c
#08558:0000000000440000
#0855a:5400004400000044
#08556:000000000000000000000000000000000000000000000000242400000000000000000000000000000000000000000000000000000000000000000000000000000000000000000000000000000000000000000000000000000000000000000000000000000000000000000000000000000000000000000000000000000000000000000000000000000000000000000000000000000000000000000000000000000000000000000000000000000000000000000000000000000000000000000000
#08552:6400003400000054
#08554:0000000000340000
#09052:00130013
#0305b:0000002300000000
#03057:00530000
#03055:0063
#03052:0000000000230000
#04756:53
#04752:0000000000000013
#04757:0000000000000053
#0595b:43
#05952:33
#0445b:13
#04455:53
#04452:00530000
#05152:3333
#0515b:00430043
#05252:33
#07257:0000002300000000
#0725b:00530000
#0735b:23
#07356:23
#09952:53
#09958:00230000
#09955:00230000
#0995b:53
#0375b:00430043
#03752:23
#01852:3333
#0185b:00430000
#0265b:0000000000000043
#02655:00000033
#04055:00240000000000000000000000000000
#04054:00320000
#04057:0032
#0405a:00000032
#0975b:00130013
#04158:53
#0415b:53
#04252:53
#04255:53
#0495b:5353
#04956:00530053
#05052:6363
#05057:00630063
#09552:6363
#09557:00630063
#0955b:00130013
#0965b:5353
#09656:00530053
#09652:00130013
#09357:63
#09356:0000000000000063
#0935b:0000000000000013
#08758:53130013
#08855:63130013
#08855:00000013
#08052:1616
#08058:4343
#08256:3333
#08252:00330000
#08458:00360000
#08452:3636
#08355:00330033
#0465b:00630000
#04657:0063
#04656:0000002300000000
#04652:0000000000230000
#09252:00530000
#09257:0000002300000000
#09256:0053
#0925b:0000000000230000
#0345a:44
#03452:0044
#03456:00440000
#03852:34
#0385a:0034
#03856:00340000
#01555:00360000
#0095b:0000000000630000
#00956:0000000000630000
#00957:0000000000000013
#00952:0000000000000013
#0095a:44
#00954:34
#01152:0000000000530000
#01157:0000000000530000
#01156:0000000000000013
#0115b:0000000000000013
#0125b:0000000033000023
#01258:00000053
#01256:0063
#01252:0000000000230000
#01255:00000043
#0135b:0000000000630000
#01352:0000000000630000
#01358:0000000000000013
#01355:0000000000000013
#07652:53
#07452:00630000
#07456:0000002300000000
#07552:33
#0755b:43
#0225b:4343
#02252:00330000
#000340:1424
#000381:14
#000341:00540000
#0003a1:0024
#001321:0000000000130000
#001361:0000000000000023
#001370:0000000000130000
#0013b0:0000000000000023
#002360:0013
#002320:00000023
#002371:00000013
#0033b1:23
#0033b1:0000000000130000
#003371:0000000000000023
#003360:0000000000130000
#003320:0000000000000023
#004370:0013
#0043b0:0000000000530000
#004380:00000023
#004351:00000013
#004321:0000000000000053
#005361:23
#005321:0000000000130000
#005351:0000000000000023
#0053b0:0000000000130000
#005380:0000000000000023
#006320:00001323
#006360:0000000000530000
#006371:00000013
#0063b1:0000000000000053
#007371:23
#007320:1333
#007370:00330033
#008320:33
#008360:00230000
#0093b0:0000000000130000
#009370:0000000000000023
#009361:0000000000130000
#009321:0000000000000023
#010371:0013
#0103b1:00000023
#010360:00000013
#011320:23
#011320:0000000000130000
#011360:0000000000000023
#011371:0000000000130000
#0113b1:0000000000000023
#012361:0013
#012321:0000000000530000
#012351:00000023
#012380:00000013
#0123b0:0000000000000053
#013370:23
#0133b0:0000000000130000
#013380:0000000000000023
#013321:0000000000130000
#013351:0000000000000023
#0143b1:00001323
#014371:0000000000530000
#014361:0000000000000013
#015321:0023000000000000
#017361:1333000000000000
#0173b1:0000332300000000
#017321:0000000013330000
#017371:0000000000003323
#019371:13
#0193b1:00230000
#020321:1333
#020371:00330023
#020371:0000000000000013
#021321:0023000000000000
#021371:0000132300000000
#021361:0000000013230000
#021371:0000000000001323
#0233b1:13230000
#023391:00330033000000000000000000000000
#023361:0033000000000000
#023370:00132300
#023350:00000000003300330000000000000000
#023320:0000003300000000
#0233b1:00001323
#023391:00000000000000000033003300000000
#023361:0000000000330000
#023370:00000013
#023350:00000000000000000000000000330033
#023320:0000000000000033
#024370:23
#024350:00000013
#0243b0:000000000000000000000000000000000000003333333333
#0253b0:23
#028320:133333333333000000000000000000000000000000000000
#028380:00230000
#030370:00130000
#0303b0:0000005300000000
#030380:0023
#030351:0013
#030321:0000000000530000
#030361:00000023
#031321:1727000000000000
#0313a1:0000112100000000
#031371:00000000005700000000000000000000
#031351:0011
#031321:0000000000270000
#032351:13
#032321:000000000000330000000000000000000000330000000000000000330000000000330000000033000000330000330000
#032361:000000000000000000000000000000000000000000000000000000000000000000000000000000000000000000000000330000000000000000000000000000000000000000000000000000000000000000000000000000000000000000000000005300000000000000000000000000000000000000000000000000000000000000000000000000000000000000000000000000000000000000000000000000000000000000000000000000000000000000000000000000000000000000000000
#033381:26
#032380:13
#0323b0:000000000000000000000000330000000000000000000000000000000000000000000000330000000000000000000000000000000000530000000000330000000000000000000000330000000000000033000000000000330000000000330000
#032370:000000000000000000000000000000000000000000000000000000000000000000000000000000000000000000000000005300000000000000000000000000000000000000000000000000000000000000000000000000000000000000000053000000000000000000000000000000000000000000000000000000000000000000000000000000000000000000000000000000000000000000000000000000000000000000000000000000000000000000000000000000000000000000000000
#032360:0034
#033320:26
#0353b0:13
#035380:00230000
#035351:00130000
#035321:0023
#0353b0:0013
#035380:00000023
#035351:00000013
#036321:23
#0363b0:13
#036380:00330000
#036350:0023
#036321:00130000
#0363b1:0023
#037321:13
#037361:00230000
#0393b1:13
#039361:00230000
#0393a1:0000000000000014
#040351:00540000000000000000000000000000
#0403a1:00240000
#041381:13
#041351:00330000
#041321:0023
#0413b0:13
#041380:00330000
#041350:0023
#042350:13
#042380:00330000
#0423b0:0023
#042321:13
#042351:00330000
#042381:0023
#044351:13
#044321:0033330000000000
#044341:0000003300000000
#044371:0023
#045371:13
#0453b1:00230000
#045320:00130000
#045360:0023
#0463b0:00132300
#046360:0000003300000000
#046371:00001323
#046321:0000000000330000
#047361:13
#047321:0000000000003323
#047370:0000000000000013
#0483b0:0023
#0493b0:1300005333000053
#049360:0033330000333300
#0503b0:23
#050321:1300005333000053
#050371:0033330000333300
#051321:23
#052391:0000152500000000
#052371:0000000014240000
#052351:0000000000001323
#0533b1:13
#053351:00530000
#0533a1:0034
#0543a1:34000000000000540000000000000000
#054381:0034
#054361:00000000000000000054000000000054
#055321:24
#053320:13000000000000003400000000000054
#053380:00530000
#054340:34
#054360:00540000000000000000000000000000
#055360:24
#0553b0:0013
#055390:0000000000330000
#055370:00000033
#055350:0000000000000023
#056320:0000000014240000
#0563a0:0000000000001424
#058360:000000000000000000000000000000000000000000000000145454545454545454545454240000000000000000000000
#058370:000000000000000000000000000000000000000000000000000000000000000000000000000000000000000000000000005400520054005200540052005400520054005200540052000000000000000000000000000000000000000000000000
#0583a1:000000000000000000000000000000000000000000000000145454545454545454545454240000000000000000000000
#0583b1:000000000000000000000000000000000000000000000000000000000000000000000000000000000000000000000000005200000052000000520000005200000052000000520000000000000000000000000000000000000000000000000000
#058391:000000000000000000000000000000000000000000000000000000000000000000000000000000000000000000000000000000540000005400000054000000540000005400000054000000000000000000000000000000000000000000000000
#059321:000000000000000000000000000000000000000000000000000000000000000000000000000000000000165656565656
#059331:000000000000000000000000000000000000000000000000000000000000000000000000000000000000000000000000000000000000000000000000000000000000000000000000000000000000000000000000005600540056005400560054
#060321:565656565656260000000000000000000000000000000000000000000000000000000000000000000000000000000000
#060331:005600540056005400560054000000000000000000000000000000000000000000000000000000000000000000000000000000000000000000000000000000000000000000000000000000000000000000000000000000000000000000000000
#059380:000000000000000000000000000000000000000000000000000000000000000000000000000000000000165656565656
#059390:000000000000000000000000000000000000000000000000000000000000000000000000000000000000000000000000000000000000000000000000000000000000000000000000000000000000000000000000005400000054000000540000
#059370:000000000000000000000000000000000000000000000000000000000000000000000000000000000000000000000000000000000000000000000000000000000000000000000000000000000000000000000000000000560000005600000056
#060380:565656565656260000000000000000000000000000000000000000000000000000000000000000000000000000000000
#060390:005400000054000000540000000000000000000000000000000000000000000000000000000000000000000000000000000000000000000000000000000000000000000000000000000000000000000000000000000000000000000000000000
#060370:000000560000005600000056000000000000000000000000000000000000000000000000000000000000000000000000000000000000000000000000000000000000000000000000000000000000000000000000000000000000000000000000
#0623b0:00001323
#062360:0000000000530000
#063360:13000053
#063320:00530000
#063340:0053
#064320:23
#064371:13000053
#0643b1:00530000
#064391:0053
#0653b1:23
#065360:12000052
#065320:00520000
#065340:0052
#066320:22
#066381:12000052
#0663c1:00520000
#0663a1:0052
#0673c1:22
#067361:0000000000000013
#0683b1:0023000000000000
#067320:0000000000000013
#068370:0023000000000000
#070380:1252
#0703a0:0052005200000000
#0703c0:00520000
#0713c0:22
#070361:1252
#070341:0052005200000000
#070321:00520000
#071321:22
#0723b1:00132300
#072371:0000003300000000
#0733b1:13
#073371:00230000
#073360:13
#073320:00230000
#074320:00132300
#074360:0000003300000000
#076320:13
#076360:00230000
#081360:13
#081320:00230000
#081360:0013
#081320:00000023
#0823b0:13
#082370:00230000
#0823b0:0013
#082370:00000023
#0853a0:14240000
#085360:0054000000000000
#085321:14240000
#085361:000000000000000000000000000000000000000000000000005400000000000000000000000000000000000000000000000000000000000000000000000000000000000000000000000000000000000000000000000000000000000000000000000000000000000000000000000000000000000000000000000000000000000000000000000000000000000000000000000000000000000000000000000000000000000000000000000000000000000000000000000000000000000000000000
#085321:0000000000000014
#086371:00540000000000000000000000000000
#086321:00240000
#087381:13
#087351:00330000
#087321:0023
#088351:13
#088381:00330000
#0883b1:0023
#0903b1:1323
#090381:0033003300000000
#090361:00330000
#091361:13
#091321:00230000
#0913b0:00130000
#091370:0023
#092320:00132300
#092370:0000003300000000
#092361:00001323
#0923b1:0000000000330000
#093371:13
#0933b1:0000000000003323
#093360:0000000000000013
#094320:0023
#095320:1300005333000053
#095370:0033330000333300
#096320:23
#0963b1:1300005333000053
#096361:0033330000333300
#0973b1:23
#098321:0000152500000000
#098351:0000000014240000
#098381:0000000000001323
#0993b1:13
#099351:00530000
#0993a1:0034
#1003a1:34000000000000540000000000000000
#100361:0034
#100321:00000000000000000054000024000000
#099320:13000000000000003400000000000054
#099380:00530000
#100340:34
#100360:00540000000000000000000024000000
