This file was generated by Ched 2.7.0.0.
#TITLE ""
#ARTIST ""
#DESIGNER ""
#DIFFICULTY 0
#PLAYLEVEL
#SONGID ""
#WAVE ""
#WAVEOFFSET 0
#JACKET ""
#REQUEST "ticks_per_beat 480"
#00002: 4
#BPM01: 225
#00008: 01
#TIL00: ""
#HISPEED 00
#MEASUREHS 00
#0011a:14
#00114:0014
#00214:0014
#0021a:14
#00318:14
#00312:0014
#00418:14
#00412:0014
#0051a:14
#00514:0014
#0061a:14
#02118:1414
#02114:00140014
#0221a:14
#02216:00140000
#02212:0014
#02318:14
#02312:00140000
#0231a:0014
#02314:00000014
#02512:14
#02518:00140000
#02514:0014
#0251a:00000014
#02510:41
#02614:14
#02618:00140000
#02612:0014
#02914:1414
#02918:00140014
#03012:14
#03016:00140000
#0301a:0014
#0171a:14
#01714:00140000
#01718:0014
#01712:00000014
#01818:14
#01814:00140000
#0181a:0014
#01914:14
#01918:00140000
#01912:0014
#0191a:00000014
#02718:14
#02714:00140000
#0271a:0014
#02712:00000014
#03314:00140000
#03318:0014
#03312:00000014
#0331a:24
#0341a:14
#03414:00140000
#03418:0014
#03418:0014
#0361a:1414
#03614:00140000
#03718:00140000
#03714:0014
#0371a:00000014
#03712:14
#03710:41
#03812:14
#03818:00140000
#03814:0014
#03814:0014
#03918:0000000000000014
#0391a:14
#0411a:14
#04114:14
#04212:14
#04218:14
#04318:1414
#04314:00140014
#04512:1414
#04518:00140000
#0461a:1414
#04614:00140000
#04712:14
#04714:00000014
#05114:1414
#05118:00140014
#05214:14
#0521a:00140000
#05216:0014
#05212:00000014
#05318:14
#0531a:0014
#05418:14
#0541a:0014
#05518:14
#05614:0014
#05914:14
#0591a:0014
#06012:14
#06018:0014
#0631a:1414
#06314:00140014
#06310:41
#06512:1414
#06518:00140014
#0671a:1414
#06714:00140014
#0671f:11
#06918:0014
#06912:00000014
#0691a:14
#06914:00140000
#07112:0014
#07218:1414
#07214:00140000
#07312:14
#0731a:0014
#07414:1414
#07418:00140000
#0751a:14
#07512:0014
#07618:1414
#07614:00140000
#07714:0014
#07718:0014
#07712:14
#0771a:14
#02418:14
#04912:14
#04918:14
#04910:41
#0501a:14
#05014:14
#06818:1414
#06812:00140014
#07918:00140000
#07914:0014
#0791a:00000014
#07912:24
#0791f:21
#08012:14
#08018:00140000
#08014:0014
#08014:0014
#08010:41
#08212:1414
#08218:00140000
#08314:00140000
#08318:0014
#08312:00000014
#0831a:14
#0841a:14
#08414:00140000
#08418:0014
#08418:0014
#08514:0000000000000014
#08512:14
#08712:14
#08718:14
#0881a:14
#08814:14
#08914:1414
#08918:00140014
#0911a:1414
#09114:00140000
#09212:1414
#09218:00140000
#0931a:14
#09318:00000014
#09718:1414
#09714:00140014
#09818:14
#09812:00140000
#09816:0014
#0981a:00000014
#09914:14
#09912:0014
#10014:14
#10012:0014
#10114:14
#10112:00343400
#0951a:14
#09514:14
#09612:14
#09618:14
#00912:14
#00918:0014
#00910:41
#01018:0014
#01012:14
#01114:14
#0111a:0014
#01214:14
#0121a:0014
#01312:14
#01318:0014
#01412:14
#01418:0000000000000034
#00012:0026
#01614:0024
#03114:24
#03118:00240000
#03112:0024
#0311a:00000024
#03214:24
#03218:00240000
#03213:0024
#03219:0024
#07018:24
#10218:26
#00818:00240024
#00814:0024
#03514:0034
#03513:00340000
#08118:0034
#08119:00340000
#00052:0016
#03958:0000000000000054
#0395a:54
#04252:54
#04258:54
#0415a:54
#04154:54
#04752:64
#04754:00000024
#04852:0014
#05458:64
#0545a:0024
#05358:64
#0535a:0024
#05558:64
#0715a:14
#0785a:14
#07852:14
#07754:0024
#07758:0024
#0775a:54
#07752:54
#02458:54
#0245a:0014
#06252:0014
#0585a:0014
#0335a:14
#04952:64
#04958:64
#0505a:64
#05054:64
#08554:0000000000000064
#08552:64
#08752:64
#08758:64
#0885a:64
#08854:64
#0935a:54
#09358:00000024
#09954:54
#09952:0024
#10054:54
#10052:0024
#10154:54
#0955a:54
#09554:54
#09652:54
#09658:54
#07952:14
#0945a:0014
#006340:00001434
#007340:34
#008320:24
#014380:0000000014003434
#0163a0:24
#020340:14
#020320:0024
#024380:14
#0243a0:0024
#028380:14
#0283a0:0024
#035320:14
#035330:00340000
#035340:00003424
#0393a0:14
#039380:0000003400340034
#0403a0:0024
#0413a0:14
#041380:0024
#041341:14
#041321:0024
#042321:14
#042341:0024
#042380:14
#0423a0:0024
#044380:14
#0443a0:0024
#047320:14
#047340:00000054
#048320:0024
#049320:14
#049340:0024
#049381:14
#0493a1:0024
#0503a1:14
#050381:0024
#050340:14
#050320:0024
#053380:14
#0533a0:0054
#054380:34
#0543a0:0054
#055380:34
#0563a0:24
#0573a0:14340000
#057380:00003434
#0583a0:34342400
#061320:14340000
#061340:00003434
#062320:34342400
#0643a0:1424
#066320:1424
#070380:14
#0713a0:24
#077320:14
#077340:0054
#078320:24
#0773a1:14
#077381:0054
#0783a1:24
#0813a1:14
#081391:00340000
#081381:00003424
#085321:14
#085341:0000003400340034
#086321:0024
#087321:14
#087341:0024
#087380:14
#0873a0:0024
#0883a0:14
#088380:0024
#088341:14
#088321:0024
#090341:14
#090321:0024
#0933a1:14
#093381:00000054
#0943a1:0024
#0953a1:14
#095381:0024
#095340:14
#095320:0024
#096320:14
#096340:0024
#096381:14
#0963a1:0024
#099341:14
#099321:0054
#100341:34
#100321:0054
#101341:34
#101321:00343424
