This file was generated by Ched 2.6.4.0.
#TITLE ""
#ARTIST ""
#DESIGNER ""
#DIFFICULTY 0
#PLAYLEVEL
#SONGID ""
#WAVE ""
#WAVEOFFSET 0
#JACKET ""
#REQUEST "ticks_per_beat 480"
#00002: 4
#BPM01: 92
#BPM02: 184
#00008: 01
#09308: 01
#01308: 02
#TIL00: ""
#HISPEED 00
#MEASUREHS 00
#0051a:1414
#00612:1414
#0071a:14
#00714:0014
#0081a:14
#00912:1414
#0101a:1414
#01112:14
#01118:0014
#01412:1616
#01318:2616
#01310:41
#01712:0016
#01718:16
#01812:0016
#01818:16
#02218:1616
#02112:2616
#02518:0016
#02512:16
#02618:0016
#02612:16
#0401a:00000014
#04014:14
#04010:00000041
#04112:0014
#04218:00140000
#04314:0014
#0441a:00140000
#04512:14
#03918:0014
#05212:0014000000000000
#0521a:0000000000000014
#05210:0041000000000000
#05314:0000000000140000
#05418:0000000000000014
#05512:0000000000140000
#0561a:0000001400000000
#07912:1616
#08018:1616
#08112:1616
#08218:16
#08212:0016
#08318:1616
#08412:1616
#08518:1616
#08618:0016
#08612:16
#08712:1616
#08710:41
#08818:1616
#08912:1616
#09018:16
#0651f:11
#07218:0000000000000026
#0721f:0000000000000021
#04919:0000000000000034
#05018:0000000000340000
#06113:00340000
#06214:34
#07310:0000000000000041
#02710:41
#0013a0:14
#0023a0:24
#003320:14
#004320:24
#012320:14000000000000240000000000000000
#015380:1626
#016320:1626
#019380:16
#020380:00260000
#023320:1626
#024380:1626
#027320:14
#028320:24
#0293a0:14
#0303a0:24
#031340:14
#032340:24
#033380:14
#034380:24
#035320:14
#035330:0034
#036340:34
#036330:0034
#037320:34
#037330:0034
#038340:34
#039340:24
#0463a0:00140000
#047390:34
#047380:0000000000340000
#048390:0000003400000000
#0493a0:0034000000000000
#049390:0000000000000034
#050380:0000000000340000
#051380:0000002400000000
#057320:0000000000140000
#058330:0000003400000000
#059340:34
#059330:00000034
#060320:0034
#061330:00340000
#062340:34000024
#063380:0014
#064380:00240000
#065320:14
#068340:0000540000000054
#071320:0000000000000024
#072380:0000000000000016
#073380:0000000000000026
#074320:0000000000000016
#075320:0000000000000026
#076380:0000000000000016
#077380:0000000000000026
#090320:0016
#091320:26
#091380:0016
#092380:26
#092320:0016
#093320:36
#094320:24
#095380:14
#0963a0:3400000000000024
