This file was generated by Ched 2.6.4.0.
#TITLE ""
#ARTIST ""
#DESIGNER ""
#DIFFICULTY 0
#PLAYLEVEL
#SONGID ""
#WAVE ""
#WAVEOFFSET 0
#JACKET ""
#REQUEST "ticks_per_beat 480"
#00002: 4
#BPM01: 92
#BPM02: 184
#00008: 01
#09308: 01
#01308: 02
#TIL00: ""
#HISPEED 00
#MEASUREHS 00
#0051b:13000000000000000000000000130013
#00516:00000000000000130000000000001300
#00517:0000000000130000000000000000000000000000000000000000000000000000
#00512:00000000001300000000130000000000
#00617:0000000013000000000000000000000000000000001300000000000000000000
#0061b:00000000001300130000000000000000
#00616:0000001300000013
#00712:00130013000000000000000000130000
#00717:0013000000000000
#00715:0000000000000013
#00718:00000000000000000000000000000013
#0071b:00000013
#0081b:13000000000000000000000000130000
#00818:00130000000000000000001300000013
#00815:00001300000000000013000000001300
#00812:00000000000000130000000000000000
#00912:13000000000000000000000000130013
#00917:00000000000000130000000000001300
#00916:0000000000130000000000000000000000000000000000000000000000000000
#0091b:00000000001300000000130000000000
#01016:0013000000000000
#01012:00000000001300000000000013000000
#01017:0000001300000013
#0101b:00000000000000000013000000000000
#0111b:00130013000000000000000000000000
#01116:0013000000000000
#01114:00130000
#01119:00000000001300000000000000000000
#01112:00000000000013000000130000130000
#01118:00000000000000000000001300000013
#01115:0000000000001313
#01117:00000000000000130000000000000000
#0141b:0013001300000013
#01418:00001313
#01415:0000000000130000
#01412:0000000000000023
#01512:0013000013000000
#01517:0000130000130000
#01516:0000000000000013
#0151b:0000000000000023
#01617:0013000000000000
#01612:0000130000000013
#0161b:0000000013000023
#01618:0000000000130000
#01615:00000013
#0171b:0013001300000000
#01716:00130000
#01718:0013
#01715:0000000000130000
#01712:00000013
#01717:0000000000000013
#01816:0013000000000000
#01812:00001313
#01817:0000000000130000
#0181b:0000130000000013
#01919:00130000
#01917:0000000000130000
#01916:13
#01914:0000001300000000
#01912:00000013
#02015:1300000000130000
#02018:13000013
#0201b:0000000000000013
#02012:0000000000000023
#02112:0013000013000013
#02117:00130000
#02118:0000000000130000
#02115:00000013
#0211b:0000000000000023
#0221b:0013000000000023
#02216:0000130000000013
#02218:0013
#02215:0000000000130000
#02212:00000013
#02317:0013000000000013
#02312:0000130000000023
#0231b:0013
#02316:0000000000130000
#02416:0013000000000000
#0241b:0000130000000013
#02412:0000000013000023
#02415:0000000000130000
#02418:00000013
#02512:0013000000000000
#02516:0013
#0251b:0000000000130000
#02514:00000013
#02519:0000000000000013
#02517:00130000
#02612:1300000000130000
#02615:0013000000000000
#02618:00130000
#0261b:0000001300000000
#02712:0000001300000000
#02717:0013
#02716:0013000000000000
#0271b:23
#02710:41
#0431b:0000000023000013
#04315:00130000
#04318:0000001300000000
#04317:00130000000000000000000000000000
#04312:0023
#04417:0013000000000000
#04416:0000001300000000
#04412:1300230000130000
#0441b:00231300
#04418:0000000000000013
#07618:1300001300001300
#07612:0013000000000000
#07615:0000130013000023
#0761b:0000000000000023
#07718:0013001300000023
#0771b:00130000
#07715:00001313
#07712:1300000000130023
#0781b:1300000000230013
#07815:0013001300000000
#07812:0000130000230000
#07818:0013
#07918:0013000013002300
#07912:00130000
#07915:2300001300130000
#0791b:0000000000000013
#01312:2400000013000013
#0131b:0000000000130000
#01318:24
#01314:00240000
#0131a:00240000
#01317:0000000000000023
#01310:41
#02816:0013
#02912:0013
#02917:0000000000000023
#03417:0000001300000000
#03412:0023000023230000
#0341b:0000000023230000
#04112:1323
#04116:00130013
#04114:0000001300000000
#04212:13
#04214:0013000000000000
#0421b:0000000000130013
#04215:00000013
#04216:00230000
#04515:1300000000130000
#04518:00131300
#0451b:2300001300000000
#06415:0000000000000013
#06418:00000013
#06416:0013
#06412:00130000
#0641b:13
#06512:12
#0651c:12
#06518:0000121200000000
#06516:00000000001200000000000000001200
#06514:0000000000120000
#0651f:11
#06618:0012001200000000
#0661a:0000120000000012
#06616:00001212
#06614:0000000000120000
#06716:0012000000001200
#06714:0000120000000012
#0671a:0012
#06718:0000000000120000
#0701b:0000001200000000
#07019:0012
#07017:0000000000120000
#07015:00000012
#07013:0000000000000012
#0701a:0012000000000000
#07016:12
#07113:0000001200000000
#07115:0012
#07117:0000000000120000
#07119:00000012
#07213:0012000000000000
#07216:0000000000120000
#07218:0000000000120000
#07212:0000000000000023
#0721b:0000000000000023
#0721f:0000000000000021
#07312:0013
#0731b:0000000000130000
#07315:0000230000000023
#07318:0023000000000023
#07310:0000000000000041
#0741b:0000000013000023
#07418:0000230000130000
#07415:0023000000001300
#07412:0000000000000023
#07518:0013000013001300
#07515:1300130000130000
#0751b:0000001300000023
#07512:0000000000000023
#0811b:0013
#08118:0000000000130000
#08115:00000013
#08112:1400001400000013
#08116:00140000
#0811a:0024000000000000
#08015:0013000000000000
#08012:1300000000140000
#08018:00130000
#08016:0000000014000014
#0801a:0000002400002400
#08212:0000000000130013
#08216:00130000
#0821b:0013130000000000
#08217:0000000013130000
#08315:1313
#08318:0013001300000014
#0831b:00130000
#08312:0000000000130000
#08316:00000024
#0851b:0000000000130000
#08518:00000013
#08515:1400000000000013
#08517:0014000000000000
#08514:0000001400000000
#08516:0014
#08512:00240000
#08612:00130013
#08615:0000000000130013
#08618:0013130000000000
#0861b:0000000013130000
#08718:1300000000240000
#0871b:0013000000000000
#08714:0000001400000014
#08712:0014
#08716:00240014
#08710:41
#0891b:0013
#08918:0000000000130000
#08915:00000013
#08912:0000001400000013
#08914:14140000
#08916:0024000000000000
#09319:00000000131300000000000000131300
#0931b:00001300000000130013001300000000
#09316:0013
#09312:14
#0941b:000000000000000033003300000000000000000000000000000000000000000000000000000000130000000000000000
#09416:00000000000000000000001300001300
#09418:003300000000000000330000000000000000000000000000
#09419:003300003300000000000000
#0941a:000000330000003300000000000000000000000000000000
#09417:000000000000000000003333000000000000000000000000
#0011c:120000000000320032003200320000320000000000320000000000000000000000000000000000000000000000000000
#00112:00000000000000000012003232003200
#00218:120000000000320032003200320000320000000000320000000000000000000000000000000000000000000000000000
#00216:00000000000000000012003232003200
#0031c:120000000000320032003200320000320000000000320000000000000000000000000000000000000000000000000000
#00314:00000000000000000012003200000000
#0031a:0000000000001232
#00412:120000000000320032003200320000320000000000000000000000000000000000000000000000000000000000000000
#0041a:00000000000000120000000000000000
#00416:00000000000000000012000000000000
#0121b:13
#01217:0000000000130000000000000000000000000000000000000000000000000000
#01212:00000000002400000000000000000000
#0121a:0000002400000000
#01216:00000000000000240000000000000000
#0321b:0000001300000000
#03217:00000000000000000013000000000000
#0301b:00000000230000000000001300000000
#03017:0023
#03016:0023000000000000
#03012:0000002300000000
#09512:13
#09516:00000014000000000000000000000000
#0901a:0014
#09012:00130000
#0901b:0013130000000000
#09116:00000014
#09112:14
#0911a:0014
#09216:00140014
#09212:14
#0921a:0014
#0841a:14
#08417:00140000
#08419:0000001400000000
#08416:0000000000140000
#08418:00000014
#08415:0024000000000000
#08414:0024
#08413:0000000000000024
#08818:0014000014002400
#08816:0000140000140014
#0881a:2400002400000000
#0681a:0012000000000012
#06818:00120012
#06816:0000000000120000
#06916:00120012
#06918:1200001200120000
#0691a:0012
#06914:0012000000000012
#05718:0000000000230013
#05715:00001313
#05712:0000001300000000
#0571b:13
#05717:00000013000000000000000000000000
#05818:0013002300000013
#05815:1313
#0581b:00130013
#05219:0000001300130000
#05214:00130013
#05218:13
#05216:0013
#0521b:0023000000000023
#05212:0023000000000023
#05210:0041000000000000
#0531b:0000000000230013
#05314:0013001300000000
#05319:1313
#05317:00130000
#05412:1300130000000023
#05418:0013000000130000
#05415:00000013
#05416:00000000000000130000000000000000
#0541b:0000000000000023
#05915:23131323
#05918:0013001300130000
#05912:0000000000000013
#0611b:13000013
#06112:00130000
#06116:0013
#06212:00000013
#06217:13
#0621b:0000001300000000
#06316:1313
#0631b:1313
#06317:00130013
#06312:00130000
#05115:0000000000000013
#0511b:0000001300000000
#05117:0000000000130000
#05112:1300000000130000
#05514:0013001300001300
#05519:1300000013000013
#05517:00130000
#0551b:0000000000230000
#05512:0000000000230000
#05619:0013000000000000
#05614:00130000
#05616:13
#05612:0000002300130000
#0561b:00000013
#05615:0000000000000013
#0601b:0013000000000000
#06017:00000000001300000000000000000000
#06012:0013
#06016:00000013
#04912:0000000000130000
#0491b:0013000000000013
#04917:0000001300000000
#05017:0013000000000000
#05012:0000001300000000
#05016:0000000000130000
#04812:00000013
#04816:00000000000000000000000000000013
#04818:0013002300000000
#04815:13130000
#0481b:0013
#04615:00231313
#04618:0013001300130000
#04612:0000000000000013
#0461b:13
#04718:0013000000230013
#04715:23001313
#04712:0000001300000000
#0961a:00000000000000120000000000001200
#09614:00000000000000000000000000120000
#09616:00001200001200000000001200000000
#09618:12000000120000000012000000000000
#03312:0000000000230000
#0331b:0000000000000023
#03517:00000000000000000000003300330000
#03518:0000000000330033
#03519:00000000000000000033000000000033
#03514:00003300000000330000000000000000
#03515:00000033000033000000000000000000
#03516:00000000003300000000000000000000
#0361a:00000000003300000000000000000000
#03614:00000033000000000000000000000000
#04010:00000041
#01557:0000130000530000
#01556:0000000000000063
#0155b:0000000000000013
#01652:0000130000000053
#0165b:0000000000000013
#02157:00130000
#02152:0000000000000053
#0215b:0000000000000013
#02256:0000130000000063
#0225b:0000000000000013
#02352:0000130000000013
#02356:0000000000630000
#02357:0000000000000053
#0245b:0000130000000063
#02452:0000000000000013
#04452:0000000000130000
#04555:13
#07253:0012000000000000
#07256:0000000000220000
#07258:0000000000220000
#07252:0000000000000033
#0725b:0012000000000043
#07352:0053
#0735b:0000000000630000
#07355:0000000000000013
#07358:0000000000000013
#07655:0000000013000063
#07658:23
#0765b:0000000000000013
#0015c:62
#00152:00000000000000000052000000000000
#00258:52
#00256:00000000000000000062000000000000
#0035c:62
#00354:00000000000000000052000000000000
#0035a:00000062
#00452:52
#0045a:00000000000000620000000000000000
#00456:00000000000000000062000000000000
#0055b:63
#00557:0000000000230000000000000000000000000000000000000000000000000000
#00556:00000000000000630000000000000000
#00552:00000000005300000000230000000000
#0065b:00000000000000630000000000000000
#00657:0000000000000000000000000000000000000000002300000000000000000000
#00952:53
#00956:0000000000230000000000000000000000000000000000000000000000000000
#0095b:00000000006300000000230000000000
#00957:00000000000000530000000000000000
#0105b:00000000000000000063000000000000
#01157:00000000000000530000000000000000
#0125b:63
#01257:0000000000230000000000000000000000000000000000000000000000000000
#01256:00000000000000140000000000000000
#0135b:0000000000630000
#01352:3400000000000053
#0135a:00440000
#01357:0000000000000013
#0145b:0000000000000063
#01452:0000000000000013
#01456:0013000000000000
#01757:0000000000000053
#0185b:00630000
#0205b:0000430000000063
#02055:23
#02058:23
#02052:0000330000000013
#02557:00530000
#0265b:0000006300000000
#02652:0000000000530000
#02657:0000000000130000
#0325b:0000006300000000
#03257:00000000000000000023000000000000
#0305b:00000000000000000000002300000000
#03057:0053
#07555:23
#07552:0000000000000013
#0755b:0000000000000063
#07752:2300000000000013
#07758:0000000000000053
#0785b:2300000000130000
#07852:0000000000130000
#0795b:0000000000000023
#07955:13
#07958:00000053
#08152:0000000000000053
#08952:0000000000000053
#09456:0000000000000063
#09552:53
#09556:00000064000000000000000000000000
#06558:0000005200000000
#06556:0000000000000062
#0905a:0064
#09156:14001424
#09152:54
#0915a:0064
#09256:00240024
#09252:5434
#0925a:4464
#09356:0023
#09352:54
#0935a:44
#06754:0000000000000052
#0685a:0000000000000062
#06958:22
#06954:0000000000000052
#07056:22
#0665a:0000000000000062
#01956:13
#01954:0000001300000000
#01952:00000053
#08555:0000000000000063
#0425b:0000000000000063
#04357:00230000000000000000000000000000
#0605b:0063000000000000
#06057:00000000002300000000000000000000
#06052:0053
#06056:00000023
#06257:53
#0625b:0000002300000000
#06357:00000053
#0635b:0063
#06456:0063
#06452:00530000
#0645b:63
#0575b:63
#05757:00000023000000000000000000000000
#05452:00530000
#05456:00000000000000230000000000000000
#04852:00000053
#04856:00000000000000000000000000000023
#0495b:0063000000000000
#04957:0000002300000000
#05056:0000000000630000
#05152:23
#0745b:0000000000000013
#07452:0000000000000053
#03856:0000000000000014
#0013c0:120000000000320032003200320000320000000000320000000000000000000000000000000000000000000000000000
#001380:00000000000000000022000000000000
#001321:00000000000000000012003232003200
#002361:22
#002380:120000000000320032003200320000320000000000320000000000000000000000000000000000000000000000000000
#0023c0:00000000000000000022000000000000
#002361:00000000000000000012003232003200
#003321:22
#0033c0:120000000000320032003200320000320000000000320000000000000000000000000000000000000000000000000000
#003380:00000000000000000022000000000000
#003341:00000000000000000012003200000000
#003361:00000022
#0033a0:0000000000001232
#004380:22
#004321:120000000000320032003200320000320000000000000000000000000000000000000000000000000000000000000000
#004361:00000000000000220000000000000000
#0043a0:00000000000000120000000000000000
#004380:00000000000000000022000000000000
#004361:00000000000000000012000000000000
#004341:00000000000000000000003232323232
#004351:0000000000000000000000000000000000000000000000000032003200320032
#005341:22
#0053b0:13000000002300000000000000000000
#005370:0000000000530000000000000000000000000000000000000000000000000000
#005321:00000000001300000000530000000000
#005361:00000000000000330000000000230000
#006361:13
#006321:0023000000000000
#006321:00000013000000000000000000000000
#006361:00000000002300000000000000000000
#0063b1:00000000000000130000000000002300
#006371:0000000000000000000000000000000000000000005300000000000000000000
#0063b1:00000000000000000000000000000013
#007371:00230000000000000000000000000000
#007371:00130000
#007381:00000000003300000000000000000000
#007391:0000003300000000
#0073a1:00000000000000330000000000000000
#0073b1:0023
#007360:0013
#007350:00000000000000000033000000000000
#007340:0000000000330000
#007330:00000000000000000000003300000000
#007320:00000023
#008320:00000013000000000000000000000000
#008360:00000000002300000000000000000000
#0083b1:00000000001300000000000000000000
#008371:00000000000000230000000000000000
#009321:13000000002300000000000000000000
#009361:0000000000530000000000000000000000000000000000000000000000000000
#0093b0:00000000001300000000530000000000
#009370:00000000000000330000000000230000
#010370:13
#0103b0:0023000000000000
#0103b0:00000013000000000000000000000000
#010370:00000000002300000000000000000000
#010320:00000000000000130000000000000000
#010360:00000000000000000023000000000000
#0103b1:00000000000000000013000000000000
#010371:00000023
#010321:00000000000000000000000000000013
#011361:00230000000000000000000000000000
#011371:00000000000000130000000000000000
#0113b1:0000000000230000
#0123b1:13
#012371:0000000000530000000000000000000000000000000000000000000000000000
#0123a1:00000000002400000000000000000000
#0133b1:0000000000130000
#013371:0000000000000023
#013320:0000000000000013
#014360:0023000000000000
#0143b0:0000000000000013
#015370:0023000000000000
#015370:0000000000130000
#0153b0:0000000000000023
#015361:0000000000000013
#016321:0023000000000000
#016321:0000000000000013
#017361:0023000000000000
#017371:0000000000000013
#0183b1:0023000000000000
#0183b1:00130000
#018371:0023
#019321:00000013
#020351:53
#020321:00230000
#020380:13
#0203b0:00230000
#0203b0:0000000000000013
#021370:0023000000000000
#021320:0000000000000013
#022360:0023000000000000
#022360:0000000000000013
#023320:0023000000000000
#023360:0000000000130000
#023320:0000000000000023
#023371:0000000000000013
#0243b1:0023000000000000
#0243b1:0000000000000013
#025371:0023000000000000
#025371:00130000
#0253b1:0023
#0263b1:0000001300000000
#026371:0000000000230000
#026320:0000000000130000
#027360:23
#0273b0:0013000000000000
#027370:0000002300000000
#027320:0013
#027360:00000023
#0273b1:0000000000001323
#027340:0000000000000013
#028340:23
#028391:1323000000000000
#028320:0013230000000000
#028371:00130000
#0283b1:0023
#0283b1:0000000000001323
#028320:0000000000000013
#029320:23
#029381:1323000000000000
#029350:0013230000000000
#0293b1:00130000
#029371:0023
#029371:0000000000132300
#029320:0000000000001323
#029371:0000000000000013
#0303b1:0023000000000000
#030360:0013230000000000
#0303b1:0000132300000000
#030320:0000001323000000
#030371:0000000013000023
#0303b1:00000000000000000000005300000000
#030320:0000000000000013
#031320:0023000000000000
#031381:00001323000000000000000000000000
#031350:00000013230000000000000000000000
#0313b1:0000132300000000
#031320:0000001323000000
#031381:0000000013230000
#031350:0000000000132300
#0313b1:0000000000001323
#031360:0000000000000013
#032320:0023000000000000
#032381:0013230000000000
#032350:0000132300000000
#0323b1:0000001300002300
#032371:00000000000000000053000000000000
#032350:0000000000001323
#0323b1:0000000000000013
#0333b1:23
#033320:1300332300000000
#033360:0033000000000000
#0333b1:0000001300230000
#033371:0033
#033320:0000000000130000
#033360:0000000000000023
#0333b1:0000000000000013
#034371:0023000000000000
#034320:0013002300000000
#034360:00330000
#034320:0000000000000013
#035320:00330000000000002300000000000000
#035340:00003300000000330000000000000000
#035350:00000033000033000000000000000000
#035360:00000000333300000000000000000000
#0353b1:0013
#035391:00000000000000000033000000000033
#035381:0000000000330033
#035371:00000000000000000000003333330000
#0363b1:23
#036360:13
#036340:00330033000000000000000000000000
#036320:0033000000000000
#036350:00230000
#036381:00130000
#0363a1:00000000003300000000000000000000
#0363b1:0000003300000000
#036391:00000000000000330000000000000000
#036371:0023
#036320:00001323
#036340:00000000000000000033003300000000
#036360:0000000000330000
#0363b1:00000013
#036391:00000000000000000000000000330033
#036371:0000000000000033
#0373b1:23
#037360:13
#037340:00330000000000000000000000000000
#037320:0023000000000000
#037371:0013000000000000
#037391:00000033000000000000000000000000
#0373b1:00230000
#037360:00130000
#037340:00000000003300000000000000000000
#037320:0000002300000000
#037371:0000001300000000
#037391:00000000000000330000000000000000
#0373b1:0023
#037360:0013
#037340:00000000000000000033000000000000
#037320:0000000000230000
#037371:0000000000130000
#037391:00000000000000000000003300000000
#0373b1:00000023
#037360:00000013
#037340:00000000000000000000000000330000
#037320:0000000000000023
#037371:0000000000000013
#037391:00000000000000000000000000000033
#0383b1:23
#038320:14
#038330:00340000000000000000000000000000
#038340:0034000000000000
#038350:000000000000000000340000000000000000005400540054005400540054005400540054005400540054000000000000
#038360:0000343400000024
#038370:000000000000000000005454545454545454545454000000
#039320:0014240000000000
#0393a1:0000142400000000
#039340:0000001424000000
#039381:0000000014240000
#039320:0000000000142400
#0393a1:0000000000001424
#039360:0000000000000014
#040360:24
#0403a1:14240000
#040371:0034000000000000
#040320:00142400
#040350:0000003400000000
#040381:0000000014240000
#040340:0000000000142400
#040381:00000016
#0423b1:535353535353230000000000000000000000000000000000
#0423a1:005300530053005300530053000000000000000000000000000000000000000000000000000000000000000000000000
#042361:0000001300000000
#042321:0000000000230000
#0423b1:0000000000000013
#043371:00530000000000000000000000000000
#0433b1:00230000
#043321:0000000000130000
#043361:0000000000000023
#045321:00000013
#046321:23
#048321:00000013
#048361:00000000000000000000000000000053
#049321:0023000000000000
#0493b0:0013000000230000
#049370:0000005300000000
#049360:0000000000000013
#050320:0023000000000000
#050370:0000001300000000
#0503b0:0000000000230000
#050361:0000000000130000
#051321:53
#051361:0000002300000000
#053321:0000000000130000
#053361:0000000000000023
#054321:0000130000230000
#054361:00000000000000530000000000000000
#0563b1:0000001300000000
#056371:0000000000230000
#0573b1:1300002300000000
#057371:00000053000000000000000000000000
#0603b1:0013000023000000
#060371:00000000005300000000000000000000
#060320:0013
#060360:00000053
#061320:23
#061370:00130000
#0613b0:0023
#061360:00000013
#062320:23
#062371:13000023
#0623b1:0000005300000000
#0633b1:0013
#063371:00000033
#0643b1:33
#064371:00230000
#064320:00130023
#064360:0033
#065380:0000001200000000
#0653a0:0000000000220000
#065360:0000000000000012
#066340:0022000000000000
#0663a0:0000000000000012
#067380:0022000000000000
#067340:0000000000000012
#068360:0022000000000000
#0683a0:0000000000000012
#069380:52
#0693a0:0022000000000000
#069340:0000000000000012
#070360:52
#070340:0022000000000000
#0713b0:0000000000000012
#0723b0:0022000000000000
#072380:0000000012520000
#0723b0:0000000000000023
#072361:0000000000120000
#072321:0000000000000023
#073321:0013
#073351:0000000000000023
#0733b0:0000000000130000
#073380:0000000000000023
#074320:0000000000000013
#075350:53
#075320:0023000000000000
#0753b0:0000000000000013
#076380:53
#0763b0:0023000000000000
#076350:0000000000000013
#077320:53
#077350:0023000000000000
#077380:0000000000000013
#0783b0:53
#078380:0023000000000000
#079380:00000013
#0793b0:0000000000000053
#080380:23
#081320:0000000000000013
#082360:0023000000000000
#085350:0000000000000013
#086320:0023000000000000
#089320:0000000000000013
#090360:0023000000000000
#0903a0:0014
#091360:24
#091321:14
#091361:0024
#0913a0:0014
#091360:00000054
#0923a0:24
#092321:1424
#092361:00540000
#0923a0:0014
#092360:00000054
#0933a0:24
#093321:14
#093361:0053
#094321:23
#094370:130000000000000000003333333300000000000000000000
#094380:003300000000000000330000000000000000000000000000
#094390:003300003300000000000000
#0943a0:000000330000003300000000000000000000000000000000
#0943b0:000000000000000033003300330000000000000000000000000000000000000000230000000000000000000000000000
#094360:0000000000000013
#095320:33
#095360:00000034000000000000000000000000
#096320:22
