This file was generated by Ched 2.6.4.0.
#TITLE ""
#ARTIST ""
#DESIGNER ""
#DIFFICULTY 0
#PLAYLEVEL
#SONGID ""
#WAVE ""
#WAVEOFFSET 0
#JACKET ""
#REQUEST "ticks_per_beat 480"
#00002: 4
#BPM01: 92
#BPM02: 184
#00008: 01
#09308: 01
#01308: 02
#TIL00: ""
#HISPEED 00
#MEASUREHS 00
#02412:0013
#0241b:0000000000130000
#02418:00130013
#02415:0013000000000023
#02518:0013000000001300
#0251b:0013
#02512:0000000000130000
#02515:0000130000000013
#0261b:13
#02612:0013000000000000
#02618:00130000
#02615:0000001300000000
#04418:0013000000130000
#0441b:0000001300000000
#04415:1300000013000013
#04412:00130000
#07615:0013000000001300
#07618:0000130000000023
#07612:0000001300000000
#0761b:0013
#07712:0013000000130000
#0771b:00130000
#07715:0000001300000023
#07718:00001313
#07812:0000130000000013
#0781b:0013000000230000
#07818:0000001300000000
#07815:0013
#07915:0013001300000000
#0791b:00130000
#07918:23001323
#07912:0000000000130000
#01418:0013000013000000
#01412:0000001300000000
#01415:0000000000130023
#0141b:00000013
#04518:1300000000130000
#04515:00131300
#0451b:0000001300000000
#04512:00000013
#06514:12
#0651a:12
#0651f:11
#06616:0000001200120000
#06618:00001212
#07018:0000001200120012
#07014:00001212
#0741b:00231300
#07415:0023000000130000
#07418:00000013
#07412:0000230000000023
#07515:00130013
#0751b:0000001300000023
#07518:0013000000130000
#07512:0013
#0811b:0013
#08112:0024001400000013
#0811a:14
#08118:00140013
#08115:0000000000130000
#08015:0013000000000000
#08018:00131400
#08012:0000002400140000
#08014:0000000000000014
#0801a:00000024
#08218:0000000000000013
#08216:00130000
#08315:13131300
#08318:0013001300130014
#08314:00000024
#0871b:0013000000000000
#08715:13
#0871a:0000001400240000
#08714:0014
#08712:00240014
#08718:0000000000000014
#08710:41
#09316:00000000000000140000000000000000
#09312:14
#06916:0000001200120000
#06918:00001212
#04312:00130000
#04318:0000001300000000
#04315:0023
#06318:00130000
#06312:0013
#06316:00000013
#0461b:13
#04617:00000000000000003313330000000000
#04619:0000330000000033
#04618:0000003300003300
#0461a:0033000000000000
#00118:0000000000000012
#00116:00000000000000000000000000120012
#00216:0000000000000012
#00218:00000000000000000000000000000012
#00219:00003232000000000000000000000000
#00316:00120000000000000000000000000012
#00318:0012001200000012
#00314:00000012001200000000000000000000
#0031a:00120000
#00518:00000000000000000000000000130013
#00515:0000000000000013
#00618:0000000000000013
#00718:0013000000000000
#00715:00000013000000000000000000000000
#00915:00000000000000000000000000130013
#00918:0000000000000013
#01015:0000000000000013
#01115:00001300000000000000001300130000
#01118:00000013000000000000130013000000
#0111a:00000000000000000000000000000033
#01318:0013
#01315:0000000000130000
#01312:0000240000000023
#0131a:24
#01310:41
#0201b:0000000000130000
#02018:00000013
#02016:13
#02015:0000000000000023
#01518:0013000000000023
#01512:00130000
#01515:0013
#0151b:0000000000130000
#01912:0000001300001300
#01915:13
#01918:0000130000130000
#0181b:0000000000000013
#01815:00130000
#01812:00000013
#01818:0013000000130000
#01615:0013000000001300
#01618:0000130000130000
#01612:0013
#0161b:0000000000000023
#01712:0000001300000013
#01718:00130013
#01715:0013000000130000
#0171b:0013
#02118:0013000000001300
#02112:0000130000000023
#0211b:0013
#02115:0000000000130000
#02315:0013000000000000
#02318:0000130000000023
#02312:0013
#0231b:0000000000130000
#02218:0013000000130000
#02215:00130013
#02212:0013
#0221b:0000000000000023
#02718:23000013
#02715:0000000000000013
#02710:41
#02818:1300000000000013
#02815:0013000000001300
#02915:13000013
#02918:0013000000130023
#03318:1300001300000000
#03315:0013000013000000
#0331b:00130000
#03312:0000000000230000
#04115:00000013
#0411b:13130000
#04112:0013001300000000
#04118:0023
#04018:0013
#04015:0000000000130000
#04012:0000000000000013
#0401b:00000023
#04010:00000041
#04212:13
#04218:0013000000000013
#04215:00230013
#04712:0000001300000000
#04716:00000000000000000000000000003313
#0471a:33
#04715:00000033
#04714:0000000000330000
#04713:0033
#0481b:00000013
#04813:0000003300000000
#04814:00330000
#04815:0033000000000000
#04816:33
#04917:0013000000000000
#04915:0000000000000013
#05018:0000001300000000
#0501b:0000000000130000
#05518:0013000000000013
#0551b:0000001300000000
#05515:00130000
#05512:13
#05618:00130013
#05612:0013000000000000
#05615:1300000000000013
#0541b:0000000000130000
#05415:13130013
#05418:0013000000000023
#05712:0000001300000000
#05716:00000000000000000000000000003313
#05718:13
#05715:00000033
#05714:0000000000330000
#05713:0033
#05115:0000000000000013
#05218:13
#0521b:00131313
#05212:0023001300130000
#05215:0000000000000013
#05210:0041000000000000
#05315:0013
#0581b:00000013
#05813:0000003300000000
#05814:00330000
#05815:0033000000000000
#05816:33
#0581a:0000000000000033
#05917:00000000331333000000000000000000
#0591a:00000033
#05919:3300000000330000
#05918:0033000033000000
#06012:0013000000000000
#06016:0013
#06118:00130000
#06115:00000013
#06212:13
#0641b:00130000
#06417:0013
#06718:00001212
#06716:0000000000120000
#06818:0000000000120000
#06816:00000012
#07116:0000001200120000
#0711a:00001212
#07218:0013
#07215:0000000000130000
#07212:0000000000000023
#0721f:0000000000000021
#07315:0013
#07318:0023000000130000
#0731b:0000230000000023
#07312:00230000
#07310:0000000000000041
#0851b:0000000000130013
#08515:00000013
#08514:14240000
#0851a:0014000000000000
#08518:0000001400000000
#08512:0014
#08612:00000013
#08617:00130000
#08618:0000000000000013
#08412:14000014
#08414:00142400
#0841a:0000001400000000
#08418:0024000000140024
#0881a:0014002400000014
#08815:00140000
#08812:24001424
#08817:0000000000140000
#08916:1400001400000000
#08912:00141300
#0891b:0000000000000013
#08918:0000000000130000
#08915:00000013
#0891a:0024000000000000
#0921a:14
#09112:14
#09412:00001300000000000000000000130000
#09418:00000000130000000000001300000000
#0941b:13000000000000130000000000000000
#09415:00000000001300000013000000000000
#09518:13
#0951a:00000014000000000000000000000000
#00815:00000000001300000000000000000000
#00812:0013
#03018:0013
#0301b:00000000000000000000001300000000
#09618:00000000120000000000001200001200
#09616:00000000001200000000000000120000
#0961a:00001200000000120000000000000000
#09614:12000000000000000012000000000000
#01214:00000000002400240000000000000000
#01218:0000002400000000
#03418:0023
#03415:0000000000230000
#03414:00330000
#03517:00000000333333330000000000000000
#03518:00000033000000000000000000000000
#03519:00003300000000000033000000000000
#0351b:00000000000000000000003333333333
#0351a:0000000000330000
#03616:00000033333333330000000000000000
#03615:0033000000000000
#03614:00330000000000000033000000000000
#03612:00000000000000000000003333333333
#03613:0000000000330000
#0371b:00000033333333330000000000000000
#0371a:0033000000000000
#03719:00330000000000000000000000000000
#03712:00000000000000000000003333333333
#03713:0000000000330000
#03714:00000000000000000033000000000000
#00419:00003232000000000000000000000000
#01458:0013000000000000
#01455:0000000000000013
#04458:0000000000130000
#04558:13
#02655:0000006300000000
#02652:0000000000130000
#08152:0000000000000053
#09356:00000000000000240000000000000000
#09352:54
#0465b:63
#04657:00000000000000000023000000000000
#01355:0000000000630000
#01352:0000140000000013
#0135a:14
#01552:00130000
#0155b:0000000000630000
#01558:0000000000000013
#02056:23
#02055:0000000000000013
#02052:00330000
#01952:0000001300005300
#01955:13
#01855:00630000
#01658:00130000
#0165b:0000000000000013
#02152:0000130000000013
#02255:00130000
#0225b:0000000000000013
#02358:0000130000000013
#0235b:0000000000630000
#02458:00130000
#02455:0000000000000013
#04752:0000005300000000
#04756:00000000000000000000000000000023
#0485b:00000063
#04957:0053000000000000
#04955:0000000000000063
#05058:0000005300000000
#0505b:0000000000630000
#05752:0000005300000000
#05756:00000000000000000000000000000023
#0585b:00000063
#05957:00000000002300000000000000000000
#06052:0053000000000000
#06056:0063
#06158:00530000
#06155:00000063
#06252:53
#06352:0053
#06356:00000023
#0645b:00630000
#06457:0023
#07255:0000000000630000
#07252:0000000000000013
#07256:0012000000000000
#07358:0000000000530000
#0735b:0000000000000013
#08256:00230000
#0855b:0000000000000063
#08657:00230000
#0895b:0000000000000063
#0925a:64
#09256:0014
#09152:54
#09156:0014
#09558:53
#0955a:00000064000000000000000000000000
#00855:00000000006300000000000000000000
#00852:0023
#03058:0053
#0305b:00000000000000000000002300000000
#01254:00000000000000140000000000000000
#07658:0000000000000013
#07452:0000000000000013
#0755b:0000000000000013
#07755:0000000000000013
#0785b:0000000000130000
#07958:00000053
#0385a:0000000000000014
#0013a0:12
#001380:00000000003200220000000000000000
#002380:12
#002390:00003232000000000000000000000000
#0023a0:00000000003232320000002200000000
#003360:00000000000000120032000000000000
#003340:00000022
#004380:12
#004390:00003232000000000000000000000000
#0043a0:00000000003200000000000022000000
#005320:1300000000230000
#005350:00000000003300330000000000000000
#006350:13000000003333330000000000000000
#006320:00003333000000000000000023000000
#006350:00000000000000000000000000000013
#007350:00230000000000000000000000000000
#0073b0:00130023
#0073a0:00000000003300000000003300000000
#007390:0000003300330000
#007380:00000000000000330033000000000000
#007370:0033
#007320:00000000000000000000000000130000
#007330:0000000000000033
#007340:00000000000000000000000000000033
#008350:33000000003300000000002300000000
#008340:00330000000000000000000000000000
#008330:0033000000000000
#008320:00000033000000005300000000000000
#0093b0:1300000000230000
#009380:00000000003300330000000000000000
#010380:13000000003333330000000000000000
#0103b0:00003333000000000033000023000000
#010380:00000000000000000000000000000013
#011380:00230000000000000000000000000000
#011320:00130000
#011330:00000000003300000000000000000000
#011340:0000003300000000
#011350:00000000000000230000000000000000
#011380:0000000000000013
#0113a0:00000000000000000000000000000033
#0123b0:23
#013350:0000000000130000
#013320:0000000000000023
#0153b0:0000000000130000
#015380:0000000000000023
#018350:00130000
#018320:0023
#019320:00000013
#020360:53
#020320:00230000
#0233b0:0000000000130000
#023380:0000000000000023
#026350:0000001300000000
#026320:0000000000230000
#027320:0013000000000000
#027350:0000003323000000
#0283b0:00130000
#028380:0023
#029320:00130000
#029350:0023
#029380:0000000000000013
#0303b0:00003300000000000000005300000000
#0303a0:00330000
#030390:0000003300000000
#030380:0000000033000023
#031350:00001333330000000000000000000000
#031340:0000003300003300
#031330:0033
#031320:0000000000330000
#031360:0000000000000033
#032360:0033000000000000
#032340:00330000
#032320:0000003300000000
#032350:00000023
#033320:0000000000130000
#033350:0000000000000033
#034320:0033000000000000
#034340:00330000
#034350:0000002300000000
#0343b0:0000000000000013
#0353b0:00330000000000000000003333333333
#035390:00003300000000000033000000000000
#035380:00000033000000000000000000000000
#035370:00000000333333333300000000000000
#0353a0:0000000000330000
#0363b0:23
#036321:13000000000000000000003333333333
#036341:00330000000000000033000000000000
#036351:0033000000000000
#036361:00000033333333333300000000000000
#036331:0000000000330000
#037321:23
#037370:13
#037390:00330000000000000000000000000000
#0373a0:0033000000000000
#0373b0:00000033333333332300000000000000
#037361:0013
#037341:00000000000000000033000000000000
#037331:0000000000330000
#037321:00000000000000000000003333333333
#038321:23
#038360:14
#038370:00340000000000000000000000000000
#038380:0034000000000000
#038390:000000000000000000340000000000000000005400540054005400540054005400540054005400540054000000000000
#0383a0:000000000000340000345454545454545454545454240000
#039320:0014003400340034
#039330:00343434
#040330:34340000
#040320:0034002400000000
#0423b0:0000001300230000
#0433b0:0000000000130000
#043380:0000000000000023
#0463b0:13
#0463a0:0033000000000000
#046390:0000330000000033
#046380:0000003300003300
#046370:00000000000000003353330000000000
#0473a0:33
#0473b0:0023000000000000
#047320:0000001300000000
#047330:0033
#047340:0000000000330000
#047350:00000033
#047360:00000000000000000000000000003353
#048360:33
#048350:0033000000000000
#048340:00330000
#048330:0000003300000000
#048320:0023
#0483b0:00000013
#049370:0033000000000000
#0493b0:0000000000230000
#049350:0000000000000013
#050320:0023000000000000
#050380:0000001300000000
#0503b0:0000000000330000
#051380:0000000000230000
#053380:13
#053390:0033000000000000
#0533a0:00330000
#0533b0:0000002300000000
#053380:0000000000130023
#055320:00001323
#056350:0000001300230000
#057320:0000001300000000
#057330:0033
#057340:0000000000330000
#057350:00000033
#057360:00000000000000000000000000003353
#058360:33
#058350:0033000000000000
#058340:00330000
#058330:0000003300000000
#058320:0023
#0583b0:00000013
#0583a0:0000000000000033
#059390:3300000000330000
#059380:0033000033000000
#059370:00000000335333000000000000000000
#0593a0:00000033
#0593b0:0000000000000023
#060320:0013000000000000
#060360:0033
#061320:23
#061380:00130000
#0613b0:0023
#061350:00000013
#062320:33
#063350:23
#063320:0013
#063360:00000033
#064320:23
#0643b0:00130023
#064370:0033
#065360:0000123200000000
#065340:0000000000220000
#065380:0000000000000012
#0663a0:0032220000000000
#066360:0000000000000012
#067340:0032220000000000
#067340:0000000000000012
#068360:0032220000000000
#0683a0:0000000000000012
#069380:0032220000000000
#069340:0000000000000012
#070360:0022000000000000
#071360:0000000000000012
#072360:0022000000000000
#072350:0000000000130000
#072320:0000000000000023
#073380:0000000000130000
#0733b0:0000000000000023
#079380:00000013
#0803b0:23
#081320:0000000000000013
#082360:00530000
#082320:0000000000230000
#0853b0:0000000000000013
#086370:00530000
#0863b0:0000000000230000
#0893b0:0000000000000013
#090370:00230000
#090320:0014
#091320:34
#091360:0024
#0923a0:14
#092360:0024
#093320:1400000000000024
#093360:00000000000000540000000000000000
#094380:0000000000000013
#095380:33
#0953a0:00000034000000000000000000000000
#095370:0000000000000023
