This file was generated by Ched 2.6.4.0.
#TITLE ""
#ARTIST ""
#DESIGNER ""
#DIFFICULTY 0
#PLAYLEVEL
#SONGID ""
#WAVE ""
#WAVEOFFSET 0
#JACKET ""
#REQUEST "ticks_per_beat 480"
#00002: 4
#BPM01: 92
#BPM02: 184
#00008: 01
#09308: 01
#01308: 02
#TIL00: ""
#HISPEED 00
#MEASUREHS 00
#0061b:13000013001300001300000000000000
#00619:0000001300000000
#00617:00001300000000130000000000000000
#00612:13000000130000130013000000000000
#00614:0000001300000000
#00618:000000000000000000000000000000000000000000000000000000000000000000000000000000000000000000000000000000000000000000000000000000000013000000000013000000000000000000000000000000000000130000000000
#00615:00000000000000000000001313001300
#00616:00130013000000000000000000000000
#00712:13130000130000131300000013000000
#00715:00001300000013000000001300130000
#00718:00000013001300000000130000001300
#0071b:13000000130000001313000013000013
#0081b:13
#00818:00130000000000000000000000001300
#00815:00001300000000000000000000000013
#00812:13000013000000000000000000130000
#00817:00000013000000000000000000000000
#00816:00000000001300000000000000000000
#01416:1300001313000013
#01417:0013000000001300
#01419:0000000000130000
#01412:00000013
#0141b:0000000013000023
#01516:00131313
#01512:1300000000130023
#01517:0000000000130013
#0151b:0013
#0161b:1300000013000023
#01614:0000000000130000
#01612:0000000000001313
#01617:00130013
#01616:0013
#0171b:0000001300130013
#01717:00001313
#01712:00130000
#01716:13
#01816:0000000000130014
#01812:00001300130000000000000013000014
#0181b:00001313
#01817:00130000
#02015:0000000000131300
#0201b:0000000013000013
#02018:00000000000000000000001300130000
#02012:0000000013000023
#02019:13
#02017:0013000000000000
#02014:13
#02016:000000000000000000000000000000000000000000000000000000000000000000000000000000000000000000000000000000000000000000000000000000000000000000000000000000000000000000000000000000000000000000000000000000000000000000000000000000000000000000000000000000000000000000000000000000000000000000000000000000000000000000000000000000000000000000000000000000000000000000000000000000000000000000000000000000000000000000000000000000000000000000000000000000000000000000000000000000000000000000000000001300000000000000000000000000000000000000000000000000000000000000000000000000000000000000000000000000000000000000000000000000000000000000000000000000000000000000000000000000000000000000000000000000000000000000000000000000000000000000000000000000000000000000000000000000000000000000000000000000000000000000000000000000000000000000000000000000000000000000000000000000000000000000000000000000000000000000000000000000000000000000000000000000000000000000000000000000000000000000000000000000000000000000000000000000000000000000000000000000000000000000000000000000000000000000000000000000000000000000000000000000000000000000000000000000000000000000000000000000000000000000000000000000000000000000000000000000000000000000000000000000000000000000000000000000000000000000000000000000000000000000000000000000000000000000000000000000000000000000000000000000000000000000000000000000000000000000000000000000000000000000000000000000000000000000000000000000000000000000000000000000000000000000000000000000000000000000000000000000000000000000000000000000000000000000000000000000000000000000000000000000000000000000000000000000000000000000000000000000000000000000000000000000000000000000000000000000000000000000000000000000000000000000000000000000000000000000000000000000000000000000000000000000000000000000000000000000000000000000000000000000000000000000000000000000000000000000000000000000000000000000000000000000000000000000000000000000000000000000000000000000000000000000000000000000000000000000000000000000000000000000000000000000000000000000000000000000000000000000000000000000000000000000000000000000000000000000000000000000000000000000000000000000000000000000000000000000000000000000000000000000000000000000000000000000000000000000000000000000000000000000000000000000000000000000000000000000000000000000000000000000000000000000000000000000000000000000000000000000000000000000000000000000000000000000000000000000000000000000000000000000000000000000000000000000000000000000000000000000000000000000000000000000000000000000000000000000000000000000000000000000000000000000000000000000000000000000000000000000000000000000000000000000000000000000000000000000000000000000000000000000000000000000000000000000000000000000000000000000000000000000000000000000000000000000000000000000000000000000000000000000000000000000000000000000000000000000000000000000000000000000000000000000000000000000000000000000000000000000000000000000000000000000000000000000000000000000000000000000000000000000000000000000000000000000000000000000000000000000000000000000000000000000000000000000000000000000000000000000000000000000000000000000000000000000000000000000000000000000000000000000000000000000000000000000000000000000000000000000000000000000000000000000000000000000000000000000000000000000000000000000000000000000000000000000000000000000000000000000000000000000000000000000000000000000000000000000000000000000000000000000000000000000000000000000000000000000000000000000000000000000000000000000000000000000000000000000000000000000000000000000000000000000000000000000000000000000000000000000000000000000000000000000000000000000000000000000000000000000000000000000000000000000000000000000000000000000000000000000000000000000000000000000000000000000000000000000000000000000000000000000000000000000000000000000000000000000000000000000000000000000000000000000000000000000000000000000000000000000000000
#02112:0000000013000013
#0211b:0000000000001323
#02116:0013130000001300
#02117:1313
#02119:0000000000130000
#02512:0013001300001300
#02519:0000000000130013
#02517:00000013
#0251b:13131300
#02516:00130000
#0271b:2313
#02716:0000001300000000
#02712:23
#02710:41
#0441b:0013000000000000
#04417:1300001300000000
#0441a:0000000000140000
#04414:0000000000000013
#04415:0013
#04419:00230000
#04412:00220000
#04612:1300001300000000
#04618:0000000000130013
#04614:0013000000000000
#04615:0013
#0461b:00000013
#04619:12
#04616:00230000
#0461c:00220000
#07612:00141413
#07616:1314001400000000
#0761a:0000140014000024
#07617:0000000000001323
#07812:0014000024140013
#0781b:1300000000000013
#0781a:00000014000000001400240000000000
#07814:00140000
#07816:00000000000014140000000000000000
#07818:00000000001400000000000000000000
#07919:0013000000000000
#07912:2600130000132300
#07916:0013
#07914:0000001300000000
#0791b:13001313
#07917:0000130000130013
#01312:26261313
#0131b:0000000000130023
#01314:0000000000000013
#01316:0000000000130000
#01317:00001313
#01318:26260000
#01310:41
#04112:1323
#04116:00130013
#04114:0013001300000000
#04214:0013000000000000
#0421b:0000000000130000
#04219:00000013
#04217:0000000000000013
#04212:1313
#04216:0000231300000000
#04517:14
#04514:0000001300130000
#04512:22130023
#04518:0000001200000000
#0451a:0000000012000012
#0451c:0000000000120000
#0451b:00000022
#05116:0000001200000000
#05119:0013000000130000
#05114:0000120000120000
#05117:0000000000000013
#05112:0012000000000012
#0511b:0000001300000000
#05214:1300000000000023
#05212:0022000000001300
#05215:0000001300130000
#05218:00131300
#0521b:0023000000000000
#0521c:0000000000000022
#05210:0041000000000000
#06616:00120012
#06614:0000001212120000
#06618:0012000000000000
#06716:0012120000001200
#06718:0000000012120000
#0721c:0012000000000000
#07218:00000000000000000000001300002600
#07215:00000000000000000000001300000000
#0721b:0013
#07212:0000000000130026
#0721f:0000000000000021
#0731b:0013000000000023
#07312:0000130013000023
#07315:0000000000130000
#07318:0000000000130000
#07316:0024240000000000
#07310:0000000000000041
#07418:0000000000130000
#07415:00000013
#07412:0013000014000023
#0741b:00130000
#0741a:0000000014000024
#07416:0024240000000000
#07516:0014000014000000
#07512:0000140000001424
#07517:13
#0751a:00140014
#07518:0000001400000000
#07514:0000000000140000
#0751b:0000000000000023
#08014:0014000000000000
#08012:0000132c00002c18
#08016:1818
#0801a:0000000000140000
#0821b:0000130000130013
#08212:0000130000130000
#08216:0014
#08317:13
#08312:0013000000132c00
#08316:00130000
#0831b:0000001300000000
#08318:0000000000000016
#0861b:0000130000131300
#08618:0000000000000013
#08612:1200130000131300
#08616:0014
#0861c:12
#08715:13
#0871b:0013000000000000
#08712:00132c18002c0018
#08716:00001818
#08710:41
#09317:00000000131300130000000000000000
#0931b:00000000000000000000001300131300
#09319:00001300000000000013000000000000
#09312:0013
#09316:14
#09412:00000000000000000000001300001300
#0941b:120000000000000000000000000012000000000000000000000000000000000000000000000000130000000000000000
#09419:001200000000120000001200000000000000000000000000
#09413:000000001200000000000000001200000000000000000000
#09417:000000001200000000001200000000000000120000001200000000000000000000130000000000000000130000000000
#09415:000000120000000012000000120000000000000000000000
#09416:00000000000000000000000000130000
#08112:142c000014000000
#08114:0000180000130000
#08116:0000001400001212
#08118:0000000000001212
#0811a:0014
#08119:0000000000130000
#08412:162c16002c00002c
#08418:0000001600160000
#08415:00000016
#08812:2c1a002c001a2c1c
#08814:001a1a00
#08912:1c2c1c1c15141312
#08919:0015
#0891b:00000013
#0891a:0000000000140000
#0891c:0000000000000012
#06816:00120012
#06814:0000000000120000
#06818:0012000000000000
#06916:0012120012000000
#06914:0000001200000000
#06918:0000000000120000
#0691a:00000012
#07018:0012000000000000
#01912:1c00141c00140013
#01916:0014000014000000
#0191a:0000140000140000
#01918:00000013
#0191b:0000000000000013
#01915:00000013
#08515:0016001616000000
#08512:16002c00001c0000
#08518:0000000000000012
#08514:00000018
#08516:0000000000000012
#0901b:00131300
#09012:00131300
#09018:1200000000131313
#09015:00000000000000000000001300130013
#09016:12
#09118:16
#0911b:00131300
#09112:13000013
#09117:00130000
#09116:00000013
#09216:0014001400140014
#09212:14140014
#0921a:00141414
#0051b:13000000131300000013000000130000
#00518:0000000000000013
#00515:00000000000000000000000000000013
#00517:00130000000000000000001300000000
#00516:24000013000000000000000000000000
#00512:00001300001300130000001300000000
#00318:000000000000120032003200320000320000000000000000000000000000000000120000320000000000000000000000
#0031c:1200000000000000001200000000000000001200000000000000000000000000
#00312:14000000000000000014000014000000
#0011a:14000000000000000014000000000000
#00116:000000000000120032003200320000320000000000000000000000000000000000120000320000000000000000000000
#00112:1200000000000000001200000000000000001200000000000000000000000000
#00216:1200000000000000001200000000000000001200000000000000000000000000
#0021a:14000000000000000014000000000000
#00212:000000000000120032003200320000320000000000000000000000000000000000120000320000000000000000000000
#00412:14000000000000140014000000000000
#0041c:000000000000120032003200320000320000000000000000000000000000000000120000000000000000000000000000
#00418:1200000000000000001200000000000000001200000000000000000000000000
#01012:13000013001300001300001300000000
#01014:0000001300000000
#01016:00001300000000130000000013000000
#0101b:13000000130000130013000013000000
#01019:0000001300000000
#01018:0000000000000013
#01015:00000000000000000000000000000013
#01017:00130013000000000000000000000000
#00912:13000000131300000013000000130000
#00915:0000000000000013
#00918:00000000000000000000000000000013
#00916:24130000000000000000001300000000
#00917:00000013000000000000000000000000
#0091b:00001300001300130000001300000000
#0111b:13130000130000131300000013000000
#01118:00001300000013000000001300130000
#01115:00000013001300000000130000001300
#01112:13000000130000001313000013000013
#02612:1313
#02618:00000000000000000013001300130013
#02615:0000000000131313
#0261b:13131300
#02614:0013001300000000
#02616:00130000
#02812:0013
#03012:0023000013000000
#03017:0023
#0301b:0000002300000000
#0311b:0013
#03212:0013
#0291b:0000000013000023
#0331b:0000000013000023
#03312:0000000000230000
#03416:0023001400000000
#03418:0000000026260000
#03412:0000000026260000
#03417:00230000
#03912:00180000
#03916:00000018
#04012:00180000
#04014:0000000000000013
#04010:00000041
#04316:00130000
#04319:0000001300000000
#04312:2200000023000013
#04317:0000000000130000
#0431b:00000013
#0431c:2222
#05616:00131312
#05614:0000000000000012
#05619:0000000000000013
#0561b:0013000000001300
#05618:13
#05617:0000000000130000
#05612:0000001300000000
#0561c:0000002200000000
#05712:1200000000220000
#05714:00120000
#05717:1300000000230000
#0571b:0000001300001300
#05719:0013
#05718:0000000000000013
#05715:0000001200000000
#05713:0022000000000000
#05316:1300000000000013
#05317:00001313
#05312:0000001300220000
#05315:00130000
#05318:0013000000000000
#0531b:0000000000130000
#04712:0013000000001300
#04719:0000000000000013
#04714:0013
#04716:0000130000230000
#04717:0000001300000000
#04715:23
#0471c:2200000000220000
#04814:1300002200000000
#04817:00001300000000000000000000000013
#04816:00130000
#0481b:00000013
#04812:0013
#04819:0000002300000000
#0221b:0013
#02212:0000000000001323
#02217:0013130000001313
#02216:1313
#02219:0000000000130000
#02416:13000013
#02417:0013000013000013
#02419:0000001300000000
#0241b:00130013
#02412:0000130013000023
#02414:0000000000130000
#02312:0013130000130013
#0231b:1300000013130023
#02316:0013
#02317:00000013
#06516:0000000000120000
#06518:00000000001200000000000000000000
#0651a:00120000
#0651c:12
#0651f:11
#09512:00000000120000120000000000001200
#09514:00001200001200000012000000120000
#09516:1200001400000000000000000000000000000000000012000000000000000000
#0951a:14
#09518:00000014000000000000000000000000
#07712:1300000000140024
#0771a:0014000000000000
#07718:00140000
#07716:0000001400001323
#07714:0014
#0771b:00000013
#05016:0013000000130000
#05017:0000000013000013
#0501b:0000001300000000
#05014:00130000
#05012:0000001300000000
#04916:0013000000001300
#04917:0000001300000013
#04912:0000000000130000
#04919:0013
#0491b:0000000000130000
#06216:00001212
#06214:0000001200000000
#06219:0013
#06212:00120000
#06217:13
#0621b:00000013
#0611b:13000013
#06112:13000013
#06119:0000000000130000
#06117:0013000013000000
#06116:0000130000000013
#06012:0013000000000000
#06016:00000000001300000000000013000000
#06014:0000000000000013
#06017:0013
#06319:13
#06314:12000013
#06317:00130000
#06312:00120000
#06316:0013
#0631c:0012
#0631a:00000012
#06418:1200000000000013
#06419:0013
#0641b:00000013
#06412:13
#06417:00130000
#0591b:0013000000000013
#05914:00130023
#05919:0000001300000000
#05916:0013
#05917:2300000000130000
#0591a:00000022
#05912:22
#03816:00140000
#05815:13130000
#05819:0000000000000013
#05812:0013002200000000
#0581b:0013
#05817:0000000000130000
#05816:00000013
#05818:0000002300000000
#0541b:13
#05418:0013000000000000
#05415:00130000
#05416:0000000000130000
#05419:00000013
#05412:0000002200000023
#0541c:0000002200000022
#0551b:0013
#05517:00000013
#05518:0013001300000000
#05515:1300130000000013
#05519:0000000000230000
#05512:0000000000220000
#09618:00000000120000000000000000120000
#09616:1200000000000012
#09612:00120000
#09614:00001200001200120000000000000000
#09617:00000000000000000012000000000000
#0961a:00000000000000000000001200000000
#01212:130013000000002c0000000000000000
#0121b:13130000
#01217:00130000000000000000000000000000
#01216:00000013002400000000000000000000
#01214:0000002800000000
#01215:000000003333000000000000000000000000000000000000
#01556:00330023
#01552:2300000000530033
#01557:0000000000000053
#0275b:0013
#02752:13
#0445a:0000000000140000
#04557:14
#0725c:0012000000000000
#07258:00000000000000000000002300004600
#07255:00000000000000000000002300000000
#0725b:0063
#07252:0012000000530036
#0735b:0043000000000013
#07352:0000330053000013
#07355:0000000000630000
#07358:0000000000530000
#08252:0000130000130000
#0825b:0000130000130000
#0135b:0000000000630043
#01354:0000000000000053
#01356:0000000000630000
#01352:36000023
#01357:00000023
#01358:00460000
#07557:23
#07552:0000000000000034
#0755b:0000000000000063
#09352:0023
#09356:54
#0935a:44
#01952:4c00003c00000023
#01958:00000053
#0195b:0000000000000023
#01955:00000063
#09158:46
#09152:5333
#09157:00230000
#0915b:0063
#09156:00000023
#09256:0024002400240024
#09252:54543400
#0925a:00006464
#0925b:43
#0055b:63000000006300000000000000000000
#00557:00230000000000130000000000000000
#00556:14000023000000000000000000000000
#00552:00005300000000530000000000000000
#00358:00005200000000000000005200000000
#0035c:0000000000000000002200000000000000000000000000000000000000000000
#00252:00005200000000000000005200000000
#00256:0000000000000000002200000000000000000000000000000000000000000000
#00657:00000000000000530000000000000000
#00656:00230063000000000000000000000000
#00652:53230000
#0065b:0023
#00952:53000000005300000000000000000000
#00956:14230000000000130000000000000000
#00957:00000023000000000000000000000000
#0095b:00006300000000630000000000000000
#01056:00000000000000630000000000000000
#0105b:63000000230000000063000000000000
#01057:00230053000000000000000000000000
#01052:0023
#02852:0013
#03052:0013
#0315b:0013
#03252:0013
#0295b:0013
#0335b:0013
#0515b:0000004300000000
#01457:0053000000000000
#01456:2300000000000063
#0145b:0000000000000043
#01452:0033000000000000
#01657:00430000
#01652:0000000000000053
#0165b:2300000000000043
#0175b:0000000000000063
#01756:23
#01852:00530000
#0205b:0000430000000063
#02059:53
#02057:0023000000000000
#02054:63
#02056:000000000000000000000000000000000000000000000000000000000000000000000000000000000000000000000000000000000000000000000000000000000000000000000000000000000000000000000000000000000000000000000000000000000000000000000000000000000000000000000000000000000000000000000000000000000000000000000000000000000000000000000000000000000000000000000000000000000000000000000000000000000000000000000000000000000000000000000000000000000000000000000000000000000000000000000000000000000000000000000000002300000000000000000000000000000000000000000000000000000000000000000000000000000000000000000000000000000000000000000000000000000000000000000000000000000000000000000000000000000000000000000000000000000000000000000000000000000000000000000000000000000000000000000000000000000000000000000000000000000000000000000000000000000000000000000000000000000000000000000000000000000000000000000000000000000000000000000000000000000000000000000000000000000000000000000000000000000000000000000000000000000000000000000000000000000000000000000000000000000000000000000000000000000000000000000000000000000000000000000000000000000000000000000000000000000000000000000000000000000000000000000000000000000000000000000000000000000000000000000000000000000000000000000000000000000000000000000000000000000000000000000000000000000000000000000000000000000000000000000000000000000000000000000000000000000000000000000000000000000000000000000000000000000000000000000000000000000000000000000000000000000000000000000000000000000000000000000000000000000000000000000000000000000000000000000000000000000000000000000000000000000000000000000000000000000000000000000000000000000000000000000000000000000000000000000000000000000000000000000000000000000000000000000000000000000000000000000000000000000000000000000000000000000000000000000000000000000000000000000000000000000000000000000000000000000000000000000000000000000000000000000000000000000000000000000000000000000000000000000000000000000000000000000000000000000000000000000000000000000000000000000000000000000000000000000000000000000000000000000000000000000000000000000000000000000000000000000000000000000000000000000000000000000000000000000000000000000000000000000000000000000000000000000000000000000000000000000000000000000000000000000000000000000000000000000000000000000000000000000000000000000000000000000000000000000000000000000000000000000000000000000000000000000000000000000000000000000000000000000000000000000000000000000000000000000000000000000000000000000000000000000000000000000000000000000000000000000000000000000000000000000000000000000000000000000000000000000000000000000000000000000000000000000000000000000000000000000000000000000000000000000000000000000000000000000000000000000000000000000000000000000000000000000000000000000000000000000000000000000000000000000000000000000000000000000000000000000000000000000000000000000000000000000000000000000000000000000000000000000000000000000000000000000000000000000000000000000000000000000000000000000000000000000000000000000000000000000000000000000000000000000000000000000000000000000000000000000000000000000000000000000000000000000000000000000000000000000000000000000000000000000000000000000000000000000000000000000000000000000000000000000000000000000000000000000000000000000000000000000000000000000000000000000000000000000000000000000000000000000000000000000000000000000000000000000000000000000000000000000000000000000000000000000000000000000000000000000000000000000000000000000000000000000000000000000000000000000000000000000000000000000000000000000000000000000000000000000000000000000000000000000000000000000000000000000000000000000000000000000000000000000000000000000000000000000000000000000000000000000000000000000000000000000000000000000000000000000000000000000000000000000000000000000000000000000000000000000000000000000000000000000000000000000000000000000000000000000000000000000000
#02052:0000330000000033
#02152:0000000000000053
#02157:23
#02156:00330000
#0215b:0000430000000043
#02257:0000430000000053
#02256:23
#02252:0000330000000033
#02452:0000330000000033
#02457:0000000000000053
#02456:23
#02352:0000330000330053
#0235b:2300000000630043
#02357:00430023
#0255b:23430000
#02556:00630000
#02552:0000002300000000
#07452:0033000000000053
#0745b:00430000
#0745a:0000000000000044
#07656:23
#0765a:0000000044000044
#07652:0034
#07657:0000000000000063
#07752:2300000000000034
#07756:0000000000000053
#0785b:23
#07852:0034
#0785a:0000000000440000
#0795b:00000043
#07957:0000000000000023
#07952:36000053
#0865b:0000130000130000
#08652:2200130000130000
#0865c:22
#0905b:00130000
#09052:00130000
#09058:22
#09056:22
#08158:0000000000000052
#08156:0000000000000062
#08152:001c000000000000
#08952:004c000000000052
#0895c:0000000000000062
#08558:0000000000000052
#08556:0000000000000062
#08552:001c0000
#00857:00000053000000000000000000000000
#00856:00000000006300000000000000000000
#09457:0000000000000053
#09556:0000002400000000000000000000000000000000000000000000000000000000
#0955a:64
#09558:00000054000000000000000000000000
#05056:0000000000630000
#05057:0023
#0505b:0000006300430000
#04956:0063000000002300
#04957:0000000000000053
#04952:0000000000530033
#0495b:0043000000000000
#04857:00000000000000000000000000000023
#0485b:00000063
#04852:0053
#06052:0053000033000000
#06056:00000000002300000000000000000000
#06057:0053
#0615b:63430000
#06152:00000053
#06156:0000630000000023
#06157:0023000000000000
#06257:53
#0625b:00000043
#06252:33
#06356:0033
#06457:00430000
#0595b:0000000000000063
#03856:00240000
#03855:0000000000000016
#04752:0053000000000000
#04756:00230000
#00458:0000000000000000002200000000000000000000000000000000000000000000
#0045c:0062000000000000
#00156:00006200000000000000006200000000
#00152:0000000000000000002200000000000000000000000000000000000000000000
#0585b:0063
#05857:0000000000230000
#0535b:0000000000630000
#05357:00000023
#05652:0000005300000000
#05656:0023
#04256:0000006300000000
#04252:0023
#04357:0000000000530000
#0435b:00000023
#01257:00230000000000000000000000000000
#0125b:63
#01252:000053000000001c0000000000000000
#01256:00000023000000000000000000000000
#08052:0000004c00003c00
#08452:003c00004c00003c
#08752:00003c00004c0000
#03458:0046
#03452:0000000000360000
#08852:3c00004c00003c00
#08352:0000004c
#001360:000000000000120032003200320000320000000000220000000000000000000000000000000000000000000000000000
#001320:0000000000000000005200000000000000000000000000000000000000000000
#001360:00000000000000000000001232000000
#001320:0000000000000022
#002320:000000000000120032003200320000320000000000220000000000000000000000000000000000000000000000000000
#002360:0000000000000000005200000000000000000000000000000000000000000000
#002320:00000000000000000000001232000000
#002360:0000000000000022
#003380:000000000000120032003200320000320000000000220000000000000000000000000000000000000000000000000000
#0033c0:0000000000000000005200000000000000000000000000000000000000000000
#003380:00000000000000000000001232000000
#0033c0:0000000000000022
#0043c0:000000000000120032003200320000320000000000220000000000000000000000000000000000000000000000000000
#004380:0000000000000000005200000000000000000000000000000000000000000000
#004360:00000000000000000000000012323232
#004370:0000000000000000000000000000000000000000000000000032003200320032
#005360:24
#0053b1:1323000000000000
#005371:00530000000000000000000000000000
#005320:0013230000000000
#005360:00000053000000000000000000000000
#0053b0:00000000001300000000000000000000
#005370:00000000000000230000000000000000
#005321:00000000000000130000000000000000
#005361:00000000000000000023000000000000
#006321:1323000000000000
#006361:00530000000000000000000000000000
#006361:00000013002300000000000000000000
#006321:00530000
#006371:00000000000000130023000000000000
#0063b1:0053
#008371:00000013000000000000000000000000
#0083b1:00000000002300000000000000000000
#008360:00000000001300000000000000000000
#008320:00000000000000230000000000000000
#008381:00000000000000130023000000000000
#008350:00000000000000000013002300000000
#0083b1:00000000000000000000001300230000
#009321:1323000000000000
#009361:00530000000000000000000000000000
#0093b0:0013230000000000
#009370:00000053000000000000000000000000
#009320:00000000001300000000000000000000
#009360:00000000000000230000000000000000
#0093b1:00000000000000130000000000000000
#009371:00000000000000000023000000000000
#0103b1:1323000000000000
#010371:00530000000000000000000000000000
#010371:00000013002300000000000000000000
#0103b1:00530000
#010361:00000000000000130023000000000000
#010321:0053
#0103b0:00000000000000000013000000000000
#010370:00000000000000000000002300000000
#0123b0:1323000000000000
#012370:00530000000000000000000000000000
#012321:0013230000000000
#012351:000000003333000000000000000000000000000000000000
#012361:00000053000000000000000000000000
#013361:0000000000130000
#013321:00000053
#013341:0000000000000053
#014361:53
#014321:0023000000000000
#0133b0:0000000000130023
#013370:00000053
#014370:0013000000000000
#0143b0:0000002300000000
#014360:0000000000000013
#015320:53
#015360:0023000000000000
#0153b1:0013230000000000
#015321:0000000000130023
#015361:00000053
#015370:0000000000000013
#0163b0:53
#016370:0023000000000000
#016321:0013230000000000
#016321:0000000000000013
#017361:53
#017321:0023000000000000
#017370:0013230000000000
#017360:0000001300330023
#017320:00003333
#0173b1:0000000000000013
#018371:0023000000000000
#018321:00130000
#018361:0023
#019381:00000013
#0193b1:0000000000000053
#020391:33
#020371:0053000000000000
#0203b1:00230000
#019350:00000013
#019320:0000000000000053
#020340:33
#020360:000000000000000000000000000000000000000000000000000000000000000000000000000000000000000000000000000000000000000000000000000000000000000000000000000000000000000000000000000000000000000000000000000000000000000000000000000000000000000000000000000000000000000000000000000000000000000000000000000000000000000000000000000000000000000000000000000000000000000000000000000000000000000000000000000000000000000000000000000000000000000000000000000000000000000000000000000000000000000000000000005300000000000000000000000000000000000000000000000000000000000000000000000000000000000000000000000000000000000000000000000000000000000000000000000000000000000000000000000000000000000000000000000000000000000000000000000000000000000000000000000000000000000000000000000000000000000000000000000000000000000000000000000000000000000000000000000000000000000000000000000000000000000000000000000000000000000000000000000000000000000000000000000000000000000000000000000000000000000000000000000000000000000000000000000000000000000000000000000000000000000000000000000000000000000000000000000000000000000000000000000000000000000000000000000000000000000000000000000000000000000000000000000000000000000000000000000000000000000000000000000000000000000000000000000000000000000000000000000000000000000000000000000000000000000000000000000000000000000000000000000000000000000000000000000000000000000000000000000000000000000000000000000000000000000000000000000000000000000000000000000000000000000000000000000000000000000000000000000000000000000000000000000000000000000000000000000000000000000000000000000000000000000000000000000000000000000000000000000000000000000000000000000000000000000000000000000000000000000000000000000000000000000000000000000000000000000000000000000000000000000000000000000000000000000000000000000000000000000000000000000000000000000000000000000000000000000000000000000000000000000000000000000000000000000000000000000000000000000000000000000000000000000000000000000000000000000000000000000000000000000000000000000000000000000000000000000000000000000000000000000000000000000000000000000000000000000000000000000000000000000000000000000000000000000000000000000000000000000000000000000000000000000000000000000000000000000000000000000000000000000000000000000000000000000000000000000000000000000000000000000000000000000000000000000000000000000000000000000000000000000000000000000000000000000000000000000000000000000000000000000000000000000000000000000000000000000000000000000000000000000000000000000000000000000000000000000000000000000000000000000000000000000000000000000000000000000000000000000000000000000000000000000000000000000000000000000000000000000000000000000000000000000000000000000000000000000000000000000000000000000000000000000000000000000000000000000000000000000000000000000000000000000000000000000000000000000000000000000000000000000000000000000000000000000000000000000000000000000000000000000000000000000000000000000000000000000000000000000000000000000000000000000000000000000000000000000000000000000000000000000000000000000000000000000000000000000000000000000000000000000000000000000000000000000000000000000000000000000000000000000000000000000000000000000000000000000000000000000000000000000000000000000000000000000000000000000000000000000000000000000000000000000000000000000000000000000000000000000000000000000000000000000000000000000000000000000000000000000000000000000000000000000000000000000000000000000000000000000000000000000000000000000000000000000000000000000000000000000000000000000000000000000000000000000000000000000000000000000000000000000000000000000000000000000000000000000000000000000000000000000000000000000000000000000000000000000000000000000000000000000000000000000000000000000000000000000000000000000000000000000000000000000000000000000000000000000000000000000000000000000000000000000000000000000000000000000000000000000000000000
#020320:00230000
#0203b0:0000000000000013
#021370:53
#0213b0:0033230000000000
#021320:0000000000000013
#022360:53
#022320:0033230000000000
#022370:0000000000000013
#0233b0:53
#023370:0033230000000000
#0233b0:0000000000130023
#023370:00000053
#023321:0000000000000013
#024361:53
#024321:0023000000000000
#024371:0000000000000013
#0253b1:53
#025371:0023000000000000
#025361:00132300
#025321:0000005300000000
#027371:0013000000000000
#0273b1:0000000000005300535353532300000000000000000000000000000000000000
#0273a1:00000000000000000000000000000000005300530053005300000000000000000000000000000000000000000000000000000000000000000000000000000000
#027361:0013
#027321:0000000000000000000000000000000000005300535353532300000000000000
#027331:00000000000000000000000000000000000000000000000000000000000000000000000000000000005300530053005300000000000000000000000000000000
#0273b0:0000000000000000000000000000000000000000000000001300000000005353
#027370:0000000000000000000000000000000000000000000000000000535333000000
#027380:00000000000000000000000000000000000000000000000000000000000000000000000000000000000000000000000000000000005300530000000000000000
#0273a0:00000000000000000000000000000000000000000000000000000000000000000000000000000000000000000000000000000000000000000000000000530053
#0283b0:23
#028361:1300000000005353230000000000000000000000000000000000000000000000
#028321:0000535333000000000000000000000000000000000000000000000000000000
#028331:00000000005300530000000000000000000000000000000000000000000000000000000000000000000000000000000000000000000000000000000000000000
#028351:00000000000000000000000000530053000000000000000000000000000000000000000000000000000000000000000000000000000000000000000000000000
#0283b0:0000000000000000130000000000000000005300535353532300000000000000
#028370:0000000000000000000053005353535333000000000000000000000000000000
#028380:00000000000000000000000000000000000000000000000000530053005300530000000000000000000000000000000000000000000000000000000000000000
#0283a0:00000000000000000000000000000000000000000000000000000000000000000000000000000000005300530053005300000000000000000000000000000000
#028321:0000000000000000000000000000000000000000000000001300000000005353
#028361:0000000000000000000000000000000000000000000000000000535333000000
#028351:00000000000000000000000000000000000000000000000000000000000000000000000000000000000000000000000000000000005300530000000000000000
#028331:00000000000000000000000000000000000000000000000000000000000000000000000000000000000000000000000000000000000000000000000000530053
#029321:23
#0293b0:1300000000005353230000000000000000000000000000000000000000000000
#029370:0000535333000000000000000000000000000000000000000000000000000000
#029380:00000000005300530000000000000000000000000000000000000000000000000000000000000000000000000000000000000000000000000000000000000000
#0293a0:00000000000000000000000000530053000000000000000000000000000000000000000000000000000000000000000000000000000000000000000000000000
#029361:00130000
#029321:0000000000000000000053005353535323000000000000000000000000000000
#029331:00000000000000000000000000000000000000000000000000530053005300530000000000000000000000000000000000000000000000000000000000000000
#029361:0000000000000000000000000000000000000000130000000000535323000000
#029321:0000000000000000000000000000000000000000000053533300000000000000
#029331:00000000000000000000000000000000000000000000000000000000000000000000000000000000000000000053005300000000000000000000000000000000
#029351:00000000000000000000000000000000000000000000000000000000000000000000000000000000000000000000000000000000005300530000000000000000
#0293b0:0000000000000013
#029370:00000000000000000000000000000053
#030370:5353535323000000000000000000000000000000000000000000000000000000
#030380:00530053005300530000000000000000000000000000000000000000000000000000000000000000000000000000000000000000000000000000000000000000
#030321:0000000013000000000053532300000000000000000000000000000000000000
#030361:0000000000005353330000000000000000000000000000000000000000000000
#030351:00000000000000000000000000530053000000000000000000000000000000000000000000000000000000000000000000000000000000000000000000000000
#030331:00000000000000000000000000000000000000000053005300000000000000000000000000000000000000000000000000000000000000000000000000000000
#030371:0000000013000023
#030361:000000000000000000000000000000000000000000000000005300530053005300530053005300530053000000000000
#030381:000000000000000000000000005353535353535353000000
#030320:0000000000000000000000000000000000000000000000000000000013535353
#030330:00000000000000000000000000000000000000000000000000000000000000000000000000000000000000000000000000000000000000000053005300530053
#031320:5353535323000000000000000000000000000000000000000000000000000000
#031330:00530053005300530000000000000000000000000000000000000000000000000000000000000000000000000000000000000000000000000000000000000000
#031391:0000000013532300000000000000000000000000000000000000000000000000
#031381:00000000000000000053005300000000000000000000000000000000000000000000000000000000000000000000000000000000000000000000000000000000
#031340:0000000000001353230000000000000000000000000000000000000000000000
#031350:00000000000000000000000000530053000000000000000000000000000000000000000000000000000000000000000000000000000000000000000000000000
#0313b1:00130000
#031371:0000000000000000000053532300000000000000000000000000000000000000
#031381:00000000000000000000000000000000000000000053005300000000000000000000000000000000000000000000000000000000000000000000000000000000
#031320:0000001300000000
#031360:0000000000000000000000000000535323000000000000000000000000000000
#031350:00000000000000000000000000000000000000000000000000000000005300530000000000000000000000000000000000000000000000000000000000000000
#031360:0000000000130000
#031320:0000000000000000000000000000000000000000000053532300000000000000
#031330:00000000000000000000000000000000000000000000000000000000000000000000000000000000000000000053005300000000000000000000000000000000
#0313b1:00000013
#031371:0000000000000000000000000000000000000000000000000000535323000000
#031381:00000000000000000000000000000000000000000000000000000000000000000000000000000000000000000000000000000000005300530000000000000000
#031320:0000000000000000000000000000000000000000000000000000000013535353
#031330:00000000000000000000000000000000000000000000000000000000000000000000000000000000000000000000000000000000000000000053005300530053
#032320:5353535323000000000000000000000000000000000000000000000000000000
#032330:00530053005300530000000000000000000000000000000000000000000000000000000000000000000000000000000000000000000000000000000000000000
#032371:0013000000000000
#0323b1:0000000000005353230000000000000000000000000000000000000000000000
#0323a1:00000000000000000000000000530053000000000000000000000000000000000000000000000000000000000000000000000000000000000000000000000000
#032320:00130000
#032360:0000000000000000000053532300000000000000000000000000000000000000
#032350:00000000000000000000000000000000000000000053005300000000000000000000000000000000000000000000000000000000000000000000000000000000
#0323b1:0000000000000000000000001353535353535353535353532300000000000000
#0323a1:00000000000000000000000000000000000000000000000000530053005300530053005300530053005300530053005300000000000000000000000000000000
#032320:0000000000000000000000000000000000000000000000001300000000005353
#032360:0000000000000000000000000000000000000000000000000000535333000000
#032350:00000000000000000000000000000000000000000000000000000000000000000000000000000000000000000000000000000000005300530000000000000000
#032330:00000000000000000000000000000000000000000000000000000000000000000000000000000000000000000000000000000000000000000000000000530053
#033320:23
#033371:13
#0333b1:0000535323000000000000000000000000000000000000000000000000000000
#0333a1:00000000005300530000000000000000000000000000000000000000000000000000000000000000000000000000000000000000000000000000000000000000
#033360:0013000000000000
#033320:0000000000005353230000000000000000000000000000000000000000000000
#033330:00000000000000000000000000530053000000000000000000000000000000000000000000000000000000000000000000000000000000000000000000000000
#0333b1:00130000
#033371:0000000000000000000053532300000000000000000000000000000000000000
#033381:00000000000000000000000000000000000000000053005300000000000000000000000000000000000000000000000000000000000000000000000000000000
#033320:0000001300000000
#033360:0000000000000000000000000000535323000000000000000000000000000000
#033350:00000000000000000000000000000000000000000000000000000000005300530000000000000000000000000000000000000000000000000000000000000000
#033320:0000000000000000000000000000000000000000135353535353535323000000
#033330:00000000000000000000000000000000000000000000000000000000000000000000000000000000005300530053005300530053005300530000000000000000
#0333b1:0000000000000000000000000000000000000000000000000000000013535353
#0333a1:00000000000000000000000000000000000000000000000000000000000000000000000000000000000000000000000000000000000000000053005300530053
#0343b1:5353535323000000000000000000000000000000000000000000000000000000
#0343a1:00530053005300530000000000000000000000000000000000000000000000000000000000000000000000000000000000000000000000000000000000000000
#034360:0013000000000000
#034320:0000000000005353230000000000000000000000000000000000000000000000
#034330:00000000000000000000000000530053000000000000000000000000000000000000000000000000000000000000000000000000000000000000000000000000
#034371:00130000
#0343b1:0000000000000000000053532300000000000000000000000000000000000000
#0343a1:00000000000000000000000000000000000000000053005300000000000000000000000000000000000000000000000000000000000000000000000000000000
#0343b1:0000000000000013
#035371:00330000000000000000000000000000
#0353a1:0033000000000000
#035381:00000033000000000000000000000000
#0353b1:00230000
#035360:00130000
#035330:00000000003300000000000000000000
#035350:0000003300000000
#035320:00000000000000330000000000000000
#035340:0023
#0353b1:0013
#035381:00000000000000000033000000000000
#0353a1:0000000000330000
#035371:00000000000000000000003300000000
#035391:00000023
#035320:00000013
#035350:00000000000000000000000000330000
#035330:0000000000000033
#035360:00000000000000000000000000000033
#036340:23
#036381:1323000000000000
#0363a1:00330000000000000000000000000000
#036350:0013230000000000
#036330:00000033000000000000000000000000
#0363b1:0000132300000000
#036391:00000000003300000000000000000000
#036320:0000001323000000
#036340:00000000000000330000000000000000
#036381:0000000013230000
#0363a1:00000000000000000033000000000000
#036350:0000000000132300
#036330:00000000000000000000003300000000
#0363b1:0000000000001323
#036391:00000000000000000000000000330000
#036320:0000000000000013
#036340:00000000000000000000000000000033
#037320:23
#0373b1:13230000000000000000000000000000
#037320:00132300000000000000000000000000
#037391:00001323000000000000000000000000
#037340:00000013230000000000000000000000
#037381:00000000132300000000000000000000
#037350:00000000001323000000000000000000
#037391:00000000000013230000000000000000
#037340:00000000000000132300000000000000
#0373b1:00000000000000001323000000000000
#037320:00000000000000000013230000000000
#037381:00000000000000000000132300000000
#037350:00000000000000000000001323000000
#0373b1:00000000000000000000000013230000
#037320:00000000000000000000000000132300
#037381:00000000000000000000000000001323
#037350:00000000000000000000000000000013
#038350:23
#0383a1:14240000000000000000000000000000
#038320:00142400000000000000000000000000
#0383a1:00001424000000000000000000000000
#038320:00000014240000000000000000000000
#038361:000000000000000000000000140000000000005700570057005700570057005700570057005700570057000000000000
#038351:0000003600000026
#038331:000000000000000000005757575757575757575757000000
#039361:0014000000000000
#039381:000000000000005400005400000000000000000000000000000000000000000000000000000000000000000000000000
#039371:005400000000
#039391:00000054000000000000000000000000
#0393a1:000000000000000000000054240000000000000000000000000000000000000000000000000000000000000000000000
#039361:0000001400000000
#039341:000000000000000000000000000000000000005400005400000000000000000000000000000000000000000000000000
#039351:000000000054000000000000
#039331:00000000000000540000000000000000
#039321:000000000000000000000000000000000000000000000054240000000000000000000000000000000000000000000000
#039360:0014
#039380:000000000000000000000000000000000000000000000000005400005400000000000000000000000000000000000000
#039370:000000000000000000000000005400000000000000000000
#039390:00000000000000000054000000000000
#0393a0:000000000000000000000000000000000000000000000000000000000054240000000000000000000000000000000000
#039361:0000000000140000
#039341:000000000000000000000000000000000000000000000000000000000000005400005400000000000000000000000000
#039351:000054
#039331:00000000000000000000005400000000
#039321:000000000000000000000000000000000000000000000000000000000000000000000054240000000000000000000000
#039361:0000000000000014
#039381:000000000000000000000000000000000000000000000000000000000000000000000000000000000000005400005400
#039371:000000000000000000000054
#039391:00000000000000000000000000000054
#0393a1:000000000000000000000000000000000000000000000000000000000000000000000000000000000000000000000054
#0403a1:24
#040360:14
#040340:005400005400000000000000000000000000000000000000000000000000000000000000000000000000000000000000
#040350:005400000000000000000000000000000000000000000000
#040330:00540000000000000000000000000000
#040320:000000000054240000000000000000000000000000000000000000000000000000000000000000000000000000000000
#040361:0014000000000000
#040381:000000000000005400005400000000000000000000000000000000000000000000000000000000000000000000000000
#040371:005400000000
#040391:00000054000000000000000000000000
#0403a1:000000000000000000000054240000000000000000000000000000000000000000000000000000000000000000000000
#040321:0000001400000000
#040341:000000000000000000000000000000000000005400005400000000000000000000000000000000000000000000000000
#040331:000000000054000000000000
#040351:00000000000000540000000000000000
#040361:000000000000000000000000000000000000000000000054240000000000000000000000000000000000000000000000
#0403a0:0014
#040380:000000000000000000000000000000000000000000000000005400005400000000000000000000000000000000000000
#040390:000000000000000000000000005400000000000000000000
#040370:00000000000000000054000000000000
#040360:000000000000000000000000000000000000000000000000000000000054240000000000000000000000000000000000
#040321:0000000000140000
#040341:000000000000000000000000000000000000000000000000000000000000005400005400000000000000000000000000
#040331:000054
#040351:00000000000000000000005400000000
#040361:000000000000000000000000000000000000000000000000000000000000000000000054240000000000000000000000
#0403a0:00000014
#0423c0:525252525252220000000000000000000000000000000000
#0423b0:005200520052005200520052000000000000000000000000000000000000000000000000000000000000000000000000
#042360:0000001300230000
#042320:0053
#043370:0000000000130023
#0433b0:00000053
#047320:0013002300000000
#047360:00530000
#048320:0013
#048360:00000023
#0483b1:00000013
#048371:00000000000000000000000000000053
#0493b1:0023000000000000
#049360:0013000000000000
#049320:0000002300000000
#049320:0000000000130023
#049360:00000053
#049371:0000000000000013
#0503b1:0023000000000000
#0503b1:0000001300230000
#050371:0053
#050360:0000000000130000
#050320:0000000000000023
#0533b0:0000000000130023
#053370:00000053
#056320:0000001300230000
#056360:0053
#0583b0:00001323
#058370:0000000000530000
#0593b0:0000000000000013
#060370:0023000000000000
#060321:0013000023000000
#060361:00000000005300000000000000000000
#060370:0013
#0603b0:00000023
#0613b0:13230000
#061370:0053000000000000
#061361:00130000
#061321:0023
#061321:00000013
#061361:0000000000000053
#062321:23
#062370:13
#0623b0:00230000
#064320:00120000
#065320:26
#065360:0000001200000000
#065320:0000000052220000
#065380:0000000000000012
#0663c0:5222000000000000
#0663c0:0000000000000012
#067380:5222000000000000
#067380:0000000000000012
#0683c0:5222000000000000
#0683c0:0000000000000012
#069380:5222000000000000
#069360:0000000000000012
#070320:5222000000000000
#0703c0:0000001200000000
#0703a0:0022
#070371:0012
#070351:0000000000220000
#070390:0000000000120000
#070370:00000022
#070341:00000012
#070321:0000000000000022
#0703c0:0000000000000012
#0713c0:0000002200000000
#071321:0000001200000000
#071341:0022
#071370:0012
#071390:0000000000220000
#071351:0000000000120000
#071371:00000022
#0713a0:00000012
#0713c0:0000000000000022
#071321:0000000000000012
#072321:0022000000000000
#0723b1:0013
#072381:00000000000000000000005300002600
#072320:0000000000130026
#072350:00000000000000000000005300000000
#073320:00000000000000001300005300002300
#073350:00000000000000000053530000000000
#073381:0000000000130000
#0733b1:00000000000000000000005300002300
#074321:0000000000000013
#075371:53
#075321:0023000000000000
#0753b1:0000000000000013
#076361:53
#0763b1:0023000000000000
#076371:0000000000000013
#077321:53
#077371:0023000000000000
#077361:0000000000000013
#0783b1:53
#078361:0023000000000000
#079321:00000013
#079371:0000000000000053
#080321:23
#081381:0000000000000012
#0823c1:0022000000000000
#081360:0000000000000012
#082320:0022000000000000
#082320:0000000000000013
#083320:23
#0833b0:0013230000000000
#083360:0000001300000000
#083320:0023
#083371:0013
#0833b1:0000000000230000
#085381:0000000000000012
#0863c1:52
#086381:0022000000000000
#085360:0000000000000012
#086320:52
#086360:0022000000000000
#089320:0000000000000012
#090360:52
#090320:0022000000000000
#0893c1:0000000000000012
#090381:52
#0903c1:0022000000000000
#091321:1323
#091371:00530000
#0913b0:0013
#091360:00000053
#0923b0:23
#092321:14542400
#092361:0054005400000000
#0923a0:00001454
#092360:0000000000540054
#0933a0:24
#093361:14
#093321:0053
#094371:22
#094371:0000000000000013
#0953a1:3400000000000000005400000000000000000000000000000000000000000000
#095361:0000005400000000000000000000000000000000000000000000000000000000
#095381:00000034000000000000000000000000
#0963c1:22
