This file was generated by Ched 2.6.4.0.
#TITLE ""
#ARTIST ""
#DESIGNER ""
#DIFFICULTY 0
#PLAYLEVEL
#SONGID ""
#WAVE ""
#WAVEOFFSET 0
#JACKET ""
#REQUEST "ticks_per_beat 480"
#00002: 4
#BPM01: 92
#BPM02: 184
#00008: 01
#09308: 01
#01308: 02
#TIL00: ""
#HISPEED 00
#MEASUREHS 00
#0051a:1414
#00514:00140000
#00612:1414
#00618:00140000
#0071a:1414
#00714:00140014
#00912:1414
#00918:00140000
#0101a:1414
#01014:00140000
#01112:1414
#01118:00140014
#01318:2614
#01314:00000014
#01312:00260000
#01310:41
#0141a:1414
#01412:00140000
#01418:0000000000003414
#0161a:0014
#01614:34000014
#01718:1414
#01712:00140000
#01714:00000014
#0181a:14
#01814:00140000
#01818:0014
#01812:00000014
#02114:0014
#02118:00260014
#02112:26
#02212:1414
#0221a:00140000
#02214:0000000000003414
#02412:0014
#02418:34000014
#02514:1414
#0251a:00140000
#02518:00000014
#02612:14
#02618:00140000
#02614:0014
#0261a:00000014
#07412:0014
#0741a:00000014
#07513:14
#07519:00140000
#07514:0014
#07518:00000014
#07613:14
#07619:00140000
#07612:0014
#0761a:00000014
#07714:1414
#0771a:00140000
#07718:00000014
#07812:1414
#07818:00140000
#0791a:14
#07914:00140000
#07918:0014
#07912:00000014
#08018:14
#08318:15
#08312:00150000
#08315:0015
#0231a:0014
#02318:0000000000003414
#02314:34
#01512:0014
#01514:0000000000003414
#01518:34
#0191a:14000014
#01918:0000001400000000
#02712:14
#02714:0014
#02710:41
#02812:14
#0291a:14
#02918:0014
#0301a:14
#03114:14
#03112:0014
#03214:14
#03318:14
#0331a:0014
#03418:14
#0401a:00000014
#04010:00000041
#04117:0014
#0421a:00140000
#04312:0014
#04415:00140000
#04512:14
#05212:0014000000000000
#05215:0000000000000014
#05210:0041000000000000
#05312:0000000000140000
#0541a:0000000000000014
#05517:0000000000140000
#0561a:0000001400000000
#0631a:0014
#08612:00000016
#08718:16
#08710:41
#09412:00140000
#09416:0014
#0941a:00000014
#0931a:14
#09317:0014
#0491a:0014000000000014
#04918:0014
#0501a:0000000000140000
#05018:00140000
#06012:0014
#06014:0000000000000014
#06112:00140000
#06114:0000000000140000
#06212:14
#0651f:11
#07212:0024
#0721f:0000000000000021
#0731a:0024
#07310:0000000000000041
#08114:00000034
#08113:0000000000340000
#08112:0034
#08913:0000000000360000
#08914:00000036
#09612:00333333
#02252:0054
#02254:0000000000000024
#0235a:0064
#02358:0000000000000024
#0145a:0064
#01458:0000000000000024
#01552:0054
#01554:0000000000000024
#0195a:64000064
#01958:0000005400000000
#02752:54
#02754:0064
#02852:54
#0295a:64
#02958:0054
#0305a:64
#03154:64
#03152:0054
#03254:64
#03358:54
#0335a:0064
#03458:54
#0405a:00000064
#04157:0054
#0425a:00640000
#04352:0054
#04455:00640000
#04552:54
#05252:0054000000000000
#05255:0000000000000064
#05352:0000000000540000
#0545a:0000000000000064
#05557:0000000000540000
#0565a:0000006400000000
#0635a:0064
#0935a:64
#09357:0024
#0495a:0064000000000064
#04958:0024
#0505a:0000000000640000
#05058:00240000
#06052:0054
#06054:0000000000000024
#06152:00540000
#06154:0000000000240000
#06252:54
#01254:00000000000000140000000000000000
#02058:00140000
#07354:00140000
#07458:00140000
#0013a0:14000024
#002320:14000024
#003380:14000024
#004340:14000024
#0083a0:14240000
#012340:14000000003400240000000000000000
#0143a0:0014
#014380:0000000000003454
#015380:34
#0153a0:00240000
#015320:0014
#015340:0000000000003454
#016340:34
#016320:00240000
#0193a0:14000034
#019380:0000003400000000
#020380:00240000
#022320:0014
#022340:0000000000003454
#023340:34
#023320:00240000
#0233a0:0014
#023380:0000000000003454
#024380:34
#0243a0:00240000
#027320:14
#027340:0034
#028320:34
#028340:0024
#0293a0:14
#029380:0034
#0303a0:34
#030380:0024
#031340:14
#031320:0034
#032340:34
#032320:0024
#033380:14
#0333a0:0034
#034380:34
#0343a0:0024
#035320:14000024
#035340:00343400
#0363a0:14000024
#036380:00343400
#037340:14000024
#037320:00343400
#038380:14000024
#0383a0:00343400
#039320:1434
#039330:00340034
#040320:3424
#040330:00340000
#0403a0:00000014
#041370:0034
#0423a0:00340000
#043370:24
#043320:0014
#044350:00340000
#045320:34
#045350:00000024
#0463a0:00140000
#047370:3400003400340000
#0483a0:0000003400003400
#0493a0:0034000000000034
#049380:0054
#050380:00540000
#0503a0:0000000000340000
#051370:0000002400000000
#052320:0014000000000000
#052350:0000000000000034
#053320:0000000000340000
#054350:0000002400000000
#0543a0:0000000000000014
#055370:0000000000340000
#0563a0:0000003400000000
#057370:0024000000000000
#057320:0000000000140000
#058350:0000003400003400
#059350:34
#059320:00000034
#060320:0034000034000000
#060340:0000000000000054
#061320:00340000
#061340:0000000000540000
#062320:34
#062350:00000024
#0633a0:0014
#064370:00240000
#065320:14
#068320:00240000
#0683a0:0000000000000014
#0713a0:0000000000000024
#072320:0014
#072340:0000000000000034
#073340:00240000
#0733a0:0014
#073380:0000000000000034
#074380:00240000
#080340:0000143400000000
#080320:0000000000343400
#081340:3434000000003434
#081320:0000003434000000
#081330:0000000000340000
#082340:0024
#083390:0000000000001535
#084370:0035350000000035
#084390:0000000035350000
#085370:3500000000350000
#085390:0000353500000035
#085380:00000035
#086390:0025
#087320:0000163600000000
#087340:0000000000363600
#088320:3636000000003636
#088340:0000003636000000
#089340:0036360000003636
#089320:0036
#089330:0000000000360000
#090320:00260000
#090380:0014
#0913a0:24
#091340:0014
#092320:24
#092380:0014
#0933a0:34
#093370:0054
#0943a0:24
#095340:14000034000000000000000000000000
#096320:3400330033003323
