This file was generated by Ched 2.7.0.0.
#TITLE ""
#ARTIST ""
#DESIGNER ""
#DIFFICULTY 0
#PLAYLEVEL
#SONGID ""
#WAVE ""
#WAVEOFFSET 0
#JACKET ""
#REQUEST "ticks_per_beat 480"
#00002: 4
#BPM01: 160
#BPM02: 170
#BPM03: 168
#BPM04: 166
#BPM05: 167
#BPM06: 163
#BPM07: 164.5
#BPM08: 161.5
#00008: 01
#06508: 01
#01808: 02
#05908: 03
#06108: 04
#06008: 05
#06308: 06
#06208: 07
#06408: 08
#TIL00: ""
#HISPEED 00
#MEASUREHS 00
#00414:14
#00518:14
#00612:14
#0111a:14
#0121a:14
#01314:14
#01414:14
#02012:14
#02118:14
#02214:14
#03618:14
#03714:14
#0381a:14
#03912:1414
#0401a:1414
#04114:14
#04118:0014
#04412:1616
#04518:16
#04512:0016
#04618:16
#04612:0016
#04610:41
#05218:1616
#05312:16
#05318:0016
#05412:16
#05418:0016
#0591a:14
#06014:14
#06118:14
#06212:14
#0631a:1414
#06310:41
#06414:1414
#06518:1414
#07614:14
#0771a:14
#07812:14
#03012:14
#02814:14
#02918:14
#03318:14
#03214:14
#05012:16
#05018:0016
#05818:16
#05812:0016
#0031a:14
#0351f:11
#0191a:24
#01910:41
#0271a:24
#0311a:24
#03110:41
#04214:24
#04318:2626
#0431f:21
#05112:2626
#06612:24
#01010:41
#05510:41
#007390:14
#008390:24
#009330:14
#010330:24
#0153a0:1434
#0163a0:3424
#017320:1400003400003400
#018320:0024
#0233a0:14
#0243a0:24
#025320:14
#026320:24
#034320:14
#035320:24
#047380:1626
#048320:1626
#049380:1626
#055320:1626
#056380:1626
#057320:1626
#067380:14
#068380:24
#069340:14
#070340:00240000
#0713a0:1400000000000034
#0723a0:00000000340000340000340000000000
#0733a0:34
#073390:0034
#074380:34
#074390:0034
#0753a0:24
#079380:14
#080380:24
#081320:14
#082320:24
#0833a0:14
#0853a0:24
