This file was generated by Ched 2.7.0.0.
#TITLE ""
#ARTIST ""
#DESIGNER ""
#DIFFICULTY 0
#PLAYLEVEL
#SONGID ""
#WAVE ""
#WAVEOFFSET 0
#JACKET ""
#REQUEST "ticks_per_beat 480"
#00002: 4
#BPM01: 160
#BPM02: 170
#BPM03: 168
#BPM04: 166
#BPM05: 167
#BPM06: 163
#BPM07: 164.5
#BPM08: 161.5
#00008: 01
#06508: 01
#01808: 02
#05908: 03
#06108: 04
#06008: 05
#06308: 06
#06208: 07
#06408: 08
#TIL00: ""
#HISPEED 00
#MEASUREHS 00
#04915:0000160000130016
#0491b:1300001300000000
#04918:0013
#04912:00000013
#05015:0016001600000016
#05018:26002616
#05012:00260026
#0751b:00131313
#07512:0012
#07516:0000001200001200
#0821c:00120000
#08212:00000012
#00312:00160000
#00318:00000000000000130000000000330033
#00315:00000000000000000033003300000000
#00415:1300001300000000
#0041b:0013000000130000
#00418:00000000130000000000000000000013
#00412:0013000000001300
#00512:0000130000130000
#00515:13000000000000130000000000000000
#00518:0013001300000000
#0051b:0013
#00618:0013000013001300
#00612:00000000130000000000000000130000
#0061b:0000001300000000
#00615:1300001300130000
#00714:0013
#00716:00000013
#00712:0000130000000013
#00812:0000001300000013
#00815:00000000000000001300001300000000
#00818:0000000000130000
#0081b:00000013
#00915:00130013
#00912:0013000013000013
#00918:00000000000013000000130000000013
#0091b:0013000013000000
#01118:0000160000160000
#01112:0016
#01115:00000000000000000000000000330033
#0131b:13000000000000130000000000001300
#01318:0013000000130000
#01315:00131313
#01312:1300001300000000
#01412:13000000000000001300000000130000
#01415:0013001300130000
#01418:00131313
#0141b:0000001300130000
#01517:0013130000000000
#01512:00000013000000000000000000000000
#01518:0000001414000000
#01519:0000000000151500
#01513:00000000000000140000000000000000
#01514:00000000000000000000001500000000
#01618:00000026000000260000140000001400
#01612:00000000002600000000001400000000
#0161a:00000014
#01614:00001400000000000014000000140000
#01712:2600001400002600
#0171a:14000014
#01716:0000140000140000
#01718:0014002600000000
#01714:0014
#01818:0000000000001313
#01815:00000000000000000000130000130013
#01816:0014000000000000
#01812:0013
#0201b:0000001300130000
#02015:1300001300130000
#02018:0000000013000013
#02012:00230023
#02218:0000001300130013
#02215:00001300000000130000000000000000
#0221b:00001313
#02212:00230023
#02315:1300001300130000
#02318:0013000013000000
#02312:00130013
#0231b:00130013
#02417:0000000000130013
#02414:00000014
#02412:0000000000130013
#0241b:0000001300000000
#02618:0013000013000000
#02615:0000001300130013
#0261b:00130013
#02612:00130013
#0271b:13
#02712:0013000000000014
#02714:0000000000130000
#02719:00130000
#0271a:0014
#02715:0000002400000000
#02717:00000024
#0291b:0013000000130000
#02915:00130013
#02918:0000000000000013
#02912:1313
#0331a:2313000024140000
#03318:0000231300002414
#03315:00130013000000000000000000000000
#03313:00000000001300130000000000000000
#03314:00000000000000000014001400000000
#03312:00000000000000000000000000140014
#03512:2413002400000000
#0351b:00131300
#03518:0000001300130013
#03515:00000000000000000000001300130000
#0351f:11
#03612:13130000
#0361b:0013000000000013
#03615:0000001300130000
#03618:00001313
#0361a:2400002400000000
#03718:13000000001300000000001300130000
#03712:2413002400000000
#03715:0000130000130013
#0371b:0013
#03815:00130000000013000000000000000000
#03818:00001300001300000000000000000000
#03812:00241300
#03814:0000000000130013
#03816:00000013
#0381a:24000000000000002400002400002400
#0431b:00131313
#04318:0000001300000013
#0431f:21
#04415:1300130000000013
#04412:0013000013001300
#04418:0000001313001300
#0441b:1300130000130000
#04515:1300001300000000
#04518:0013000013000000
#0451b:13130000
#0451a:0000000000140000
#04516:00000014
#04512:0000130013000014
#04616:14
#04612:0013001300130013
#04617:00140000
#04618:0014
#04619:00000014
#04610:41
#04712:0013130000130000
#04718:00000013001300000000001300001300
#04715:0000001313000000
#0471b:23000000000000130013000000000000
#0511b:00002313
#05118:2600001300000000
#05115:00130000
#05116:0000000000000013
#05112:1413
#0521b:1323
#05212:23131300
#05217:0000001300000000
#05218:0000000000130000
#05512:23131300
#05517:00000000000000000013000000000000
#05514:0000000000130000
#05516:00000013
#05519:00000000000000000000001300000000
#0551b:0000000000000013
#05510:41
#05612:0000000000000013
#0561b:23131300
#05616:00000000000000000013000000000000
#05619:0000000000130000
#05617:00000013
#05614:00000000000000000000001300000000
#05719:0000000000000013
#05718:0000001300000000
#05715:00001313
#0571b:00001313
#05712:1300000000130000
#05717:13
#0591b:2313000000130013
#05915:00130000000000000013000000130000
#05912:00000000130013000000001300000000
#05918:00000000001300002300000000000000
#06218:2313000000000013
#0621b:00000000001300002300000013000000
#06215:0000131300130000
#06212:00130000000000002300000013000000
#06515:00130000001300000000000000000000
#06512:00000013000000130000001400000014
#06514:00000000000000000014000000140000
#06518:0013001300240024
#0651b:23230000
#0651a:00002424
#07616:0012000012001200
#07612:0000001200000000
#0761b:13131313
#07718:0000000000120000
#0771c:0012000000000000
#0771a:0000001200000012
#07712:13131313
#07818:0000000000120000
#0781a:0000001200000000
#0781c:0012000000001200
#07812:13131313
#0801b:00121212
#08113:00121212
#07913:00121212
#0101b:0013000000001300
#0101a:00130000
#01019:0000001300000000
#01010:41
#0191b:0000130000000013
#01919:0000001300000000
#01915:0000000000130000
#01912:00230023
#01918:26
#01910:41
#02115:1300001300130013
#02112:00230023
#02516:00000000000000130000000000000000
#0251b:00000000000000130000000000000000
#02512:3333333333333333
#02517:3333333333333333
#03416:18
#0341b:0033333333133333
#0481b:0013130000130000
#04815:00000013001300000000001300001300
#04818:0000001313000000
#04812:23000000000000130013000000000000
#0581b:0013000000000000
#05817:1300001300000000
#05819:00130000
#05816:0013000000000000
#05812:1300001300000000
#05814:00130000
#04115:00130013000000000000000000000000
#04113:00000000001300130000000000000000
#04114:00000000000000000014001400000000
#04112:00000000000000000000000000140014
#0411a:2313000024140000
#04118:0000231300002414
#03912:2313130023131300
#03916:00000014000024000000001400002400
#0391a:2424
#0401b:2313130023131300
#04016:00000014000024000000001400002400
#04012:2424
#06112:0013000023000000
#06118:00130000130000000000001300000000
#0611b:00000000000013000013000000130000
#06115:23000000001300000000130000001300
#06018:00130000000000000013000000001300
#06015:00000000001300000000130000130000
#0601b:0000131300001300
#06012:2313000023000000
#06414:0013001300000000
#06419:0000000000130013
#0641b:23132300
#06412:23002313
#06416:00240024
#06616:0000001400000000
#06617:00000012
#0661a:24
#01218:13000000000000130000000013000000
#01215:00130000000013000000001300000000
#0121b:0013000000130000
#01212:00000000130000000013000000000000
#05312:0000130000140000
#05318:0000001300000000
#05315:0013
#05316:00000014
#0531a:0000000000000014
#0531b:0013
#05416:14
#0541b:0013001300130000
#05415:00140000
#05414:0014
#05413:00000014
#0311b:0013000000000000
#03112:1314
#03119:0000000000130000
#03114:00130000
#0311a:0000000000000014
#03117:0000002400000000
#03115:00000024
#03110:41
#03212:13000000000000130000000013000000
#03215:00000013000000000000000000001300
#0321b:00131313
#03218:0013000000130000
#02815:0013001300130000
#02818:00000013000000000000000000001300
#0281b:13
#02812:00130000
#06319:0000000000130013
#06314:0013001300000000
#06312:2323
#0631b:2323
#06316:00240024
#06310:41
#03015:0023000013000000
#03018:0000002300130013
#0301b:00230013
#03012:00230013
#0421b:23
#07213:0000000000000033
#0721a:0000000000000033
#00352:00160000
#00358:16
#01158:00160000
#01152:16
#0175a:00000064
#01752:16000016
#01758:0000001600000000
#02355:13
#02358:0013
#02452:0000000000000053
#02457:0000000000000053
#0275b:13
#02752:0013000000000014
#0275a:0014
#0295b:0013000000000000
#02955:00000013
#02958:0000000000000013
#04656:14
#04657:00140000
#04658:0014
#04659:00000014
#0495b:13
#0525b:63
#05152:0053
#05158:46
#05556:00000013
#01856:0024000000000000
#02556:00000000000000230000000000000000
#0255b:00000000000000230000000000000000
#03456:58
#0345b:0000000000230000
#0585b:0023000000001300
#05857:5300002300000000
#05859:00530000
#05856:0023000000001300
#05852:5300002300000000
#05854:00530000
#06656:0000002400000000
#06657:00000012
#0665a:54
#05657:00000013
#05456:14
#05455:00140000
#05454:0014
#05453:00000014
#0315b:0013000000000000
#03152:1314
#0315a:0000000000000014
#05058:16001656
#05055:0000000000000026
#05052:00160016
#0325b:00530000
#01958:16
#03556:18
#04356:18
#0715b:13
#07155:13
#0395a:1414
#04052:1414
#05757:63
#05752:63
#0023a0:12
#003380:26
#003350:00000000000000001333003323000000
#003320:0000000000330000
#003381:00000000000000000000000013330033
#0033b1:0000000000000033
#004381:23
#005381:00000000000000000000000000130000
#005391:0000000000000033
#0053a1:00000000000000000000000000000033
#0063b1:23
#007371:00001333230000000000000000000000
#007391:00000000000013332300000000000000
#0073b1:00000000000000000000133323000000
#0083b1:13
#008381:0023000000000000
#008350:0013000000000000
#008320:00230000
#008381:0000132300000000
#010341:12
#011321:26
#010380:0013
#010390:00000000000000000033000000000000
#0103a0:0000000000230000
#011351:00000000000000000000000013330033
#011321:0000000000000033
#012351:23
#015341:0000000000000014
#016341:24
#016380:1424000000000000
#0173a0:00000014
#018360:0054000000000000
#0183a0:0024
#019380:0013
#0193b0:00000023
#0203b0:13
#020380:00230000
#0213b0:13
#021380:00230000
#021380:0000001300000000
#0213b0:0000000000230000
#021370:00000013
#0223b0:00230000
#023370:0000000000000013
#0243b0:33
#024380:0023000000000000
#024351:0013000000000000
#024321:00330000
#024361:0000002300000000
#024321:0000000000000013
#025321:3333333333333333
#025361:00000000000000530000000000000000
#026321:23
#024370:0000000000000013
#025370:3333333333333333
#0253b0:00000000000000530000000000000000
#026370:23
#028380:0013
#0283b0:0000000000230000
#028350:00000013
#028320:0000000000000023
#029380:0000001323000000
#0323b0:00130000
#032380:00000000000000230000000000000000
#034360:18
#0343b0:00003300330033003353330033003300
#035360:28
#0423b0:13
#043360:28
#043321:13
#043361:00230000
#043361:0013
#043321:00000023
#047351:0000000000001323
#048381:0000000000001323
#050381:00000016
#050351:0000000000000056
#051381:26
#051321:0013
#051361:00000023
#0523b1:13
#052371:00230000
#052361:00000013
#053321:23
#053370:13
#0533b0:00230000
#0553b0:1300003300000000
#0553a0:00330000000000000000000000000000
#055390:00003300003300330000000000000000
#055380:00000033000000000000000000000000
#055370:00332300
#056320:1300003300000000
#056330:00330000000000000000000000000000
#056340:00003300003300330000000000000000
#056350:00000033000000000000000000000000
#056360:00332300
#057370:13
#0573b0:00230000
#057321:13
#057361:00230000
#058371:1300003300000000
#0583b1:0033000033002300
#058391:00330000
#058320:1300003300000000
#058360:0033000033002300
#058340:00330000
#0663a0:14000024
#066360:0000005400000000
#067320:1300000000000053360000000000000000000000365300000000000000000053
#067350:0000000000000000005300000000000000000053000000000000000000000000
#068320:3600000000000000365300000053360000000000000000003653000023000000
#068350:0053535353535353000000000000005353535353530000530000000000000000
#068340:00000054005400540054005400540000000000000000000000000000000000530053005300530053000000000000000000000000000000000000000000000000
#0673b1:1300000000000000000000000053000000000000000000000000000000005353
#067381:0000000000000000000000000000365300000000000000000000000053360000
#068381:36005354535453545354535453545300360000000000000000000000000000000000000000000000360053005300530000000000000000002300000000000000
#0683b1:0000000000000000005300000000000000000053000000000000000000000000
#068391:00000000000000000000000000000000000000000000000000000000000000000000000000000000000000530053000000000000000000000000000000000000
#0693b1:1300000000000053000000000000000000000000005300000000000000000053
#069381:0000000000000000365300000000000000000053360000000000000000000000
#070381:3653000000000053360000000000365300000000000000533600000000000000
#0703b1:0000000000000000005353535353000000000000000000000053535353535353
#0703a1:00000000000000000000000000000000000000530053005300530000000000000000000000000000000000000000000000000053005300530053005300530053
#0713b1:23
#069320:1300000000000000000000000053360000000000000000000000000000365353
#069350:0000000000000000000000000000005300000000000000000000000053000000
#070320:3600000000000000365353535353000000000053360000000000000000000000
#070350:0053000000000053000000000000000000000000005353535353535353535353
#070330:00000000000000000000000000000000000000530053005300530000000000000000000000000000000000000000000000000000000000000000000000000000
#070340:00000000000000000000000000000000000000000000000000000000000000000000000000000000000000530053005300530053005300530053005300530053
#071350:23
#071350:0000000000000000130000000000000000000053000000000000000000000000
#071320:0000000000000000000000000000000000000000365300000000000000000053
#072320:3600000000000000365300003353360000000000000000000000000000530000
#072350:0053000033000053000000000000005300000000000000000000533300000000
#072330:0000000000000033
#073320:0000005336000000365333530053335300000000005336000000000036530053
#073350:0000000000530053000000000000000000000000000000533300005300000000
#074320:3600000000000000000000000000000056530000000000000000000000000000
#074350:0053000000000000000000000000005300000000000000000000000000000000
#075320:23
#071381:0000000000000000130000000053360000000000000000000000000036530053
#0713b1:0000000000000000000000000000005300000000000000000000005300000000
#072381:3600000036530000330000000053360000000000365300000000533300000000
#0723b1:0053005300000000000000000000005300003353000000000000000000530053
#0723a1:0000000000000033
#073381:3653005336000000000036530053360000000000000000003653005336000000
#0733b1:0000000000530000335300000000005300000000000033530000000000530053
#074381:3653000000000000000000000000005356000000000000000000000000000000
#0743b1:0000000000000000000000000000000000530000000000000000000000000000
#0753b1:23
#079381:12
#0793a1:0052
#080381:22
#080360:12
#080340:0052
#081360:22
#081381:12
#0813a1:0052
#082381:22
#082360:1222
#082350:0032003200000000
#082340:00320000
#082381:0012
#082391:0000000000320032
#0823a1:00000032
#083381:22
#083360:12
#085340:22
