This file was generated by Ched 2.7.0.0.
#TITLE ""
#ARTIST ""
#DESIGNER ""
#DIFFICULTY 0
#PLAYLEVEL
#SONGID ""
#WAVE ""
#WAVEOFFSET 0
#JACKET ""
#REQUEST "ticks_per_beat 480"
#00002: 4
#BPM01: 160
#BPM02: 170
#BPM03: 168
#BPM04: 166
#BPM05: 167
#BPM06: 163
#BPM07: 164.5
#BPM08: 161.5
#00008: 01
#06508: 01
#01808: 02
#05908: 03
#06108: 04
#06008: 05
#06308: 06
#06208: 07
#06408: 08
#TIL00: ""
#HISPEED 00
#MEASUREHS 00
#04912:0000001300000013
#04918:1413
#0491b:00000013
#04915:0000000000130000
#05014:0014001400000000
#05018:24242400
#05012:00000026
#07512:00131313
#07518:0013
#00318:00140000
#00412:0000000000130000
#0041b:0013000000001300
#00415:00000000130000000000000000000013
#00418:0000001300000000
#00612:00001300000000000000000000130000
#0061b:00131300
#00615:0000001300130000
#00618:13000013
#00812:0013
#0081b:1300000000130000
#00815:00130013
#00818:0013001300000013
#00915:0000130000130000
#00912:0013000000000013
#00918:0000001300001300
#0091b:0013
#01718:00141400
#01714:0014000000140000
#0171a:24000014
#01712:0000002400000000
#01812:0000000000140000
#01816:0014000000000000
#0181a:00000014
#02215:0000001300001300
#0221b:0013
#02218:1300000000130000
#02212:0000000000000013
#02318:13
#02315:0000001300001300
#0231b:0013
#0261b:0013
#02612:0000001300130000
#02615:0013000000000013
#02618:00130013
#02712:0014000000000000
#02714:0000000014000014
#0271a:14
#02718:0000002400002400
#03618:00140000
#03612:2400002400000000
#0361a:24
#03714:00140000
#0371a:2400002400000000
#03712:24
#04315:0000130000000013
#04318:0000001300001300
#04312:0013
#0431b:0013
#0431f:21
#0451b:0013000000130000
#04512:00130000
#04518:0000001300000013
#04515:00001313
#04618:00130013
#04615:0000001300130000
#04612:1300000000000013
#0461b:1313
#04610:41
#05215:1313
#0521b:0000001300000000
#05218:0000000000130000
#05212:00000013
#05115:0000001300000000
#05118:0000130013000013
#05912:00130013
#05918:0013000000130000
#0591b:0000001300000013
#05915:2323
#07615:0013000013000000
#0761b:13131313
#01018:0013000013000000
#01015:0000130000130000
#01012:0000001300001300
#0101b:13000013
#01010:41
#01918:0000001313000013
#01912:2400001313000000
#01910:41
#02015:0000000000000013
#0241b:0000000000001313
#02517:00000000000000130000000000000000
#0251b:3333333333333333
#03416:0014
#0341a:1434343400343434
#0581a:0014000000000000
#05817:14
#05818:00140000
#05816:0000001400000000
#06112:00130013
#06119:0000001300000000
#0611b:0013000000130000
#06118:0000000000000013
#06115:2323
#06012:00002313
#06018:0000000000130013
#0601b:0013001300000000
#06015:23130000
#06418:0015001500160016
#06413:25250000
#06412:00002626
#07712:13
#07713:00130000
#07714:0013
#07715:00000013
#0771b:0000001300130000
#06318:0013001300140014
#06315:23230000
#06314:00002424
#06310:41
#00515:0000000000000013
#0051b:00000000001300000000000000000000
#00518:13003300330033333300000000000000
#00715:0000000000000013
#0311a:0014000000000000
#03118:0000000014000014
#03112:14
#03114:0000002400002400
#03110:41
#02915:0000001300000013
#02918:1313
#02912:0000000000130000
#0291b:0013000000001300
#02815:0000000000000013
#02818:0000003313000000
#0281b:0013000000000000
#0281a:0000330000330000
#03514:00140000
#0351f:11
#0351a:0000002400000000
#0441b:1313
#04415:0013000000130013
#04418:00130013
#04412:0000001300000000
#04716:0014
#0471a:00001434343434340034343434340000
#04816:0014
#04812:00001434343434340034343434340000
#05415:00130013
#0541b:0000001300130000
#05412:1313
#0571a:14
#05714:0000001400000000
#05719:0014
#05713:0000000000140000
#05718:00000014
#05712:0000000000000014
#0551a:14343434003434340000000000001400
#05516:00140014
#05512:0000000000140000
#05510:41
#05612:14343434003434340000000000001400
#05616:00140014
#0561a:0000000000140000
#05315:0000001300001300
#05318:0000000013000013
#0531b:0000000000130000
#07915:13
#07912:00331333
#08018:13
#0801b:00331333
#08115:13
#08112:00331333
#01114:00140000
#01118:14000000000000000000000000330000
#0111a:00000000000000000000000000000033
#01119:0000000000330033
#01212:0013000000130000
#01218:00130013
#01215:0000001300000000
#0121b:0013
#01418:00001300000013000000000000130000
#01412:1313
#0141b:0000000000130000
#01415:00130013
#0131b:0000000000130013
#01315:00130013
#01312:1313
#01318:0013001300000000
#0211b:00000013
#0331a:14000014
#03314:0014000000000014
#03318:0000001400000000
#03312:0014
#03212:0013130000333300
#03215:00000000000000331300000000000000
#0621b:0013000000000013
#06218:00130013
#06215:2300001300130000
#06212:0023
#01618:0014000000000000
#01612:14000000000000240000000000000000
#01615:00000000000000000000341434340000
#01614:00000024000000000000000000000000
#0161a:00000000002400000000000000000000
#0151a:0000000000000014
#06616:00000014
#0781b:13
#0781a:00130000
#07819:0013
#07818:00000013
#07812:0000001300130000
#03012:0013
#0301b:0000002300130000
#03015:00230013
#03018:0023000000000013
#0381a:24240000
#03812:24240000
#03814:0000000024000024
#03818:00000000000000000000002400000000
#04219:24
#06512:26
#06513:00360000000000000000000000000000
#06514:0036000000000000
#06515:00000036363636360036363636363636
#0391a:24
#03914:0024
#04018:24
#04012:0024
#0411a:00343434003434340000000000000000
#04112:00000000000000000034343400343434
#07218:0034000000000000
#07219:34
#00358:00140000
#00354:14
#04958:14
#05255:63
#05158:0053
#05152:16
#0245b:0000000000000063
#02557:00000000000000230000000000000000
#03456:0024
#0345a:54
#0585a:0024000000000000
#05857:54
#05858:00540014
#05856:0000002400000000
#02754:0000000014000014
#01856:0024000000000000
#0175a:00000064
#03158:0000000014000014
#02955:0000000000000013
#0295b:00000013
#04756:0024
#0475a:0054000000000000
#04856:0024
#04852:0064000000000000
#0575a:14
#05556:00240000
#0555a:54
#05656:00240000
#05652:64
#07955:63
#07952:0023
#08058:53
#0805b:0023
#08155:63
#08152:0023
#0055b:00000000002300000000000000000000
#00558:53
#01154:00140000
#01158:14
#0215b:00000053
#02258:23
#01952:1453
#01958:0053
#01655:00000000000000000000002400000000
#01652:00000000000000540000000000000000
#02858:0053
#0285b:0053000000000000
#03255:0053
#03252:00530000
#03652:0000006400000000
#0375a:0000005400000000
#05058:14141400
#0355a:4400005400000000
#06552:56
#04358:16
#07154:14
#06652:1c
#02358:13
#0235b:0013
#002340:14
#003340:24
#003320:00000000000000130000000000000000
#003330:00000000000000003300000000000033
#003340:00000000000000000033000000003300
#003350:00000000000000000000333333330000
#004320:23
#005380:13003300330033333300230000000000
#0053b0:00000000005300000000000000000000
#007380:0014000000000000
#007390:00000034000000000000000000000000
#0073a0:00240000
#007340:0000001400000000
#007330:00000000000000340000000000000000
#007320:0024
#007380:0000000000140000
#007390:00000000000000000000003400000000
#0073a0:00000024
#0113b0:0013
#011390:0000000000330033
#011380:00000000000000000000000033330000
#0113a0:00000000000000000000000000000033
#0123b0:23
#015340:0014000000000000
#015330:00000034000000000000000000000000
#015320:00240000
#015380:0000001400000000
#015390:00000000000000340000000000000000
#0153a0:0024
#015340:0000000000140000
#015330:00000000000000000000003400000000
#015320:00000024
#016320:00000000000000140000000000002400
#016350:00000000000000000000343434340000
#0173a0:00000014
#018360:0054000000000000
#0183a0:0024
#019320:0013
#019350:00000023
#019381:0013
#0193b1:00000023
#020351:13
#020321:00230000
#0203b1:0000001300000000
#020381:0000000000230000
#021381:13
#0213b1:00230000
#021321:0000001300000000
#021351:0000000000230000
#0213b1:00000013
#022381:53
#0223b1:00230000
#023351:0000000000000013
#024321:0033000000230000
#024351:0000003300000000
#0243b1:0000000000000013
#0253b1:3333333333333333
#025371:00000000000000530000000000000000
#0263b1:23
#0283b1:0013000000002300
#0283a1:0000330000330000
#028381:0000003333000000
#032321:0000130000333323
#032351:00000000000000333300000000000000
#0343a1:1434343400343434
#034361:0034
#0353a1:24
#0353a1:0000001400000000
#035361:00000024
#036321:0000001400000000
#036361:00000024
#0373a1:0000001400000000
#037361:00000024
#0393a1:1400002400000000
#039381:00000034000000000000000000000000
#039341:0000000014000024
#039321:00000000000000000000003400000000
#040381:1400002400000000
#0403a1:00000034000000000000000000000000
#040321:0000000014000024
#040341:00000000000000000000003400000000
#0413a1:14343434003434342400000000000000
#041361:00340000
#041320:00000000000000001434343400343434
#041360:00000034
#042320:24
#042391:14
#043381:26
#0473a1:00001434343434340034343434342400
#047361:0034
#048321:00001434343434340034343434342400
#048361:0034
#050321:00000016
#051321:26
#051381:0013
#0513b1:00000023
#052351:13
#052321:00230000
#053381:13230000
#0553a1:14343434003434342400000000000000
#055361:00340000
#056321:14343434003434342400000000000000
#056361:00340000
#058371:14
#0583a1:0034000000000000
#058381:00343424
#058361:0000003400000000
#065321:16
#065331:00360000000000000000000000000000
#065341:0036000000000000
#065351:00000036363636363636363636363636
#066321:2c
#0673a1:1400340000340000
#067371:00000000000000340000000000000000
#067361:0000000000000000000000000000000000000000000000000000000000340000
#068361:34
#0683a1:0000340000343424
#068371:00000000000000340000000000000000
#069321:1400340000340000
#069351:00000000000000340000000000000000
#069361:0000000000000000000000000000000000000000000000000000000000340000
#070361:3400000000340000
#070321:00340000
#070341:00000034
#071341:24
#0713a1:0000140000340034
#071371:00000000000000340000000000000000
#072391:34
#072381:00003400000000000034340000000000
#072361:00340000
#0723a1:0000000000000000000000003400340000000000000000000000003434000000
#0733a1:34003400343400000000000000003400
#073361:00000000000000340000003434000000
#0743a1:3400000000000000000000000000005400000000000000000000000000000000
#074371:0000000000000000000000000000000000540000000000000000000000000000
#075371:24
#079351:13
#079321:00333333
#080351:23
#080380:13
#0803b0:00333333
#081380:23
#081351:13
#081321:00333333
#082351:23
#082380:1323
#082390:0033003300000000
#0823a0:00330000
#082351:0013
#082341:0000000000330033
#082331:00000033
#083351:23
#083380:13
#0853b0:23
