This file was generated by Ched 2.7.0.0.
#TITLE ""
#ARTIST ""
#DESIGNER ""
#DIFFICULTY 0
#PLAYLEVEL
#SONGID ""
#WAVE ""
#WAVEOFFSET 0
#JACKET ""
#REQUEST "ticks_per_beat 480"
#00002: 4
#BPM01: 160
#BPM02: 170
#BPM03: 168
#BPM04: 166
#BPM05: 167
#BPM06: 163
#BPM07: 164.5
#BPM08: 161.5
#00008: 01
#06508: 01
#01808: 02
#05908: 03
#06108: 04
#06008: 05
#06308: 06
#06208: 07
#06408: 08
#TIL00: ""
#HISPEED 00
#MEASUREHS 00
#0031a:1414
#00414:1414
#00518:1414
#00612:1414
#0111a:14
#01114:0014
#0121a:1414
#01214:00140000
#01312:14
#01318:0014
#01412:1414
#01418:00140000
#01914:0014
#01918:00140000
#01912:24
#01910:41
#0201a:14
#02014:00140000
#02018:0014
#02112:14
#02118:00140000
#02114:0014
#0211a:00000014
#02214:14
#02218:00140000
#02212:0014
#02312:14
#02318:14
#02314:0014
#0231a:0014
#02412:14
#02418:14
#02414:0014
#0241a:0014
#02512:14343400
#02518:14343400
#02514:00000014
#0251a:00000014
#02818:00140000
#02812:1414
#0291a:14
#02914:00140000
#02918:0014
#02912:00000014
#0301a:14
#03014:00140000
#03018:0014
#03412:14
#03512:2414
#0351f:11
#0351a:24
#0361a:2414
#03612:24
#03712:2414
#0371a:24
#0381a:2414
#03812:24
#04314:0000140000000014
#04318:0000001400001400
#0431a:24
#04312:0024
#0431f:21
#04412:00140014
#0441a:2424
#04618:14
#04612:00140000
#0461a:0014
#04614:00000014
#04610:41
#04814:1434340034340000
#04812:0000001400000000
#04718:1434340034340000
#0471a:0000001400000000
#0491a:14
#04912:14
#04914:0014
#04918:00000014
#0551a:14
#05518:0000341434000000
#05519:0034000000340000
#05519:0000000000340000
#05510:41
#05612:14
#05614:0000341434000000
#05613:0034000000340000
#05613:0000000000340000
#06314:00140014
#0631a:2424
#06310:41
#06412:00140014
#06418:2424
#06618:0000001400000000
#0661a:24
#04114:0014
#04112:2434343400343434
#05012:1414
#0501a:00140000
#05114:0000140000000014
#05118:0000001400001400
#0511a:24
#05112:0024
#05418:14
#05412:00140000
#0541a:0014
#05414:00000014
#05712:14
#0571a:14
#05718:0014
#05714:00000014
#0581a:14
#05818:0024
#05814:00000024
#05812:00240000
#0751a:0014
#07614:1414
#07718:1414
#07812:1414
#0271a:1414
#02714:00140000
#0331a:00000014
#03314:0014
#03318:00140000
#03312:14
#03214:00140000
#0321a:1414
#03112:1414
#03118:00140000
#03110:41
#05212:00140014
#0521a:2424
#0151a:24
#01512:0024
#01618:24
#01614:0024
#0171a:24
#0651a:2424
#06514:00240024
#06712:24
#02612:34340000
#02618:34340000
#07218:0034000000000000
#07219:34
#01010:41
#03452:64
#04852:0000002400000000
#04854:64
#04758:54
#0475a:0000002400000000
#0555a:54
#05558:0000002400000000
#05652:64
#05654:0000002400000000
#0665a:64
#06658:0000002400000000
#04154:0024
#04152:54
#01952:14
#02552:64
#02558:64
#02554:00000024
#0255a:00000024
#05052:0014
#0435a:14
#0515a:14
#0073a0:14
#007380:0024
#008340:14
#008320:0024
#009380:14
#0093a0:0024
#010320:14
#010340:0024
#0173a0:14000034
#017380:0000003400000000
#0183a0:0024
#025320:14343400
#025340:00000034
#026320:34342400
#025381:14343400
#0253a1:00000034
#026381:34342400
#034321:14
#034341:0024
#039321:14000024
#039341:00343400
#0403a1:14000024
#040381:00343400
#041321:1434343400343434
#041341:0034
#042321:24
#045381:14240000
#045341:00001424
#047381:1434340034342400
#0473a1:0000003400000000
#048341:1434340034342400
#048321:0000003400000000
#053381:14240000
#053341:00001424
#0553a1:14000024
#055391:0034000000340000
#055381:0000343434000000
#056321:14000024
#056331:0034000000340000
#056341:0000343434000000
#0593a1:14340000
#059381:00003424
#060341:14340000
#060321:00003424
#061381:14340000
#0613a1:00003424
#062321:14340000
#062341:00003424
#0663a1:14000024
#066381:0000005400000000
#067381:0000140000000034
#067391:00000000000000340000000000000000
#0673a1:0000000000340000
#068381:3434
#0683a1:0000340000003434
#0693a1:24
#069341:0000140000000034
#069331:00000000000000340000000000000000
#069321:0000000000340000
#070341:3400000000343400
#070321:00340000
#071341:24
#071381:00140000
#071391:00000000000000340000000000000000
#0713a1:0000000000340034
#072391:34
#072381:0034340000340034
#0723a1:00000000000000340000000000000000
#073381:34000000000000000000000034340000
#0733a1:00000000343400003400000000000000
#074381:3400000000540000
#0743a1:0054000034000000
#075381:24
#0793a1:1424
#080341:1424
#081381:1424
#082321:1424
#0833a1:14
#085381:24
