This file was generated by Ched 2.7.0.0.
#TITLE ""
#ARTIST ""
#DESIGNER ""
#DIFFICULTY 0
#PLAYLEVEL
#SONGID ""
#WAVE ""
#WAVEOFFSET 0
#JACKET ""
#REQUEST "ticks_per_beat 480"
#00002: 4
#BPM01: 133
#00008: 01
#TIL00: ""
#VOLUME: ""
#HISPEED 00
#MEASUREHS 00
#0001a:14
#00114:14
#00218:14
#00312:14
#0041a:14
#00410:41
#0051a:14
#00612:14
#00712:14
#00818:14
#00918:14
#01014:14
#01114:14
#01219:14
#01213:0014
#01210:41
#01319:14
#01414:14
#01518:14
#01613:14
#01619:0014
#01713:14
#01818:14
#01914:14
#04014:0014
#0401f:11
#0411a:14
#04212:14
#04318:14
#04412:14
#04418:0014
#04512:14
#0461a:14
#04714:14
#05218:1616
#05312:1616
#05418:1616
#05512:1616
#03612:24
#0361a:24
#06418:26
#0481f:21
#02010:41
#04910:41
#02810:41
#05710:41
#0203a0:14
#0213a0:24
#022320:14
#023320:24
#0243a0:14
#0253a0:24
#026320:14
#027320:24
#028380:14
#029380:24
#030340:14
#031340:24
#032380:14
#033380:24
#034340:14
#035340:24
#036320:14
#037320:34
#038320:34
#039320:34
#040320:24
#0363a1:14
#0373a1:34
#0383a1:34
#0393a1:34
#0403a1:24
#048381:1626
#049321:1626
#050381:1626
#051321:1626
#056381:16
#057381:26
#058321:16
#059321:26
#060381:16
#061381:26
#062321:16
#063321:26
#064381:16
#065381:36
#066381:36
#067381:36
#068381:26
