This file was generated by Ched 2.7.0.0.
#TITLE ""
#ARTIST ""
#DESIGNER ""
#DIFFICULTY 0
#PLAYLEVEL
#SONGID ""
#WAVE ""
#WAVEOFFSET 0
#JACKET ""
#REQUEST "ticks_per_beat 480"
#00002: 4
#BPM01: 133
#00008: 01
#TIL00: ""
#VOLUME: ""
#HISPEED 00
#MEASUREHS 00
#00412:2300001300000013
#00418:0013
#00415:0000000000130000
#0041b:23000013
#00410:41
#03019:0013000000000000
#0301b:00130000
#03014:0000000000130000
#03012:00000013
#04018:0000000013130000
#0401b:13
#04015:0000131300000000
#04012:00000013
#0401f:11
#04115:1300000013130000
#04118:0000131300000000
#0411b:00000013
#01112:00130000000000001300000000000000
#01118:0000001313000000
#01115:00000013
#0111b:00130013
#0311b:13001323
#03115:1313
#03112:0013001300002300
#03118:0013001300000000
#00512:00000013
#00515:00130000000000000000000000000000
#0061b:0000001300000013
#00615:0013
#00618:0000000000130000
#00612:23000013
#0081b:2300001300000000
#00815:0013
#00818:0000000000130013
#00812:23000013
#00912:00130000
#0091b:00130000000000000000000013000000
#01012:0000001300000000
#01018:0013
#01015:0000000000130013
#0101b:23000013
#01218:00000013
#0121b:13
#01215:0000001300000000
#01210:41
#01312:00000013
#0131b:0000001300131300
#01415:0013001300000000
#0141b:0013001300000000
#01412:13000000000000000013000000000000
#01418:13000000000000000013000000000000
#01515:1313
#01512:00130023
#01518:0000000000230000
#0151b:00000023
#01519:00000033000000000000000000000000
#01615:00000013
#01612:13
#01618:0000001300000000
#0171b:00000013
#01712:0000001300001300
#01715:0000000000130000
#01818:0013001300000000
#01812:0013001300000000
#0181b:13000000000000000013000000000000
#01815:13000000000000000013000000000000
#02015:00130023
#0201b:00130023
#02012:23
#02018:23
#02010:41
#02112:0013002300000000
#02118:0013000023000000
#02115:2323
#0211b:23
#02418:00130023
#02412:00130023
#0241b:23
#02415:23
#0251b:0013002300000000
#02515:0013000023000000
#02518:2323
#02512:23
#02318:1313
#0231b:0013001300002300
#02312:13001323
#02315:00000013000000000000000000000000
#02715:1313
#02712:0013001300002300
#0271b:13001323
#02718:00000013000000000000000000000000
#0281b:0000000023000013
#02812:0000230000000013
#02818:23000023
#02815:00000023
#02810:41
#02918:13
#0291b:0013000000000000
#02915:13
#02912:0013000024002400
#0291a:00002424
#03218:00130023
#03212:00130023
#0321b:23
#03215:23
#0331b:0013002300000000
#03315:0013000023000000
#03318:2323
#03312:23
#04818:13
#0481b:00130013
#04812:13
#0481f:21
#04915:1313
#04912:00000013000000000000000000000000
#04918:13
#04910:41
#0501b:13
#05018:00130013
#05015:13
#05112:1313
#05115:00000013000000000000000000000000
#0511b:13
#0561b:0000000023000013
#05612:0000230000000013
#05618:23000023
#05615:00000023
#05718:13
#0571b:0013000000000000
#05715:13
#05712:0013000024002400
#0571a:00002424
#05710:41
#05812:0013000013000000
#05818:0013000013000000
#05815:1300000000130000
#0581b:1300000000130000
#0591b:1313000000002300
#05918:0000001313000000
#05915:0000130000130000
#05912:0013000013000000
#0601b:13
#06018:00130013
#06015:13130000
#06012:00001313
#06112:00000013000000001300000013000000
#06115:13
#06118:00131300
#0611b:00000013
#06212:0013000000001300
#06215:13
#0621b:0000130000130000
#06218:0013
#06312:0014
#0631a:00000014
#06315:1313000000000000
#0631b:0013000000000000
#00718:00130000000000001300000013000000
#00715:0000000000130013
#00712:0000001300000000
#05215:00130013
#05212:2313
#0521b:13000013
#0531b:00130013
#05318:2313
#05312:0000001313000000
#05315:00000013
#05412:00130013
#05415:2313
#0541b:0013
#0551b:13
#0551a:0014
#05512:00000014
#01918:1313
#0191b:00130023
#01915:0000000000230000
#01912:00000023
#01914:00000033000000000000000000000000
#03512:13001323
#03518:1313
#0351b:0013001300002300
#03515:0013001300000000
#04418:13000013
#04412:0000000013130000
#0441b:0000131300000000
#0451b:1300000013130000
#04512:0000131300000000
#04515:00000013
#04712:00000013
#0471b:00000013
#04718:26
#06412:14
#0641b:00000032000000000000000032003200
#0641a:0000003200320000
#02212:23000023
#0221b:23
#02218:00000023
#04218:26
#04312:26
#0261b:0023
#02612:23
#02615:0023
#02618:23
#0341b:23
#03412:23
#03415:0023
#03418:0023
#04612:26
#0001b:00000032000000000000000000000000
#0001a:0000003200000000
#00113:00000032000000000000000000000000
#00114:0000003200000000
#00219:00000032000000000000000000000000
#0021a:0000003200000000
#00315:00000032000000000000000000000000
#00314:0000003200000000
#06714:00000032000000000000000000000000
#06713:0000003200320000
#06513:00000032000000000000000032003200
#06514:0000003200320000
#06619:00000032000000000000000032003200
#0661a:0000003200320000
#01552:00000013
#0155b:00000013
#02952:0023000014001400
#0295a:00001414
#02958:23
#0295b:0023000000000000
#02955:23
#04258:16
#04352:16
#01152:00230000000000001300000000000000
#01158:0013
#01155:00000013
#0115b:00000013
#03152:00000013
#0315b:00000013
#04758:16
#0595b:00000013
#05952:0053000053001300
#05955:0000230000230000
#00858:0000000000000063
#0095b:00230000000000000000000000000000
#01055:0000000000000053
#0145b:0023005300001300
#01455:0023005300001300
#01458:53000000000000000023000000000000
#01452:53000000000000000023000000000000
#01352:00000013
#0135b:00000013
#0175b:00000013
#01752:00000013
#01858:0023006300001300
#01852:0023006300001300
#0185b:63000000000000000023000000000000
#01855:63000000000000000023000000000000
#02055:00230000
#0205b:00230000
#02052:53
#02058:53
#02155:5353
#0215b:53
#02152:0023000000000000
#02158:0023000053000000
#02252:23
#0225b:23
#02458:00230000
#02452:00230000
#0245b:63
#02455:63
#0255b:0023000000000000
#02555:0023000063000000
#02558:6363
#02552:63
#0265b:0053
#02652:53
#02655:0053
#02658:53
#02352:63
#02355:00000023000000000000000000000000
#0275b:53
#02758:00000023000000000000000000000000
#02852:0000530000000023
#02858:53000063
#0285b:0000000000000023
#02855:00000053
#03258:00230000
#03252:00230000
#0325b:63
#03255:63
#0335b:0023000000000000
#03355:0023000053000000
#03358:6353
#03352:63
#0345b:23
#03452:23
#03455:0023
#03458:0023
#04858:53
#0485b:00230013
#04855:00000013
#04852:53
#04952:00000023000000000000000013000000
#04955:5353
#0495b:00000013
#04958:53
#0505b:53
#05058:00230013
#05052:00000013
#05055:53
#05152:5353
#05158:00000013
#05155:00000023000000000000000013000000
#0515b:53
#0565b:0000000000000023
#05652:0000530000000023
#05658:53000063
#05655:00000053
#05758:23
#0575b:0023000000000000
#05755:23
#05752:0023000014001400
#0575a:00001414
#05855:5300130000230000
#0585b:5300130000230000
#05852:0023000053001300
#05858:0023000053001300
#0605b:63
#06058:00230053
#06152:00000023000000000000000000000000
#06155:63
#06158:0063
#0615b:00000053
#06252:0023000000001300
#06255:63
#0625b:0000130000230000
#06258:0063
#00452:0000000000000063
#00555:00230000000000000000000000000000
#0065b:0000000000000053
#05255:00230023
#05252:5353
#0525b:23
#0535b:00230023
#05358:6363
#05452:00230023
#05455:5353
#00758:00230000000000000000000000000000
#0195b:00000013
#01952:00000013
#0355b:00000013
#03552:00000013
#04652:16
#05552:00000014
#0555a:0014
#0635a:00000014
#06352:0014
#06355:0053000000000000
#0635b:0053000000000000
#06452:14
#06856:12
#0003c0:1200000000000022
#0003b0:00000032000000000000000032000000
#0003a0:0000003200320000
#000390:0032
#001320:1200000000000022
#001330:00000032000000000000000032000000
#001340:0000003200320000
#001350:0032
#002380:1200000000000022
#002390:00000032000000000000000032000000
#0023a0:0000003200320000
#0023b0:0032
#003360:1200000000000022
#003350:00000032000000000000000032000000
#003340:0000003200320000
#003330:0032
#004320:0000000000000013
#005350:00530000000000000000000000000000
#005320:00230000
#0053b0:0000001300000000
#005380:00000053
#0063b0:23
#0063b0:0000000000000013
#007380:00530000000000000000000000000000
#0073b0:00230000
#008380:0000000000000013
#0093b0:00530000000000000000000000000000
#009380:00230000
#009320:0000001300000000
#009350:00000053
#010320:23
#010350:0000000000000013
#011320:00530000000000000000000000000000
#011350:00230000
#012350:13
#012320:00230000
#012380:0000001300000000
#0123b0:0000000000230000
#012320:00000013
#013350:23
#0133b1:13
#013381:00230000
#013321:0000001300000000
#013351:0000000000230000
#014321:13230000
#014351:0053000000000000
#014380:13230000
#0143b0:0053000000000000
#0143b0:0000001300002300
#014380:00000000000000000053000000000000
#014351:0000001300002300
#014321:00000000000000000053000000000000
#0153b1:13
#015391:00000033000000000000000000000000
#015381:0000002300000000
#016381:13
#0163b1:00230000
#016351:0000001300000000
#016321:0000000000230000
#0163b1:00000013
#017381:23
#017320:13
#017350:00230000
#0173b0:0000001300000000
#017380:0000000000230000
#0183b0:13230000
#018380:0053000000000000
#018351:13230000
#018321:0053000000000000
#018321:0000001300002300
#018351:00000000000000000053000000000000
#018380:0000001300002300
#0183b0:00000000000000000053000000000000
#019320:13
#019340:00000033000000000000000000000000
#019350:0000002300000000
#020320:1323
#020350:00530000
#020381:1323
#0203b1:00530000
#0213b1:13230000
#021381:0053000000000000
#021350:13230000
#021320:0053000000000000
#021380:0013
#0213b0:00000023
#021351:0013
#021321:00000023
#022321:13
#022351:0023
#0223b0:13
#022380:0023
#023320:1300002300000000
#023350:00000053000000000000000000000000
#0243b0:1323
#024380:00530000
#024351:1323
#024321:00530000
#025321:13230000
#025351:0053000000000000
#025380:13230000
#0253b0:0053000000000000
#025350:0013
#025320:00000023
#025381:0013
#0253b1:00000023
#026321:13
#026351:00230000
#026380:13
#0263b0:00230000
#0263b0:0013
#026380:00000023
#026351:0013
#026321:00000023
#0273b1:1300002300000000
#027381:00000053000000000000000000000000
#028381:13
#0283b1:00230000
#028320:00130000
#028350:0023
#028380:00000013
#0283b0:0000000000000053
#029380:53230000
#0293b0:0053000000000000
#028351:00000013
#028321:0000000000000053
#029351:53230000
#029321:0053000000000000
#030321:13
#030341:0033000000000000
#030361:00230000
#0303b1:0013
#030391:0000000000330000
#030371:00000023
#0323b1:1323
#032381:00530000
#032350:1323
#032320:00530000
#033320:13230000
#033350:0053000000000000
#033381:13230000
#0333b1:0053000000000000
#033381:0013
#0333b1:00000023
#033350:0013
#033320:00000023
#0343b0:13
#034380:00230000
#034321:13
#034351:00230000
#034351:0013
#034321:00000023
#034380:0013
#0343b0:00000023
#036380:12
#0373c0:22
#037321:12
#038361:22
#0383c0:12
#039380:22
#039361:12
#040321:22
#0403b1:00000013
#041381:23
#041321:00000013
#042351:23
#042381:00000013
#0433b1:23
#043321:00000013
#044351:23
#044351:00000013
#045321:23
#045381:00000013
#0463b1:23
#046321:00000013
#047351:23
#048381:1323
#0483b1:00530000
#048320:13
#048350:00000023
#049350:1300002300000000
#049320:00000053000000000000000000000000
#049381:13
#0493b1:00000023
#049350:0013
#049320:00000023
#0503b0:1323
#050380:00530000
#050351:13
#050321:00000023
#051321:1300002300000000
#051351:00000053000000000000000000000000
#0513b0:13
#051380:00000023
#051321:0013
#051351:00000023
#052321:1353
#052351:00530053
#053321:23
#0523b0:13
#052380:0023
#053380:1353
#0533b0:00530053
#054380:23
#054351:1353
#054321:00530053
#055351:23
#0553b1:0013000000000000
#055381:0000002300000000
#055350:0013000000000000
#055320:0000002300000000
#056380:13
#0563b0:00230000
#056321:00130000
#056351:0023
#056381:00000013
#0563b1:0000000000000053
#057381:53230000
#0573b1:0053000000000000
#056350:00000013
#056320:0000000000000053
#057350:53230000
#057320:0053000000000000
#058350:13230000
#058320:0053000000000000
#0583b1:13230000
#058381:0053000000000000
#058381:00001323
#0583b1:0000000000530000
#058320:00001323
#058350:0000000000530000
#059320:0013002300000000
#059350:00330000
#059320:00001323
#059350:0000000000330000
#0603b0:1323
#060380:00530000
#060380:00000013
#0613b0:23
#061351:1300002300000000
#061321:00000053000000000000000000000000
#061381:0013
#0613b1:00000053
#062381:23
#062350:13230000
#062320:0053000000000000
#062380:00001323
#0623b0:0000000000530000
#0633b0:1353000000000000
#063380:0000002300000000
#063351:0013000000000000
#063321:0000002300000000
#0643c1:12
#0643b1:00000032000000000000000032003200
#0643a1:0000003200320000
#064381:0032
#0653c1:22
#065320:12
#065330:00000032000000000000000032003200
#065340:0000003200320000
#065360:0032
#066320:22
#066381:12
#066391:00000032000000000000000032003200
#0663a1:0000003200320000
#0663c1:0032
#067381:22
#067360:12000000000000000000000032323232
#067340:00000032000000000000000000000000
#067330:0000003200320000
#067320:0032
#068360:22
