This file was generated by Ched 2.7.0.0.
#TITLE ""
#ARTIST ""
#DESIGNER ""
#DIFFICULTY 0
#PLAYLEVEL
#SONGID ""
#WAVE ""
#WAVEOFFSET 0
#JACKET ""
#REQUEST "ticks_per_beat 480"
#00002: 4
#BPM01: 133
#00008: 01
#TIL00: ""
#VOLUME: ""
#HISPEED 00
#MEASUREHS 00
#00412:2300001300000013
#00418:0013
#00415:0000000000130000
#0041b:23000013
#00410:41
#0071b:0013
#00715:0000001300130000
#00718:00000013
#00712:0000000000000013
#04015:0000130000130000
#04018:0000001300001300
#04012:1313
#0401b:13
#0401f:11
#04112:13
#0411b:1313
#04118:0000130000130000
#04115:0000001300001300
#01118:0000001300000000
#01115:0013
#0111b:00000023
#01112:00000023
#01515:1313
#01518:0000130000260000
#01512:00000026
#03118:1313
#03115:0013001300000000
#03112:00000023
#0311b:00000023
#03315:0000001300001300
#03318:0013
#04418:0000130000130000
#04415:0000001300001300
#0441b:1313
#04412:13
#0451b:13
#04512:1313
#04515:0000130000130000
#04518:0000001300001300
#05112:00001323
#0511b:0000001300002300
#05115:0013000000000000
#05118:13
#05512:13000023
#0551b:0013000000002300
#05515:0000001300000000
#05518:0013
#05818:13130000
#05812:13130000
#05815:00001313
#0581b:00001313
#05912:13000023
#0591b:0013000000002300
#05915:0000001300000000
#05918:0013
#0051b:0000001300000000
#00518:00000000000000000013000000000000
#0061b:2300001300000013
#00615:0013
#00618:0000000000130000
#00612:23000013
#0081b:2300001300000013
#00815:0013
#00818:0000000000130000
#00812:23000013
#00912:0000001300000000
#00915:00000000000000000013000000000000
#01012:2300001300000013
#01018:0013
#01015:0000000000130000
#0101b:23000013
#01212:00000013
#0121b:00000013
#01210:41
#01312:00000013
#0131b:00000013
#0161b:00000013
#01612:00000013
#0171b:00000013
#01712:00000013
#01918:13001326
#01915:00130000
#01912:0000000000260000
#02212:00130000
#02218:00000013
#02215:23
#02118:00000013000000000000000000000000
#02112:0023
#0211b:23000023
#02015:00130013
#02012:23
#02010:41
#02315:00000013000000000000000000000000
#0231b:0023
#02312:2333000000002300
#02515:00000013000000000000000000000000
#0251b:0023
#02512:23000023
#02418:00130013
#0241b:23
#02718:00000013000000000000000000000000
#02712:0023
#0271b:23000023
#02719:0033000000000000
#02915:13
#0291b:13000023
#02912:0023
#02815:13130000
#02818:00001323
#02812:00000023
#02810:41
#04815:00130000
#0481b:00130013
#04812:13000013
#04818:13
#0481f:21
#04915:13
#04912:00000013000000001300000013000000
#04918:00000013000000001300000000000000
#0491b:13000013
#04910:41
#05018:00130000
#05012:00130013
#0501b:13000013
#05015:13
#05218:00130000
#05212:00130013
#0521b:13000013
#05215:13
#05318:13
#0531b:00000013000000001300000013000000
#05315:00000013000000001300000000000000
#05312:13000013
#05412:1300000000130000
#05418:1300000000130000
#05415:0013000013000000
#0541b:0013000013000000
#05615:13130000
#05618:0013
#0631b:13000023
#06312:0013000000002300
#06318:0000001300000000
#06315:0013
#06015:00130000
#0601b:00130013
#06012:13000013
#06018:13
#06115:13
#06112:00000013000000001300000013000000
#06118:00000013000000001300000000000000
#0611b:13000013
#0621b:1300000000130000
#06215:1300000000130000
#06218:0013000013000000
#06212:0013000013000000
#03515:1313
#03518:0013001300000000
#0351b:00000023
#03512:00000023
#03618:13
#0361b:0000001300000000
#03715:13
#03712:0000001300000000
#0381b:13
#03818:0000001300000000
#03912:13
#03915:0000001300000000
#04218:26
#04312:26
#02615:0023
#02618:23
#03212:00000023
#0321b:00000023
#04612:26
#04718:26
#03017:23
#03012:23
#03016:0023
#0301b:0023
#00013:00000033000000000000000000000000
#00014:0000003300330000
#0011a:00000033000000000000000000000000
#00119:0000003300330000
#00214:00000033000000000000000000000000
#00213:0000003300330000
#00319:00000033000000000000000000000000
#0031a:0000003300330000
#0641a:00000033000000000000000000000000
#06419:0000003300330000
#06513:00000033000000000000000000000000
#06514:0000003300330000
#06619:00000033000000000000000000000000
#0661a:0000003300330000
#06714:00000033000000000000000000000000
#06713:0000003300330000
#05710:41
#04258:16
#04352:16
#04652:16
#04758:16
#00558:00000000000000000023000000000000
#0055b:0000005300000000
#00952:0000006300000000
#00955:00000000000000000023000000000000
#01455:00000013
#0145b:00000013
#01852:00000013
#01858:00000013
#02252:00230000
#02255:53
#02158:00000023000000000000000000000000
#0215b:53
#02055:00230000
#02052:53
#02352:53
#02355:00000023000000000000000000000000
#02555:00000023000000000000000000000000
#02552:63
#02458:00230000
#0245b:63
#02758:00000023000000000000000000000000
#0275b:63
#02655:0053
#02658:53
#02852:00000053
#02858:00000053
#02955:23
#0295b:23
#03052:23
#03057:23
#03056:0023
#0305b:0023
#04855:00230000
#0485b:00230000
#04852:53
#04858:53
#04955:53
#0495b:53
#04952:00000023000000000000000000000000
#04958:00000023000000000000000000000000
#05058:00230000
#05052:00230000
#0505b:63
#05055:63
#05258:00230000
#05252:00230000
#0525b:63
#05255:63
#05358:63
#0535b:00000023000000000000000000000000
#05355:00000023000000000000000000000000
#05352:63
#05455:0023000053000000
#0545b:0023000053000000
#05452:5300000000230000
#05458:5300000000230000
#05752:00130000
#05758:00130000
#05755:00000013
#0575b:00000013
#06055:00230000
#0605b:00230000
#06052:53
#06058:53
#06155:53
#06152:00000023000000000000000000000000
#06158:00000023000000000000000000000000
#0615b:53
#0625b:6300000000230000
#06255:6300000000230000
#06258:0023000063000000
#06252:0023000063000000
#0365b:0000002300000000
#03658:53
#03755:63
#03752:0000002300000000
#0385b:63
#03858:0000002300000000
#03952:53
#03955:0000002300000000
#00452:0000000000000053
#0065b:0000000000000053
#0085b:0000000000000053
#01052:0000000000000053
#000320:13000023
#000330:00000033000000000000000000000000
#000340:0000003300330000
#000350:0033
#0013b0:13000023
#0013a0:00000033000000000000000000000000
#001390:0000003300330000
#001380:0033
#002350:13000023
#002340:00000033000000000000000000000000
#002330:0000003300330000
#002320:0033
#003380:13000023
#003390:00000033000000000000000000000000
#0033a0:0000003300330000
#0033b0:0033
#004320:0000000000000013
#005350:00230000
#0053b0:0000001300002300
#005380:00000000000000000053000000000000
#0063b0:0000000000000013
#007380:00230000
#0083b0:0000000000000013
#009380:00230000
#009320:0000001300002300
#009350:00000000000000000053000000000000
#010320:0000000000000013
#011350:00230000
#012380:13
#0123b0:00230000
#012350:0000001300000000
#012320:0000000000230000
#0133b0:13
#013380:00230000
#013320:0000001300000000
#013350:0000000000230000
#0143b0:13
#014380:00230000
#014351:13
#014321:00230000
#014321:0000001300000000
#014351:00000023
#014380:0000001300000000
#0143b0:00000023
#016350:13
#016320:00230000
#016380:0000001300000000
#0163b0:0000000000230000
#017320:13
#017350:00230000
#0173b0:0000001300000000
#017380:0000000000230000
#018320:13
#018350:00230000
#018381:13
#0183b1:00230000
#0183b1:0000001300000000
#018381:00000023
#018350:0000001300000000
#018320:00000023
#020320:1323
#020350:00530000
#0213b0:1300002300000000
#021380:00000053000000000000000000000000
#022350:1323
#022320:00530000
#023320:1333002300000000
#023350:00000053000000000000000000000000
#0243b0:1323
#024380:00530000
#025320:1300002300000000
#025350:00000053000000000000000000000000
#026380:13
#0263b0:00230000
#026350:0013
#026320:00000023
#0273b0:1300002300000000
#027390:0033000000000000
#027380:00000053000000000000000000000000
#028320:00000013
#029350:53
#029320:00230000
#028381:00000013
#0293b1:53
#029381:00230000
#030321:13
#030361:00230000
#030370:13
#0303b0:00230000
#0303b0:0013
#030370:00000023
#030361:0013
#030321:00000023
#032351:13
#032321:0023
#032380:13
#0323b0:0023
#033320:13
#033350:00230000
#0333b1:13
#033381:00230000
#0343b1:13
#034381:00230000
#034350:13
#034320:00230000
#034320:0013
#034350:00000023
#034381:0013
#0343b1:00000023
#036381:13000023
#0363b1:0000005300000000
#037351:13000023
#037321:0000005300000000
#0383b1:13000023
#038381:0000005300000000
#039321:13000023
#039351:0000005300000000
#048321:1323
#048351:00530000
#048380:1323
#0483b0:00530000
#049350:1300002300000000
#049320:00000053000000000000000000000000
#0493b1:1300002300000000
#049381:00000053000000000000000000000000
#0503b1:1323
#050381:00530000
#050350:1323
#050320:00530000
#0523b0:1323
#052380:00530000
#052351:1323
#052321:00530000
#053381:1300002300000000
#0533b1:00000053000000000000000000000000
#053320:1300002300000000
#053350:00000053000000000000000000000000
#054320:13230000
#054350:0053000000000000
#054381:13230000
#0543b1:0053000000000000
#0543b1:00001323
#054381:0000000000530000
#054350:00001323
#054320:0000000000530000
#056350:00000013
#057320:00230000
#0563b1:00000013
#057381:00230000
#057321:0013
#057351:00000023
#057380:0013
#0573b0:00000023
#060320:1323
#060350:00530000
#060381:1323
#0603b1:00530000
#061351:1300002300000000
#061321:00000053000000000000000000000000
#0613b0:1300002300000000
#061380:00000053000000000000000000000000
#0623b0:13230000
#062380:0053000000000000
#062351:13230000
#062321:0053000000000000
#062321:00001323
#062351:0000000000530000
#062380:00001323
#0623b0:0000000000530000
#0643b0:13000023
#0643a0:00000033000000000000000000000000
#064390:0000003300330000
#064380:0033
#065320:13000023
#065330:00000033000000000000000000000000
#065340:0000003300330000
#065350:0033
#066380:13000023
#066390:00000033000000000000000000000000
#0663a0:0000003300330000
#0663b0:0033
#067350:13000000000000000000000033333333
#067340:00000033000000000000000000000000
#067330:0000003300330000
#067320:0033
#068350:23
