This file was generated by Ched 2.7.0.0.
#TITLE ""
#ARTIST ""
#DESIGNER ""
#DIFFICULTY 0
#PLAYLEVEL
#SONGID ""
#WAVE ""
#WAVEOFFSET 0
#JACKET ""
#REQUEST "ticks_per_beat 480"
#00002: 4
#BPM01: 133
#00008: 01
#TIL00: ""
#VOLUME: ""
#HISPEED 00
#MEASUREHS 00
#00018:1200000012000012
#0001a:00000012000000000000120000000000
#0001c:0000001200001200
#00114:00000012000000000000120000000000
#00112:0000001200001200
#00116:0000000012000012
#02012:00130000
#02017:00130000
#0201b:13000023
#02015:00000023
#02016:23
#02010:41
#02212:00130000
#0221b:00130000
#02218:12
#02216:22
#02214:00000023
#02219:00000023
#03616:1200000012000012
#03614:00000012000000000000120000000000
#03612:0000001200001200
#0361c:1212
#03619:0012000000120000
#03712:1200000012000012
#03714:00000012000000000000120000000000
#03716:0000001200001200
#03718:1212
#0371b:0012000000120000
#0381a:00000012000000000000120000000000
#0381c:1200000012000012
#03818:0000001200001200
#03816:1212
#03813:0012000000120000
#03918:1212
#0391a:00000012000000000000000000000000
#0391c:0000001200000000
#03917:0000000000000012
#03912:1212
#03915:0012000000000000
#04019:1500130000130000
#04012:1500000013000013
#04014:0000130000130000
#04016:0000001300001300
#0401b:0000001300001300
#04017:0000000013000013
#0401f:11
#04316:00000014
#04312:26
#04716:00000014
#04718:26
#06418:1200000012000012
#0641a:00000012000000000000120000000000
#0641c:0000001200001200
#06412:16
#06514:00000012000000000000120000000000
#06512:0000001200001200
#06516:0000000012000012
#06518:16
#0661a:00000012000000000000120000000000
#0661c:0000001200001200
#06618:0000000012000012
#06612:16
#06714:00000012000000000000120000000000
#06716:0000001200000000
#06712:0012
#06718:16
#0021a:00000012000000000000120000000000
#00218:0000001200001200
#0021c:0000000012000012
#00314:00000012000000000000120000000000
#00316:0000001200001200
#00312:0000000012000012
#0121b:0013001300000013
#01217:13131300
#01216:0013001300130000
#01212:13001313
#01218:00000013
#01210:41
#01317:0013001300000000
#0131b:13131313
#01312:0013001300130013
#01316:1313
#01315:00000013
#01412:0013000013001300
#01416:1300001300130000
#01417:0013000013000000
#0141b:1300131300000013
#01418:00000013
#01612:0013001300000013
#01616:13131300
#01617:0013001300130000
#0161b:13001313
#01615:00000013
#01716:0013001300000000
#01712:13131313
#0171b:0013001300130013
#01717:13001313
#01515:0013
#01517:13
#0151b:00000013000000000000000000000000
#01512:13000024
#01516:00000013000000000000000000000000
#01518:0000000000230000
#0151a:00000024
#0231b:1313
#02317:0000000000130000
#02312:1323000000130000
#02318:0013001300000000
#02316:00132300
#0241b:00130000
#02415:00130000
#02412:13000023
#02418:23000023
#02916:1323
#0291b:1323
#02912:0000000000130000
#02917:0000000000130000
#03212:00130000
#03217:00130000
#03216:23
#0321b:23000023
#03215:00000023
#03316:0013002300000000
#0331b:0013002300000000
#03312:2313
#03317:2313
#04119:0000130000130000
#04117:0000001300001300
#0411b:0000000013000013
#04114:0000130000130000
#04112:0000001300001300
#04116:0000000013000013
#04817:00130000
#0481b:13
#04818:00000013
#04816:23
#0481f:21
#04915:00000013
#04912:1300001313000000
#04917:23
#04910:41
#0501b:00130000
#05017:13
#05019:00000013
#05012:23
#05112:0013
#05114:00000013
#05115:1313000000000000
#0511b:23
#05212:13
#05217:13131300
#0521b:00130013
#0521a:0013001300000000
#05216:00000013
#0531b:00000013000000001300000000000000
#05317:1300000000130000
#05315:00130000
#05316:0013
#05312:0000000000130000
#05417:13000013
#05416:00131300
#0541b:0013
#05412:13
#05414:0013000000000000
#05419:0000000000130000
#05512:0013000014000000
#05517:0013000000000000
#0551a:00000014
#05516:13
#0551b:13
#0571b:0000000000130000
#05717:0013
#05716:1300000000130000
#05712:1313
#05710:41
#0601b:13
#06017:00130013
#06016:1313
#06012:00130013
#06013:0013001300000000
#0181b:0013000013001300
#01817:1300001300130000
#01816:0013000013000000
#01812:1300131300000013
#01815:00000013
#01918:00000013000000001300000000000000
#01915:1300000000230000
#01912:00000013000000000000000024000000
#0191b:13
#0191a:00000024
#06112:00000013000000001300000000000000
#06116:13
#06118:00131300
#06115:0000000000130000
#0611b:0000000000130000
#05916:0013
#05912:0013000000000000
#05915:0000001300000000
#0591b:1313
#05917:00000013000000000000000000000000
#00918:1300001300000000
#0091b:00000000130000000000001300000000
#00912:00130000000000001300000000000000
#00915:00000013
#0051b:0000131300000000
#00518:13000000000000000000001300000000
#00515:00130000000000001300000000000000
#00512:00000013
#00718:00130000000013000000000000001300
#00715:0000130000130000
#00712:13001313
#0071b:00001313
#0061b:0000001300000013
#00615:1313
#00612:00160013
#00612:00000013
#00618:0000000000130000
#01118:0000001313000000
#01112:00130013
#01115:1313
#0111b:00130000000000000000000013000000
#01018:0000000013000013
#01012:13160013
#01012:00000013
#0101b:0000001300000000
#01015:0000000000130000
#00815:0000000013000013
#0081b:23000013
#0081b:00000013
#00812:2300001300000000
#00818:0000160000130000
#00412:2600001300000013
#0041b:00000013
#0041b:00000013
#00415:0000000000130000
#00418:00161300
#00410:41
#02116:0000001300130000
#0211b:0013001323130000
#02112:13131300
#02117:23
#02517:0000001300130000
#02512:0013001323130000
#0251b:13131300
#02516:23
#02712:1313
#02716:0000000000130000
#0271b:1323000000130000
#02715:0013001300000000
#02717:00132300
#02618:0012
#0261b:13
#02612:2300000000120000
#0261c:0000000000120000
#02616:0022
#03416:0012
#03412:1300000000120000
#0341c:0000000000120000
#0341b:23
#03418:0022
#03112:13131300
#03116:0023000000130000
#0311b:1313000000130000
#03117:00132300
#0351b:13131300
#03517:0023000000130000
#03512:1313000000130000
#03516:00132300
#0421c:0000000000000012
#04218:00000012
#04412:1500001300001300
#04419:1500130000130000
#04417:0000001300001300
#0441b:0000000013000013
#04414:0000130000130000
#04416:0000000013000013
#04514:0000130000130000
#04516:0000001300001300
#04512:0000000013000013
#04519:0000130000130000
#0451b:0000001300001300
#04517:0000000013000013
#04612:0000000000000012
#04616:00000012
#05612:1300001300130000
#05617:1300001300130000
#05616:0013000013000000
#0561b:0013130000001300
#05816:1313
#05813:0013000000000000
#05812:00130013
#05814:0000001300000000
#05818:0000000000130013
#05817:00130013
#0581b:13
#06216:13000013
#06217:00131300
#06212:0013
#0621b:13
#06219:0013000000000000
#06214:0000000000130000
#0631b:0013000000000000
#06316:0013000000000000
#0631a:0014
#06312:13000014
#06317:13
#0281b:2323
#02815:00230000
#02812:23000023
#02817:00000023
#02810:41
#03012:23
#03018:00230023
#0301b:23
#03015:0023
#01552:53000014
#0155a:00000014
#01557:53
#01556:00000053000000000000000000000000
#0155b:00000053000000000000000000000000
#02256:52
#02252:00230000
#0225b:00230000
#02258:52
#02052:00230000
#02056:53
#02057:00230000
#0205b:53
#01256:0023000000000000
#01252:63130000
#01257:0023
#0125b:0000005300130000
#01352:0023000000000000
#01356:63130000
#0135b:0023
#01357:0000005300130000
#01456:53330000
#01452:0023000000000000
#01457:0023
#0145b:0000006300430000
#01657:0023000000000000
#0165b:53130000
#01652:0000006300130000
#01656:0023
#0175b:0023000000000000
#01757:53130000
#01752:0023
#01756:0000006300130000
#0245b:00230000
#02455:00230000
#02458:63
#02452:53
#02652:6300000000220000
#0265b:53
#0265c:0000000000220000
#02656:0052
#02658:0052
#0285b:53
#02855:00530000
#02852:00000053
#02857:00000053
#02956:23005343
#0295b:23005343
#02952:0000330000230000
#02957:0000330000230000
#03052:63
#03058:00630000
#03055:0053
#03252:00230000
#03257:00230000
#03256:53
#0325b:53
#03356:0023005300000000
#0335b:0023005300000000
#03352:6353
#03357:6353
#04052:1500000000000023
#04059:15
#04057:0000000000000023
#04056:00000063
#0405b:00000063
#04257:13
#04252:13
#04258:00000052
#0425c:0000000000000022
#04856:53
#0485b:53
#04857:00230000
#04852:00000032
#04858:00000033
#04955:00000043
#04957:63
#0495c:00000042
#04952:63
#0505b:00230000
#05057:53000032
#05059:00000043
#05052:23
#05157:00000042
#05154:00000033
#05155:0053000000000000
#0515b:23
#05252:53
#05257:00230000
#05256:00000053
#0535b:00000023000000005300000013000000
#05357:5300000000230000
#05356:00005313
#05352:0000000000230000
#05457:53
#05456:0053
#0545b:0013
#05452:13
#05757:00005313
#0575b:0000000000230000
#05752:53005313
#05756:5300000000230000
#0605b:63
#06057:00230053
#06856:14
#0185b:0023000000000000
#01857:63430000
#01856:0023
#01852:0000005300330000
#01955:63
#0195b:63
#0195a:00000014
#01952:00000053000000000000000014000000
#01958:00000053000000000000000000000000
#06152:00000023000000006300000013000000
#06156:63
#06155:0000000000230000
#06158:00006313
#0615b:0000000000230000
#05957:00000023000000000000000013000000
#05952:00000013
#05956:0023
#0595b:5323
#03659:0022000000220000
#0365c:6262
#03758:6262
#0375b:0022000000220000
#03856:6262
#03853:0022000000220000
#03952:6252
#03955:0022000000000000
#03958:0052
#00452:1600000000000063
#00958:0000005300000000
#0095b:00000000000000000000002300000000
#00952:00230000000000000000000000000000
#0055b:0000005300000000
#00558:00000000000000000000002300000000
#00555:00230000000000000000000000000000
#00758:00230000000000000000000000000000
#0065b:0000000000000053
#0115b:00230000000000000000000013000000
#01155:0013
#01058:0000000000000063
#00855:0000000000000053
#0215b:0023000000630000
#02156:0000000000230000
#02157:53
#02152:0053
#02552:0023000000530000
#02557:0000000000230000
#02556:63
#0255b:0053
#02357:0000000000230000
#02352:0063000000230000
#02356:00235300
#0235b:00005313
#02756:0000000000230000
#0275b:0053000000230000
#02757:00236300
#02752:00006313
#03456:0062
#03452:6300000000220000
#0345c:0000000000220000
#0345b:53
#03458:0062
#03156:0053000000230000
#0315b:0053000000230000
#03152:00236313
#03157:00236300
#03557:0063000000230000
#03552:0063000000230000
#0355b:00235313
#03556:00235300
#04352:36
#04358:32
#04452:15000053
#04459:15
#04456:0000000000000023
#04457:00000053
#0445b:0000000000000023
#04652:0000000000000022
#04656:13000062
#0465b:13
#04758:46
#04756:42
#05652:5300000000230000
#05657:0000002300000000
#05656:0023000053000000
#0565b:00530053
#05856:0053
#0585b:53
#05852:00000023
#05857:00230000
#05552:0053000014000000
#0555a:00000014
#05557:0053000000000000
#06256:63
#06257:0063
#06252:0013
#0625b:13
#0635b:0063000000000000
#06356:0063000000000000
#0635a:0014
#06352:00000014
#06452:56
#06758:56
#06652:56
#06558:56
#04152:00000053
#04157:00000053
#04156:1300000000000023
#0415b:1300000000000023
#04557:1300000000000023
#04552:1300000000000023
#04556:00000063
#0455b:00000063
#000320:12
#001360:22
#001381:12
#0023c1:22
#002360:12
#003320:22
#0033c1:12
#004381:22
#004321:0000000000000013
#005351:00530000000000000000000000000000
#005321:00230000
#0053b1:0000001300000000
#005381:00000000000000000000005300000000
#0063b1:23
#0063b1:0000000000000013
#007381:00530000000000000000000000000000
#0073b1:00230000
#008351:0000000000000013
#009321:00530000000000000000000000000000
#009351:00230000
#009381:0000001300000000
#0093b1:00000000000000000000005300000000
#010381:23
#010381:0000000000000013
#0113b1:00530000000000000000000000000000
#011381:00230000
#012321:13230000
#012361:0053000000000000
#0123b1:0000001300230000
#012371:0053
#013361:13230000
#013321:0053000000000000
#013371:0000001300230000
#0133b1:0053
#014361:13230000
#014321:0053000000000000
#0143b1:0000001300230000
#014371:0053
#015371:1300002300000000
#0153b1:00000033000000000000000000000000
#015320:1300002300000000
#015360:00000033000000000000000000000000
#0163b0:13230000
#016370:0053000000000000
#016320:0000001300230000
#016360:0053
#017370:13230000
#0173b0:0053000000000000
#017360:0000001300230000
#017320:0053
#018370:13230000
#0183b0:0053000000000000
#018320:0000001300230000
#018360:0053
#019350:1300002300000000
#019320:00000033000000000000000000000000
#0193b1:1300002300000000
#019381:00000033000000000000000000000000
#020361:1323
#020321:00330000
#0203b0:1323
#020370:00330000
#021370:13230000
#0213b0:0053000000000000
#0213b0:0000000013530000
#021370:00000023
#021321:00001323
#021361:0000000000530000
#022361:1222
#022321:00330000
#022380:1222
#0223b0:00330000
#023320:0013002300000000
#023360:00530000
#0233b0:00001323
#023370:0000000000530000
#023361:00001323
#023321:0000000000530000
#024321:1323
#024351:00330000
#024380:1323
#0243b0:00330000
#025360:13230000
#025320:0053000000000000
#025320:0000000013530000
#025360:00000023
#0253b1:00001323
#025371:0000000000530000
#026321:13
#0263b1:00230000
#0263b0:13
#026320:00230000
#026360:00001222
#026320:0000000000520000
#026381:00001222
#0263c1:0000000000520000
#0273b1:0013002300000000
#027371:00530000
#027321:00001323
#027361:0000000000530000
#027370:00001323
#0273b0:0000000000530000
#0283b0:13
#028380:00230000
#028351:00130000
#028321:0023
#028321:00000013
#029361:53
#029321:00230000
#028370:00000013
#0293b0:53
#029370:00230000
#029360:00001323
#029320:0000000000530000
#0293b1:00001323
#029371:0000000000530000
#030321:13
#030351:00230000
#030380:00130000
#0303b0:0023
#030351:0013
#030321:00000023
#031361:0013002300000000
#031321:00530000
#0313b0:0013002300000000
#031370:00530000
#031320:00001323
#031360:0000000000530000
#031371:00001323
#0313b1:0000000000530000
#0323b1:1323
#032371:00330000
#032360:1323
#032320:00330000
#033320:13230000
#033360:0033000000000000
#033371:13230000
#0333b1:0033000000000000
#033361:0000001300002300
#033321:0033
#0333b0:0000001300002300
#033370:0033
#0343b0:13
#034320:00230000
#034321:13
#0343b1:00230000
#034381:00001222
#0343c1:0000000000520000
#034360:00001222
#034320:0000000000520000
#035370:0013002300000000
#0353b0:00530000
#035321:0013002300000000
#035361:00530000
#0353b1:00001323
#035371:0000000000530000
#035360:00001323
#035320:0000000000530000
#0363c0:12220000
#036390:0052000000000000
#0363c0:00001222
#036390:0000000000520000
#037380:12220000
#0373b0:0052000000000000
#037380:00001222
#0373b0:0000000000520000
#038360:12220000
#038330:0052000000000000
#038360:00001222
#038330:0000000000520000
#039320:12220000
#039350:0052000000000000
#039320:0012
#039360:00000022
#039381:0012
#0393c1:00000022
#040361:00000013
#040321:0000000000000053
#041361:23
#0403b0:00000013
#040370:0000000000000053
#0413b0:23
#041370:00000013
#0413b0:0000000000000053
#042370:23
#041321:00000013
#041361:0000000000000053
#042321:23
#042381:00000012
#0423c1:0000000000000052
#043381:22
#044371:00000013
#0443b1:0000000000000053
#045371:23
#044320:00000013
#044360:0000000000000053
#045320:23
#045360:00000013
#045320:0000000000000053
#046360:23
#0453b1:00000013
#045371:0000000000000053
#0463b1:23
#046361:00000012
#046321:0000000000000052
#047361:22
#048361:13
#048321:00000022
#0483b0:1323
#048370:00530000
#049371:13
#0493c1:00000022
#049320:13
#049360:00230000
#050321:13
#050371:00000022
#050370:1323
#0503b0:00530000
#0513b1:13
#051371:00000022
#051350:0013000000000000
#051320:0000002300000000
#052321:1323
#052371:00530000
#052361:00000013
#053321:23
#053370:1300002300000000
#0533b0:00000053000000000000000000000000
#0533b0:00001323
#053370:0000000000530000
#053361:00001323
#053321:0000000000530000
#054371:13
#0543b1:00230000
#054361:0013
#054321:00000023
#055371:0013000000000000
#0553b1:0000002300000000
#055320:0013000000000000
#055360:0000002300000000
#056320:13230000
#056360:0053000000000000
#0563b1:00132300
#056371:0000005300000000
#056360:00001323
#056320:0000000000530000
#0563b1:00000013
#057361:53
#0573b1:00230000
#057320:13
#057370:00230000
#057370:00001323
#0573b0:0000000000530000
#057321:00001323
#057361:0000000000530000
#0583b1:1323
#058371:00530000
#058360:0013
#058320:00000053
#059360:23
#0593b1:1300002300000000
#059371:00000053000000000000000000000000
#0593b1:0013
#059371:00000023
#059360:0013
#059320:00000023
#0603b0:1323
#060370:00530000
#060370:00000013
#0613b0:23
#061361:1300002300000000
#061321:00000053000000000000000000000000
#061321:00001323
#061351:0000000000530000
#061380:00001323
#0613b0:0000000000530000
#062360:13
#062320:00230000
#062370:0013
#0623b0:00000023
#063360:0013000000000000
#063320:0000002300000000
#0633b1:0013000000000000
#063371:0000002300000000
#064321:16
#065361:22
#065380:16
#066380:22
#066321:16
#067321:22
#067380:16
#0673c0:00000022
#067361:00000014
#067371:0000000000000000000000000000000000000000000000000032003200320032
#067341:00000000000000000000000000380038
#067351:0000000000000036
#068361:24
