This file was generated by Ched 2.7.0.0.
#TITLE ""
#ARTIST ""
#DESIGNER ""
#DIFFICULTY 0
#PLAYLEVEL
#SONGID ""
#WAVE ""
#WAVEOFFSET 0
#JACKET ""
#REQUEST "ticks_per_beat 480"
#00002: 4
#BPM01: 133
#00008: 01
#TIL00: ""
#VOLUME: ""
#HISPEED 00
#MEASUREHS 00
#00012:14
#00018:0014
#00112:14
#00118:0014
#00214:14
#0021a:0014
#00314:14
#0031a:0014
#00412:2414
#00418:00000014
#0041a:24
#00410:41
#0061a:2414
#00614:00000014
#00612:24
#00818:00001414
#0081a:24
#00812:24
#01014:00001414
#01012:24
#0101a:24
#0121a:1414
#01212:00140000
#01210:41
#01314:1414
#01318:00140000
#01618:1414
#01614:00140000
#01712:1414
#0171a:00140000
#02818:1414
#02814:00140000
#02810:41
#02912:1414
#0291a:00140000
#0321a:1414
#03214:00140000
#03312:1414
#03318:00140000
#0401a:14
#04014:00140000
#0401f:11
#04112:14
#0411a:00140000
#05614:1414
#05618:00140014
#05714:14
#0571a:0014
#05712:0014
#05710:41
#05818:1414
#05814:00140014
#05918:14
#05912:0014
#0591a:0014
#0641a:14
#06416:00140000
#06412:0014
#0651a:14
#06516:00140000
#06512:0014
#0141a:1414
#01412:00140000
#01818:1414
#01814:00140000
#03018:1414
#03014:00140000
#04412:14
#04418:00140000
#0451a:14
#04512:00140000
#06612:14
#06616:00140000
#0661a:0014
#06712:14
#06716:00140000
#0671a:0014
#06018:14
#06014:0014
#06118:14
#06112:0014
#0611a:0014
#06214:14
#06218:0014
#06314:14
#0631a:0014
#06312:0014
#0201a:24
#02010:41
#02114:24
#02218:24
#02312:24
#0241a:24
#02514:24
#02618:24
#02712:24
#04218:24
#04314:24
#04614:24
#04718:24
#06812:24
#0681a:24
#0481f:21
#04910:41
#005340:1424
#007380:1424
#009340:1424
#011380:1424
#015320:1424
#019320:1424
#0203a0:1424
#021340:1424
#022380:1424
#023320:1424
#0243a0:1424
#025340:1424
#026380:1424
#027320:1424
#031340:1424
#034380:1424
#035320:1424
#0363a0:14
#037380:0024
#038340:14
#039320:0024
#040380:00001424
#041340:00001424
#044340:00001424
#045380:00001424
#048320:14
#048340:00000024
#049380:14
#0493a0:00000024
#050340:14
#050320:00000024
#0513a0:14
#051380:00000024
#052340:14
#052320:00000024
#0533a0:14
#053380:00000024
#054320:14
#054340:00000024
#055380:14
#0553a0:00000024
