This file was generated by Ched 2.7.0.0.
#TITLE ""
#ARTIST ""
#DESIGNER ""
#DIFFICULTY 0
#PLAYLEVEL
#SONGID ""
#WAVE ""
#WAVEOFFSET 0
#JACKET ""
#REQUEST "ticks_per_beat 480"
#00002: 4
#BPM01: 155
#00008: 01
#TIL00: ""
#HISPEED 00
#MEASUREHS 00
#0001a:14
#00114:14
#00218:14
#00312:14
#0041a:14
#00514:14
#00618:14
#00712:14
#0081a:14
#00914:14
#01212:14
#01210:41
#01318:14
#02018:14
#02112:14
#02414:14
#02410:41
#0251a:14
#03418:0014
#03514:14
#03612:0016
#03618:26
#03610:41
#03812:16
#03818:0016
#03912:16
#03918:0016
#04018:0016
#04012:26
#04218:16
#04212:0016
#04318:16
#04312:0016
#04614:14
#04718:14
#04812:14
#0491a:14
#0501a:14
#05114:14
#05214:14
#05318:14
#05418:14
#05512:14
#05612:14
#05610:41
#06318:0014
#06414:14
#06612:16
#06610:0041
#06712:0016
#06818:16
#06812:0016
#06918:16
#06912:0026
#07018:16
#07118:0016
#07212:16
#07218:0016
#07312:16000026
#07318:0026
#07418:16
#07412:0016
#07518:16
#07812:16
#07818:0016
#07912:16
#08414:0014
#08518:0014
#08612:0014
#08718:0014
#08814:0014
#0571f:11
#06518:0026
#0651f:0021
#07712:0026
#07718:00000026
#04510:41
#0103a0:14
#0113a0:24
#014320:14
#015320:24
#0163a0:14
#0173a0:24
#018340:14
#019340:24
#022380:14
#023380:24
#026340:14
#027340:24
#0283a0:14
#029380:34
#0303a0:34
#031380:24
#032320:14
#033340:34
#034320:24
#037380:1626
#041320:1626
#044380:16363636
#045380:26
#057380:14
#0583a0:34
#059380:34
#0603a0:24
#061340:14
#062320:34
#063340:24
#066380:0016
#067380:26
#070320:0016
#071320:26
#075320:0016
#076320:26
#076380:0016
#077380:26
#079380:0016
#080380:26
#080320:0016
#081320:26
#081380:0016
#083380:0026
#0893a0:0014
#0903a0:00000000000034340000000024000000
