This file was generated by Ched 2.7.0.0.
#TITLE ""
#ARTIST ""
#DESIGNER ""
#DIFFICULTY 0
#PLAYLEVEL
#SONGID ""
#WAVE ""
#WAVEOFFSET 0
#JACKET ""
#REQUEST "ticks_per_beat 480"
#00002: 4
#BPM01: 155
#00008: 01
#TIL00: ""
#HISPEED 00
#MEASUREHS 00
#00015:00000000130000130000000000130000
#00018:00001300001300000000001300001300
#0001b:0013
#00012:0000000000130000
#0011b:0013000000130000
#00115:00000000130000000013001300001300
#00118:00000000001300001300000000330000
#00112:00000000000000130000000000000000
#0041b:1313000013000013
#00412:0000130000130000
#00418:00000000001300000000001300000000
#00415:00000000000000130000000000130000
#00512:13000000130000130000000000000000
#00517:00000000001300001300000000000000
#00514:00000000000000000013000000000000
#00519:0000000000130000
#00516:00000000000000000000001300001300
#0051b:0013000000000000
#00815:13000000000000130000130000000000
#00818:00130013000013000000000013000000
#0081b:00000000000000000013000000000013
#00812:00000000130000000000000000130000
#00915:13000013000013000000130013000013
#0091b:00000000000000130000001300000000
#00912:0013
#00918:00001300130000000013000000001300
#0101b:13001313
#01018:0013001300130013
#01015:00000000130000130013000000130000
#01012:00000000000000000000001300000013
#01118:13000000001300130000000013001300
#0111b:0013000000130000
#01112:00000000130000001300000000130000
#01115:00001300000013000000130000000013
#0121b:13000000000000130000000013000000
#01212:00001300000000001300000000000013
#01217:00000013000000000013000000000000
#01214:00000000130000000000000000130000
#01219:00000000001300000000000000001300
#01216:00000000000013000000001300000000
#01210:41
#01315:0000001313001313
#01318:00000000000000130000000000130013
#0131b:0000130000130000
#01412:13130013
#01418:00000000001300000000130000130000
#01415:0000001313000013
#0141b:00001300000000130000000000000013
#0151b:00130013
#01516:00000000000000000000000000130000
#01517:00000000000000000000000000000013
#01515:00000013000013000000230000000000
#01518:00001300000000130023000000000000
#01512:1323
#01612:1313
#01619:00130000000000130000001300000000
#0161b:00000013001300000000000000003333
#01614:0013001300130000
#01616:00130013
#01617:00000000000000000013000000000000
#01913:00130000000000000000000000000000
#0191a:0013000000000000
#01914:00000013000000000000000000000000
#01919:00130000
#01915:00000000001300000000000000130000
#01918:0000001300000013
#0191b:13000013
#01912:0000000000000000000000000000003333333333330033000000000000001300
#0311b:1300000000131300
#03115:00130000000000000000000000130000
#0311a:0013000000000000
#03114:00000013000000000000000000000000
#03119:00130000
#03113:00000000001300000000000000000000
#03118:0000001300000013
#03112:00000000000000130000000000000013
#03518:00130013000000000013000000000000
#03512:1313000013001300
#03515:0000131300130000
#0351b:00000000001300130000001300000000
#03616:23000000130000000013001300000000
#0361b:13231313
#03617:0013000000000000
#03612:0000001300000013
#03610:41
#04212:1300130013130000
#04218:00130013000000000013000000130000
#04215:0013001300001313
#0421b:00000000001300130000001300000013
#04312:13130000
#04318:00130000000000000000000000000000
#04315:0013000000000000
#0431b:00000013000000000000000013000000
#04319:0000000000130013
#04316:00000000000013330000000013000000
#04314:0000000000130013
#04317:0013
#04915:00130000000000000000000000130000
#0491b:00000013000013000000000013000000
#04912:00000000140000000000001400000013
#04916:00000000000000140000000000000000
#04919:0013
#04914:00000000000000000014000000000000
#04917:0000000000130000
#04918:1300000000000013
#05216:00140000000000001300000000130000
#0521b:00000013000000000013000013000000
#05212:00000000130000000000001300000000
#05217:00000000001300000000000000000000
#05214:00000000000013000000000000000013
#05219:00000000000000130000000000001300
#0521a:14
#0531a:00000000000000000000001400000000
#05317:1313000000000000
#05312:00130013000000000000000000000000
#0531b:0000131300000000
#05316:00000000001300130000000000000000
#05318:0014
#05314:00000000000000000014000000000000
#05418:16000000000000130000001300001600
#05412:00160016000000001300000016000000
#05415:0000001300130000
#0541b:00000000000000000013000000000000
#05512:13000000130000000000001300000013
#05518:00130000001300001300000013000000
#05515:00001300000000000013000000130000
#0551b:00000013000000000000130000001300
#0601b:00000013000000130000000000000013
#06018:00130000001300000000000000130000
#06012:1300001300131300
#06015:0013130000000013
#08112:00131314
#08118:00000000000000000000000000140000
#08114:00000000000000000000000000000014
#08117:13131300
#0811b:0013001300000000
#08116:0013001300000000
#0811a:0000000000140000
#0821a:1400001400000000
#08212:0014000013001300
#08218:00000014000000000000000000000000
#08214:00000000001400000000000000000000
#08216:0000000000130000
#08217:00000000000000000000000000130000
#0821b:00000000000000000000130000000013
#08314:13000000001400000000000000140000
#08319:00130000000000000000000000000000
#08312:0013000000140000
#08317:00000013000000000000000000000000
#08318:00000000000014000000000000000014
#0831b:0013
#0831a:00000014
#08316:0013
#08912:00000013000000001300000014000000
#0891a:00000000000000000000000000140014
#0891b:13000000001300001300000000000000
#08915:00130000000016000000000000000000
#08918:0013000000000000
#09012:1414000000000000
#0901a:00000014000000000014000000000000
#09018:00000000001400000000000000000000
#09014:0000001400000000
#01712:1300000000130000
#01717:00130000000000000013001300000000
#01719:00000013000000130000000000000000
#01714:0013000013000000
#01716:0000131300000000
#0171b:00000000001300000000000000000000
#0201b:13000000000013000013000000000013
#02015:00130000000000000000130000001300
#02018:00000013000000000000001300130000
#02012:00130013
#02212:00000000000013000000001300000013
#0221b:00131313
#02215:00000000000000000013000000130000
#02218:0000000000130013
#02216:00333333000000000000000000000000
#02112:00161313
#02118:00000000000016000013000000130000
#02115:0000000000130013
#0211b:00000000000000000000001300000013
#02113:2424000000000000
#02119:0024000000000000
#02817:0000000000130000
#02812:00000013
#02818:0000000000000013
#02815:00000000000000000000000000000013
#0281b:00000013
#02917:0013000000000000
#02915:00000000000013000000000013000013
#0291b:00000000130000000000001300000000
#02918:00000000000000130000000000130000
#02912:0000130000130000
#03412:1414
#03418:001400000014001400000014
#03414:001414001414
#0341a:00140014
#03019:0013000000000000
#03017:00000017000000000000130000001300
#03012:00000000000000170000130000001300
#03016:00000013
#03014:0000001300000000
#0301b:00001313
#03312:13000014
#03318:00130000000000000000000000000000
#03313:0013000000000000
#03319:00000013000000000000000000000000
#03314:00130000
#0331a:00000000001300000000140000000000
#03315:0000001300000000
#0331b:00000000000000130000000000000000
#03316:0000000014000014
#04412:1300000000000000000000000000000000333333333333330000000000000000
#04417:13
#0441b:000000000000130000000000000000000000003333333333
#04416:00130000
#06412:23000016
#06418:00130013001300130013001300000000
#06415:0013131313130000
#0641b:23
#08516:00000013000000000000000013000000
#0851a:00000000000000000000000000140000
#08512:00000000000000000000000000000013
#08517:0000000000130000
#08519:13
#08514:00130000000014000000000000000000
#0851b:0013000000000000
#08518:00000000001400000000000000000000
#08616:1413001400000000
#0861a:00000014000000000000000000000000
#08612:00000000001300000000000000000000
#08618:00000013
#08615:00000000000000000000000000130000
#0861b:00000000000000000000130000000013
#08712:13000000001300000000000000140000
#08718:00130000000000000000000000000000
#08715:0013001600000000
#0871b:00000013000000000000000000000013
#08717:00000013
#08716:0000000000130000
#04115:00000000000000000000000000130000
#04118:00000000000000000000000000000013
#04112:00000000133300000000000000000000
#0411b:00000000133300000000000000000000
#00218:00000000130000130000000000130000
#00215:00001300001300000000001300001300
#00212:0013
#0021b:0000000000130000
#00312:0013000000130000
#00318:00000000130000000013001300001300
#00315:00000000001300001300000000330000
#0031b:00000000000000130000000000000000
#00612:1313000013000013
#0061b:0000130000130000
#00615:00000000001300000000001300000000
#00618:00000000000000130000000000130000
#0071b:13000000130000130000000000000000
#00716:00000000001300001300000000000000
#00719:00000000000000000013000000000000
#00714:0000000000130000
#00717:00000000000000000000001300001300
#00712:0013000000000000
#01818:1300001313000013
#01812:00130000000000130013000000000013
#0181b:0013130000131300
#01815:00000013001300000000001300130000
#02318:13000000001300130000000013001300
#0231b:0013000000130000
#02312:00000000130000001300000000130000
#02315:00001300000013000000130000000013
#0241b:13000000000000130000000000001300
#02412:00001300000000001300000000130000
#02417:00000013000000000000000000000000
#02414:00130000
#02419:00000000001300000000000000000000
#02416:0000001300000000
#02418:00000000000000000013000013000000
#02415:00000000000000000000130000000013
#02410:41
#02515:0000001313001313
#02518:13000000130000130000000000130013
#0251b:0000000000130000
#02512:0013000000000000
#02612:13130013
#02618:00000000001300000000130000130000
#02615:0000001313000013
#0261b:00001300000000130000000000000013
#02712:13000013
#02714:0013001300000000
#02716:00130000
#0271b:00131300
#02719:0000000000130013
#02717:00000013
#03212:0013
#0321b:00000013
#03216:00000000000000000033333300000000
#03217:00000000000000000000000000333333
#03712:13000000003300130000000000000000
#03716:0033130000000000
#03717:13000000000000130000000000000000
#0371b:00001300000000000000000000333333
#04012:13230000
#04016:0013000000000000
#04017:23130000
#0401b:0000001300000000
#04517:0013000000130000
#0451b:0000001300000013
#04510:41
#0461b:0013000013000000
#04617:0000001300130000
#04616:0013
#04612:0000000000130000
#04716:0013000000130000
#04712:0000001300000013
#04812:0013000013000000
#04816:0000001300130000
#04817:0013
#0481b:0000000000130000
#0501b:1313000013000000
#05015:00130013000000000000000000000000
#05018:0000131300000000
#05012:00000000001300130000130013000000
#05017:00000000000000000000001300000000
#05016:00000000000000000000000000333333
#0511a:14
#05116:00140000000000001400000000000000
#05119:0014000000000014
#05115:00000014000000000000000000000014
#05118:00140014
#05114:00000000001400000000000000140000
#05117:0000001400140000
#05113:00000000000000140000001400000000
#05112:00000000000000000014000000000000
#05716:0000000000130000
#05712:00000013
#0571b:00000013
#05718:0000000000000013
#05715:00000000000000000000000000000013
#0571f:11
#0561b:13000013
#05619:0013001300000000
#05617:00130000
#05612:00131300
#05614:0000000000130013
#05616:00000013
#05610:41
#0581b:0013000000001300
#05818:00000000130000000013000000000013
#05815:00000000001300130000000000130000
#05812:0000000000130000
#0621b:13
#06215:00130000000000000000000000000000
#0621a:0013000000001400
#06214:00000013000000000000000000000000
#06219:00130000
#06213:00000000001300000000000000000000
#06218:0000001300000000
#06212:00000000000000130000140000000000
#06216:0000000014000014
#0611b:0013
#06112:00000013
#06117:00000000000000000033333300000000
#06116:00000000000000000000000000333333
#06318:001300000013000013001300
#06315:000013001300001300000013
#06312:23132300
#0631b:23002313
#06617:00130013000000000000330013000000
#06612:1300130000130000
#0661b:00000000000013001300000000330013
#06616:00000000000000001300000000000013
#06610:0041
#0711b:00001313
#07115:00000000000000130013001300000000
#07118:00000000001300000000130000001300
#07112:00000000000000000000000000130013
#0721b:1313000013001300
#07215:00130000001300000013000000000000
#07218:0000131300130000
#07212:00000013000000130000001300000000
#07217:00000000000000000000000000001333
#07314:0013001300000000
#07312:00131424
#07319:0013001300000000
#07317:00130000
#07316:1300000000140014
#0731a:00002414
#0731a:00000014
#06512:00001323
#06516:0000000000130000
#06517:00002313
#0651b:0000000000000013
#0651f:0021
#0691b:00001323
#06917:0000000000130000
#06916:0014001423001300
#06912:1600000000000013
#06918:00160000
#0701b:00000000000000000000000013330000
#07012:00000000000000000000000013330000
#07412:1400000000130000
#0741a:00140000000000000000000000000000
#07415:00000013001300130000000000000000
#07418:0000131300000000
#0741b:00000000000000000000000000130013
#07512:0013000000001300
#0751b:00000000000013000000000000000013
#07518:00000000000000001300130000130000
#07515:00000000000000000013000000001300
#07615:0000131300000000
#0761b:00000000001300130000000000000000
#07612:1313000000000000
#07618:00130013000000000000000000000000
#07716:1300130000140014
#07712:0013001324001400
#07712:00000014
#07717:0013001300000000
#0771b:00130000
#0771a:00001424
#0781a:1414000000000000
#07812:00140000000000000000000000000000
#07815:00000013001300130000130000000000
#07818:00000000130013000000000000130013
#07915:00001300000000000000001300000013
#07918:0000001300130013
#0791b:00001313
#07912:00000000000000000013000000130000
#08018:1313000000000000
#08012:00130013000000000000000000000000
#0801b:0000131300000000
#08015:00000000001300130000000000000000
#08412:14000000000014000000130000000013
#0841a:0014000000000000
#08414:00000014000000000000000000000000
#08418:00000000001400000000000000000000
#08417:0000000000130000
#0841b:00001313
#08416:00000000000000000000000000130000
#08816:1400001400000000
#08817:0013000000000000
#08812:00000014000000000000130000000013
#0881b:00000000001300000000000000000000
#08815:00000013
#08818:00000000000000000000000000130000
#0671b:0013
#06719:0000000000130000
#06714:00000000000000000000001300000000
#06716:00000000000000000013000000000000
#0671a:00000013
#06718:0000000000000013
#06713:00000000000000000000000000000013
#06715:00000000000000000000000000130000
#06712:00000000003333330000000000000000
#06819:13
#06817:0013000000000000
#06812:00000013000013000000130000001300
#06814:00130000000000000000000000000000
#06818:00000000003300130000001300000013
#0681b:00000000130000000013000000130000
#06815:00001313
#03819:00000013000000000013000000000000
#0381b:00000000000000000000001300001300
#03816:0000000000130000
#03814:0013000013000000
#03818:00000000001300000000000000000000
#0381a:00000000000000130000000000000000
#03815:00000000000013000000000000330013
#03813:00130000
#03817:00130000000000000000000000000000
#03812:13000013
#03918:13131600
#03916:0000000000140014
#03912:00130000001300000000000016000000
#0391b:0013001300000000
#03915:00000013000000130000000000000000
#00955:00000063
#00958:00630000
#01158:53
#0115b:0053000000000000
#01152:0053
#01155:0000000000530000
#0125b:53
#01257:00000000000000000053000000000000
#01355:0063
#0135b:0000000000630000
#01556:00000000000000000000000000530000
#02152:00160000
#02158:0000001600000000
#0225b:00630000
#03452:3434
#03454:003434003434
#03458:004400000044004400000044
#0345a:00440044
#03057:00000027000000000000000000000000
#03059:0053000000000000
#03054:0000006300000000
#03052:00000000000000270000000000000000
#02855:00000000000000000000000000000053
#02958:00000000000000630000000000000000
#03152:00000000000000630000000000000000
#03552:00000053
#03656:13530000
#0365b:53430053
#03657:0023000000000000
#03652:0000002300000000
#04352:00630000
#04356:0000002300000000
#04457:63
#04452:63
#0445b:00230000
#04456:00230000
#04952:00540000
#0535a:00000000000000000000001400000000
#05354:00000000000000000054000000000000
#05352:00000000000000000000001400000000
#05452:00000016
#05458:0000000000000016
#0605b:00000000000000630000000000000000
#06452:00000016
#08158:00000000000000000000000000140000
#0825a:1400001400000000
#08258:00000014000000000000000000000000
#08358:0000001400000000
#08354:00000000000000000000000000140000
#0855a:00000000000000000000000000140000
#08554:0000001400000000
#08656:1400001400000000
#0865a:00000014000000000000000000000000
#08755:0000001600000000
#08752:00000000000000000000000000140000
#0895b:0053
#0895a:00000000000000000000000000440000
#08955:0000001600000000
#08952:0063
#0905a:00000044000000000024000000000000
#09056:00000034
#09052:34
#00552:63
#0075b:53
#00852:00630000
#02358:53
#0235b:0053000000000000
#02352:0053
#02355:0000000000530000
#0245b:53
#02455:0000000000530000
#02555:0063
#0255b:0000000000630000
#02558:53
#02552:0053000000000000
#02752:23
#02756:00230000
#02754:0053005300000000
#0275b:0023
#02759:0000000000630063
#02757:00000023
#03252:0053
#0325b:00000053
#03356:0000000014000014
#0335a:0000000000140000
#03352:00000014
#03752:53000000000000530000000000000000
#03756:00530000
#04052:63330000
#04056:0023000000000000
#04057:13630000
#0405b:0000002300000000
#04152:00530000
#0415b:00530000
#04155:00000000000000130000000000000000
#04158:00000000000000130000000000000000
#0505b:0053
#05052:00000053
#0565b:23
#05659:0063006300000000
#05657:00230000
#05652:0023
#05654:0000000000530053
#05656:00000023
#05755:00000000000000000000000000000053
#05855:00000000000000530000000000000000
#06252:0000000000140000
#06256:0000000014000014
#0625a:00000014
#0615b:0063
#06152:00000063
#06652:00630000
#0665b:00000000000000006300000000000063
#06657:00000063
#0725b:00000053
#07257:0000000000000023
#06552:00006333
#06556:0000000000230000
#06557:00001363
#0655b:0000000000000023
#0695b:00005343
#06957:0000000000230000
#06956:00001353
#06952:1600000000000023
#06958:00160000
#0705b:00000063
#07052:00000063
#07058:00000000000000000000000000000013
#07055:00000000000000000000000000000013
#07352:00005434
#0735a:00004454
#07356:0000000000240024
#0775a:00006444
#07756:0000000000240024
#07752:00003464
#08452:1400001400000000
#08454:00000014000000000000000000000000
#08856:1400001400000000
#08852:00000014000000000000000000000000
#0685b:00630000
#03958:0016
#03952:00000016
#03852:00000053
#000320:1323000000000000
#001350:1323000000000000
#001380:00000000000000000000000013330000
#0013b0:0000000000000023
#0023b0:1323000000000000
#003380:1323000000000000
#003350:00000000000000000000000013330000
#003320:0000000000000023
#004360:1323000000000000
#005320:13
#005360:0023000000000000
#0053b0:00000000000000000000000013332300
#006370:1323000000000000
#0073b0:13
#007370:0023000000000000
#007320:00000000000000000000000013332300
#008320:00130000
#008350:0000002300000000
#009380:00130000
#0093b0:0000002300000000
#009350:00000013
#009320:0000000000000023
#011380:13230000
#0113b0:0033000000000000
#011320:00001323
#011350:0000000000330000
#0123b0:13
#012370:0023000000000000
#012370:00000000000000000013000000000000
#0123b0:00000000000000000000002300000000
#013370:13
#013390:00330000000000000000000000000000
#0133b0:0023000000000000
#013321:0013000000000000
#013341:00000033000000000000000000000000
#013361:00230000
#013351:0013
#013321:0000000000230000
#0133b0:0000000000130000
#013380:00000023
#015360:00000000000000000000000000130000
#015320:00000000000000000000000000000023
#0163b0:00000000000000000000000000133333
#017370:23
#017320:00000013
#017340:00000000000000000000000000330033
#017360:0000000000000033
#018320:23
#019320:0000000000000000000000000000133333333333330033000000000000000000
#019360:00000023
#020350:00000000000000130023000000000000
#022320:13
#022360:00333333230000000000000000000000
#0223b1:00130000
#022371:0000002300000000
#023381:13230000
#0233b1:0033000000000000
#023321:00001323
#023351:0000000000330000
#0243b1:13
#024371:0023000000000000
#024351:0000000000130000
#024321:00000023
#025381:13
#0253b1:0023000000000000
#025320:0013000000000000
#025350:00230000
#025350:0013
#025320:0000000000230000
#0253b1:0000000000130000
#025381:00000023
#027321:1323
#027341:0033003300000000
#027361:00330000
#0273b0:0013
#027390:0000000000330033
#027370:00000033
#0283b0:23
#028331:14545454545454545454240000000000
#028321:0054005400540054005400540054005400540054000000000000000000000000
#028351:00000000000000000000000000000013
#029321:0023000000000000
#029381:00000000000000130000000000000000
#0293b1:0000000000230000
#030391:130000000000000000000000000000000000000000000000000000000000000000000000000000000000000000000000000000000000000000000000000000000000000000000000000000000000000000000000000000000000000000000000000000000000000000000000000000000000000000000000005300000000000000000000000000000000000000000000000000000000000000000000000000000000000000000000000000000000000000000000000000000000000000000000000000000000000000000000000000000000000000000000000000000000000000000000000000000000000000000000530000000000000000000000000000000000000000000000000000000000000000000000000000000000000000000000000000000000000000000000000000000000000000000000000000000000000000000000000000000000000000000000000000000000000000000000000000000000000000000000000000000000000000000000000000000000000000000000000000000000000000000000000000000000000000000000000000000000000000000000000000000000000000000000000000000000000000000000000000000000000000000000000000000000000000000000000000000000000000000000230000000000000000000000000000000000000000000000000000000000000000000000000000000000000000000000000000000000000000000000000000000000000000000000000000000000000000000000000000000000000000000000000000000000000000000000000000000000000000000000000000000000000000000000000000000000000000000000000000000000000000000000000000000000000000000000000000000000000000000000000000000000000000000000000000000000000000000000000000000000000000000000000000000000000000000000000000000000000000000000000000000000000000000000000000000000000000000000000000000000000000000000000000000000000000000000000000000000000000000000000000000000000000000000000000000000000000000000000000000000000000000000000000000000000000000000000000000000000000000000000000000000000000000000000000000000000000000000000000000000000000000000000000000000000000000000000000000000000000000000000000000000000000000000000000000000000000000000000000000000000000000000000000000000000000000000000000000000000000000000000000000000000000000000000000000000000000000000000000000000000000000000000000000000000000000000000000000000000000000000000000000000000000000000000000000000000000000000000000000000000000000000000000000000000000000000000000000000000000000000000000000000000000000000000000000000000000000000000000000000000000000000000000000000000000000000000000000000000000000000000000000000000000000000000000000000000000000000000000000000000000000000000000000000000000000000000000000000000000000000000000000000000000000000000000000000000000000000000000000000000000000000000000000000000000000000000000000000000000000000000000000000000000000000000000000000000000000000000000000000000000000000000000000000000000000000000000000000000000000000000000000000000000000000000000000000000000000000000000000000000000000000000000000000000000000000000000000000000000000000000000000000000000000000000000000000000000000000000000000000000000000000000000000000000000000000000000000000000000000000000000000000000000000000000000000000000000000000000000000000000000000000000000000000000000000000000000000000000000000000000000000000000000000000000000000000000000000000000000000000000000000000000000000000000000000000000000000000000000000000000000000000000000000000000000000000000000000000000000000000000000000000000000000000000000000000000000000000000000000000000000000000000000000000000000000000000000000000000000000000000000000000000000000000000000000000000000000000000000000000000000000000000000000000000000000000000000000000000000000000000000000000000000000000000000000000000000000000000000000000000000000000000000000000000000000000000000000000000000000000000000000000000000000000000000000000000000000000000000000000000000000000000000000000000000000000000000000000000000000000000000000000000000000000000000000000000000000000000000000000000000000000000000000000000000000000000000000000000000000000000000000000000000000000000000000000000000000000000000000000
#030371:00570057000000000000000000000000
#030340:000000000000000000000000000000000000000000000000000000000000000000000000000000000000000000000000000000000000000000000000000000000000000000000000000000000000000000000000000000000000000000000000000000000000000000000000000000000000000000000000000000000000000000000000000000000000000000000000000000000000000000000000000000000000000000000000000000000000000000000000000000000000000000000000000000000000000000000000000000000000000000000000000000000000000000000000000000000000000000000000000000000000000000000000000000000000000000000000000000000000000000000000000000000000000000000000000000000000000000000000000000000000000000000000000000000000000000000000000000000000000000000000000000000000000000000000000000000000000000000000000000000000000000000000000000000000000000000000000000000000000000000000000000000000000000000000000000000000000000000000000000000000000000000000000000000000000000000000000000000000000000000000000000000000000000000000000000000000000000000000130000000000000000000000000000000000000000000000000000000000000000000000000000000000000000000000000000000000000000000000000000000000000000000000000000000000000000000000000000000000000000000000000000000000000000000000000000000000000000000053000000000000000000000000000000000000000000000000000000000000000000000000000000000000000000005300000000000000000000000000000000000000000000000000000000000000000000000000000000000000000000000000000000000000000000000000000000000000000000000000530000000000000000000000000000000000000000000000000000000000000000000000000000000000000000000000000000000000000000000000000000000000000000000000000000000000000000000000000000000000000000000000000000000000000000000000000000000000000000000000000000000000000000000000000000000000000000000000000000000000000000000000000000000000000000000000000000000000000000000000000000000000000000000000000000000000000000000000000000000000000000000000000000000000000000000000000000000000000000000000230000000000000000000000000000000000000000000000000000000000000000000000000000000000000000000000000000000000000000000000000000000000000000000000000000000000000000000000000000000000000000000000000000000000000000000000000000000000000000000000000000000000000000000000000000000000000000000000000000000000000000000000000000000000000000000000000000000000000000000000000000000000000000000000000000000000000000000000000000000000000000000000000000000000000000000000000000000000000000000000000000000000000000000000000000000000000000000000000000000000000000000000000000000000000000000000000000000000000000000000000000000000000000000000000000000000000000000000000000000000000000000000000000000000000000000000000000000000000000000000000000000000000000000000000000000000000000000000000000000000000000000000000000000000000000000000000000000000000000000000000000000000000000000000000000000000000000000000000000000000000000000000000000000000000000000000000000000000000000000000000000000000000000000000000000000000000000000000000000000000000000000000000000000000000000000000000000000000000000000000000000000000000000000000000000000000000000000000000000000000000000000000000000000000000000000000000000000000000000000000000000000000000000000000000000000000000000000000000000000000000000000000000000000000000000000000000000000000000000000000000000000000000000000000000000000000000000000000000000000000000000000000000000000000000000000000000000000000000000000000000000000000000000000000000000000000000000000000000000000000000000000000000000000000000000000000000000000000000000000000000000000000000000000000000000000000000000000000000000000000000000000000000000000000000000000000000000000000000000000000000000000000000000000000000000000000000000000000000000000000000000000000000000000000000000000000000000000000000000000000000000000000000000000000000000000000000000000000000000000000000000000000000000000000000000000000000000000000000000000000
#030320:0000000000000000000000000000000000000000000000000000000000000000000000000000000057000057000000000000000000000000570000000000000000000000000000000000000000000000000000000000000000000000000000000000000000000000000000000000000000000000000000000000000000000000
#031320:00000000000000130000000000000000
#031360:0000000000230000
#0323a0:14545454545454542400000000000000
#032390:0054005400540054005400540054005400000000000000000000000000000000
#032321:0013
#032361:00000000000000000033333323000000
#0323b0:00000013
#032370:00000000000000000000000000333333
#033370:23
#035320:00000013
#036360:23
#0363b1:13230000
#036371:0053000000000000
#036360:00132300
#036320:0000005300000000
#0363b0:00000013
#036370:0000000000000023
#037320:13000000003300330000000000000000
#037360:0033330000002300
#0373b1:00000000132300000000000000000000
#0373b1:00000000000000000000000013333333
#038371:23
#038321:00000013
#038351:00000000000000000000000000332300
#040321:13230000
#040361:0053000000000000
#040370:00132300
#0403b0:0000005300000000
#040321:00001323
#040341:00000000000000000033003300000000
#040361:0000000000330000
#0403b0:00000013
#040390:00000000000000000000000000330033
#040370:0000000000000033
#0413b0:23
#041321:13000000333300000000000000000000
#041351:00000000000000230000000000000000
#0413b0:00001300333300000000000000000000
#041380:00000000000000230000000000000000
#043320:00132300
#043360:00000000000033330000000000000000
#044320:1300000000000000000000000000000033333333333333330000000000000000
#044360:00530023
#044371:1323
#0443b1:00530000
#0443b1:000000000000000000000000000000000000133333333333
#045371:23
#045320:1323000000000000
#045360:0000132300000000
#045320:0000000013230000
#045360:0000000000001323
#046320:13
#046360:0023000000000000
#046360:00130000
#046320:0000002300000000
#046360:0000000000001323
#0463b1:0000000000001323
#0473b1:1323000000000000
#047371:0000132300000000
#0473b1:0000000013230000
#047371:0000000000001323
#0483b1:13
#048371:0023000000000000
#048371:00130000
#0483b1:0000002300000000
#048371:0000000000001323
#048320:0000000000001323
#049320:00140000
#049360:0000002400000000
#0503b0:0013
#050370:0000000000230000
#050320:00000013
#050360:00000000000000000000000000333333
#051360:23
#053340:00000000000000000014000000000000
#053320:00000000000000000000002400000000
#054380:0000162600000000
#055350:0000001323000000
#0563b0:1323
#056390:0033003300000000
#056370:00330000
#056321:0013
#056341:0000000000330033
#056361:00000033
#057321:23
#057390:14545454545454545454240000000000
#0573a0:0054005400540054005400540054005400540054000000000000000000000000
#057350:00000000000000000000000000000013
#058320:0023000000000000
#058350:00000000000000130000000000000000
#058320:00000000000000000023000000000000
#059320:13230000
#059340:00330033000000000000000000000000
#059360:0033000000000000
#059371:00132300
#059391:00000000003300330000000000000000
#0593b1:0000003300000000
#059320:00001323
#059340:00000000000000000033003300000000
#059360:0000000000330000
#059371:00000013
#059391:00000000000000000000000000330033
#0593b1:0000000000000033
#060371:23
#0603b1:00000000000000130000000000000000
#060371:0000000000230000
#061321:14545454545454542400000000000000
#061331:0054005400540054005400540054005400000000000000000000000000000000
#0613b0:0013
#061370:00000000000000000033333323000000
#061321:00000013
#061361:00000000000000000000000000333333
#062361:23
#065321:00001323
#065361:0000000000530000
#065370:00000013
#0653b0:0000000000000053
#066370:23
#066320:00130000
#066360:0000002300000000
#0663b0:00000000000000001300000000330033
#066370:0000000000333300
#067370:00230000
#066321:00000000000000000000000013230000
#067321:00000000133333330000000000000000
#067361:0023
#0683b1:00130000
#068381:00000000003323000000000000000000
#0693b1:00001323
#069371:0000000000530000
#069360:00000013
#069320:0000000000000053
#070360:23
#0703b1:13230000
#070391:00330033000000000000000000000000
#070371:0033000000000000
#070320:00132300
#070340:00000000003300330000000000000000
#070360:0000003300000000
#0703b1:00000000000000001300000033330000
#070381:00000000000000000000000000000023
#070320:00000000000000000000130033330000
#070350:00000000000000000000000000000023
#0723b0:00000013
#072370:00000000000000000000000000003333
#0733b0:23
#073320:00001424
#073360:0000000000540000
#0733a1:00000014
#073361:0000000000000054
#0743a1:24
#074381:00000000000000001300005323000000
#0743b1:00000000000000000053530000000000
#074350:00000000000000000000000013000053
#074320:00000000000000000000000000535300
#075350:23
#075381:13000053230000000000000000000000
#0753b1:00535300000000000000000000000000
#075350:00000000130000532300000000000000
#075320:00000000005353000000000000000000
#076320:00001323
#076340:00000000000000000033003300000000
#076360:0000000000330000
#0763b1:00000013
#076391:00000000000000000000000000330033
#076371:0000000000000033
#0773b1:23
#0773a1:00001424
#077361:0000000000540000
#077320:00000014
#077360:0000000000000054
#078320:24
#0783b0:00000000000000001300005323000000
#078380:00000000000000000053530000000000
#078321:00000000000000000000000013000053
#078351:00000000000000000000000000535300
#079321:23
#0793b0:13000053230000000000000000000000
#079380:00535300000000000000000000000000
#079321:00000000130000532300000000000000
#079351:00000000005353000000000000000000
#0803b1:00001323
#080391:00000000000000000033003300000000
#080371:0000000000330000
#080320:00000013
#080360:0000000000000023
#080322:00000013
#080342:00000000000000000000000000330033
#080362:0000000000000033
#081322:23
#085322:0000000013230000
#086322:0014
#086362:0000000000240000
#0873b2:0000000013230000
#0883a2:0014
#088362:0000000000240000
#0893b2:0013
#089382:0000000000230000
#089320:0013
#089350:0000000000230000
#0903a0:00000000000000140054000000000000
#090360:00000024
