This file was generated by Ched 2.7.0.0.
#TITLE ""
#ARTIST ""
#DESIGNER ""
#DIFFICULTY 0
#PLAYLEVEL
#SONGID ""
#WAVE ""
#WAVEOFFSET 0
#JACKET ""
#REQUEST "ticks_per_beat 480"
#00002: 4
#BPM01: 155
#00008: 01
#TIL00: ""
#HISPEED 00
#MEASUREHS 00
#00018:00000000130000130000130000130000
#00015:00000000001300000000000000000000
#00014:0013
#00013:00000000000000000000001300000000
#00012:0000000000000013
#00118:00000000001300000000000000000000
#00115:00130000
#00112:00000000000000003333333300000000
#00812:1313
#00818:0013000000130000
#00815:00130013
#0081b:0000001300000013
#01018:0013000000130000
#01012:13130000
#0101b:0000001300000013
#01015:00001313
#01415:00130013
#01418:0000001300130000
#01412:0013000000000013
#0141b:0013
#03618:00000000000000000013000013000000
#03615:00000000000000001300001300000000
#03612:24
#0361a:00240000
#03610:41
#01512:0000001300000000
#0151b:13
#01518:0013000023230000
#01515:00000000130000000023000000000000
#02119:00140000
#02113:0000001400000000
#02115:0023000000000000
#02118:23
#0211b:00000000000000000033333333333333
#03019:0013000000000000
#03017:00000017000000000000000000000000
#03014:0000000000130000
#03012:00000000000000000000001700000000
#04412:13
#04416:0000001300000000
#00912:13
#00915:0013000000000000
#00918:00130000
#0091b:00000000000013333300333300000000
#00917:00000000000000000013000000000000
#03712:13
#03715:00001300001300000000000000000000
#03718:00000000130000130000000000000000
#00215:00000000130000130000130000130000
#00218:00000000001300000000000000000000
#00219:0013
#0021a:00000000000000000000001300000000
#0021b:0000000000000013
#00315:00000000001300000000000000000000
#00318:00130000
#0031b:00000000000000003333333300000000
#0041b:00130000
#00415:00000000001300001300001300001300
#0041a:00000000000000130000000000000000
#00419:0000000000130000
#00418:00000000000000000000000000130000
#00518:00000000001300000000000000000000
#00515:00000000130000003333333300000000
#00612:00130000
#00618:00000000001300001300001300001300
#00613:00000000000000130000000000000000
#00614:0000000000130000
#00615:00000000000000000000000000130000
#00715:00000000001300000000000000000000
#00718:00000000130000003333333300000000
#01218:0013000000130000
#01212:00130013
#0121b:0000001300000013
#01215:0013
#01210:41
#0131b:0013
#01315:0000000000130000
#01612:13
#01616:0013
#0171b:13
#01717:0013
#01815:13
#01812:0013
#01918:13
#0191b:0013
#02015:0013000000130000
#0201b:00130013
#02012:0000001300000013
#02018:0013
#02215:0013000000130000
#0221b:00130000
#02212:0000001300000013
#02218:00001313
#02618:00130013
#02615:0000001300130000
#0261b:0013000000000013
#02612:0013
#02415:0013000000130000
#0241b:00130013
#02412:0000001300000013
#02418:0013
#02410:41
#02512:0013
#02518:0000000000130000
#02712:1414
#02713:0014001400140000
#02714:00140000
#02812:00000013
#02815:0000000000000013
#02918:1300000000130000
#02915:0013000013001300
#0291b:00130000
#02912:0000001300000013
#0311a:14
#03118:0014000000000014
#03116:00140014
#03114:0000001400140000
#03112:0014
#03212:0000000000140000
#0321a:00000014
#03214:0000000000000014
#03318:1414
#03312:0014000000000014
#0331a:00140014
#03314:0000001400140000
#0341a:1414
#03412:1414
#0391b:13333333333333330000000000000000
#03912:00000013
#04118:0013000000000000
#04115:00130000
#0411b:13
#04112:00000000003300000000000000000000
#0401b:0013
#04015:0000000000130000
#04018:00000013
#04012:0000240000000013
#0401a:24
#04312:13333333333333330000000000000000
#0431b:0000000000130000
#04315:00000013
#04318:0000000000000013
#0461b:13
#04615:0013000000130000
#04618:00131300
#04612:0000001300000000
#04812:13
#04818:0013000000130000
#04815:00131300
#0481b:0000001300000000
#0491b:13000013
#04915:0013000000130013
#04918:00131300
#04912:0000001300000000
#05018:13130000
#05012:0013000000000000
#05015:0000001300130000
#0501b:00000000000000001300000000333333
#05115:0013000000130013
#05118:00131300
#05112:0000001300000000
#0511b:00000013
#05215:00000000000013000033333300000000
#05218:00333333000000000000000000001300
#0531b:13
#05318:0013001300000000
#05315:00000000130000001333000000000000
#0541b:13
#05416:0013000000000000
#05419:00130000
#05414:0000001300000014
#05417:0013
#05412:0000000000130000
#0541a:00000014
#0551a:1414
#05516:0014001400140014
#05512:00140014
#0571b:00000013
#05718:0000000000000013
#0571f:11
#05815:1300000000130000
#05818:0013000013001300
#05812:00130000
#0581b:0000001300000013
#06012:14
#06014:0014000000000014
#06016:00140014
#06018:0000001400140000
#0601a:0014
#0611a:0000000000140000
#06112:00000014
#06118:0000000000000014
#06214:1414
#0621a:0014000000000014
#06212:00140014
#06218:0000001400140000
#06312:1414
#0631a:1414
#05913:1414000000000000
#05912:00140000000000000000000000000000
#05914:00000014000000000000000000000000
#05919:0000000014140000
#05918:00000000000000000014000000000000
#0591a:00000000000000000000001400000000
#0561a:1414
#05619:0014001400140000
#05618:00140000
#05610:41
#06615:00130000130000000000000013000013
#06618:13000013000000000000130000130000
#0661b:0013
#06610:0041
#06812:00000000000000001333333333333333
#0691b:00130000
#06912:0024
#0691a:00000024
#07015:0000130000130000
#07018:0013000000001300
#07012:1313
#0701b:00000000000013000000000000330000
#0721b:00000000000000001333333333333333
#07312:0013000000002400
#07318:00130000
#07315:0000001300000000
#0731a:0024
#0741b:13330033000033001300330000330000
#07418:00130013
#07512:0013
#07518:0000000000130000
#07515:00000013
#0751b:0000000000000013
#07615:13001313
#07618:0013001300000013
#07612:00130000
#0761b:0000000000130000
#07712:1324
#07715:0013000000000000
#07718:00130000
#0771b:0000001300000000
#0771a:00000024
#07812:13333333003333331300330000330000
#07815:00130013
#0791b:0013
#07915:0000000000130000
#07918:00000013
#07912:0000000000000013
#08018:13001313
#08015:0013001300000013
#0801b:00130000
#08012:0000000000130000
#0811b:13
#08118:0013000000000000
#08115:00130000
#08112:0000001300000000
#0811a:0014
#08216:0000001400000000
#08318:00000000000000000000000013000013
#08315:00000000000000000000000000130000
#08414:13
#08418:00001300001300000000000000130000
#08413:00000013000000000000000000000000
#08412:0000001300000000
#08415:00000013
#08512:33333333000000000000000013000000
#08518:00000000000000000000000000130000
#08513:00000000000000000000000000000013
#08618:13000013000013000000000013000000
#08614:0013000000000000
#08615:00000000001300000000000000130000
#0871b:00000013
#08715:00000000000000000000000000130000
#0871a:00000000000000000000000000000013
#08718:33333333000000000000000000000000
#08815:13000013000013000000000013000000
#08819:0013000000000000
#08818:00000000001300000000000000130000
#08918:00000000000000001300000000000014
#08915:33333333000000000000130000000000
#0891a:00000014
#08914:00000000000000000000000000140000
#09012:14
#0901a:0014000000000000
#09014:00000014000014000000000000000000
#09018:00000000001400000000000000000000
#0651a:0024
#06512:00000024
#0651f:0021
#03518:00333333003333330033333300000000
#03512:00333333003333330033333300000000
#06415:00333333003333330033333300000000
#0641b:00333333003333330033333300000000
#04510:41
#02159:00140000
#02153:0000001400000000
#03057:00000027000000000000000000000000
#03059:0053000000000000
#03054:0000000000630000
#03052:00000000000000000000002700000000
#03652:14
#0365a:00140000
#03658:00000053
#04452:63
#04456:0000002300000000
#0095b:0000005300000000
#00957:00000000000000000023000000000000
#01652:53
#01656:0023
#01757:0023
#0175b:53
#01855:53
#01852:0023
#01958:63
#0195b:0023
#02753:0054005400540000
#02752:2424
#02754:00240000
#0345a:1414
#03452:1414
#03758:00000000000000530000000000000000
#0395b:53
#03957:0013
#03952:00000013
#0405a:14
#04052:00140000
#04155:00530000
#04152:00000000000000130000000000000000
#04352:63
#05352:00000000000000000000001300000000
#05355:0053
#0545a:00000014
#05454:0000000000000014
#06352:1414
#0635a:1414
#0655a:0014
#06552:00000014
#05953:5454000000000000
#05952:00240000000000000000000000000000
#05954:00000024000000000000000000000000
#05958:00000000000000000024000000000000
#0595a:00000000000000000000002400000000
#05959:0000000054540000
#0565a:2424
#05659:0064006400640000
#05658:00240000
#06655:00000000630000000000000000000063
#06852:0063
#0695b:00130000
#06952:0014
#0695a:00000014
#06956:13
#07058:00000063
#0705b:00000000000000000000000000000013
#0725b:0053
#0735a:0014
#07352:00000014
#0745b:5353
#07458:00630053
#07852:6363
#07855:00530063
#07752:0014
#0775a:00000014
#0815a:0054
#08256:0000002400000000
#000320:1323000000000000
#0013b0:1323000000000000
#001320:00000000000000133333333300000000
#001350:00000000000000000000000033332300
#0023b0:1323000000000000
#003320:1323000000000000
#0033b0:00000000000000133333333300000000
#003380:00000000000000000000000033332300
#004320:1323000000000000
#0053b0:1323000000000000
#005350:00000000000000133333333300000000
#005320:00000000000000000000000033332300
#0063b0:1323000000000000
#007320:1323000000000000
#007380:00000000000000133333333300000000
#0073b0:00000000000000000000000033332300
#0093b0:00000000000013333300333333002300
#009370:00000000000000000033000000000000
#011320:1300000033333300
#011340:0033003300000033
#011360:00330000
#011350:00000000003300000000000000000033
#011330:00000000000000330000000000330000
#012360:23
#013320:13
#013330:00330000000000000000000000000000
#013340:0033000000000000
#013350:00000033000000000000000000000000
#013360:0000332300000000
#0133b0:00000013
#0133a0:00000000000000000000000000330000
#013390:0000000000000033
#013380:00000000000000000000000000000033
#014370:23
#015320:00000000000000000000000013330033
#016320:33
#016360:0053
#017320:23
#0173b1:13
#017371:0053
#0183b1:23
#018350:13
#018320:0053
#019350:23
#019381:13
#0193b1:0053
#020381:23
#0213b1:00000000000000001333333333333333
#022371:23
#0233b1:1300000033333300
#023391:0033003300000033
#023371:00330000
#023381:00000000003300000000000000000033
#0233a1:00000000000000330000000000330000
#024371:23
#0253b1:13
#0253a1:00330000000000000000000000000000
#025391:0033000000000000
#025381:00000033000000000000000000000000
#025371:0000332300000000
#025321:00000013
#025331:00000000000000000000000000330000
#025341:0000000000000033
#025351:00000000000000000000000000000033
#026361:23
#027321:1434
#027331:0054005400540000
#027341:00340024
#028391:15555555555555555555250000000000
#028381:0055005500550055005500550055005500550055000000000000000000000000
#030391:130000000000000000000000000000000000000000000000000000000000000000000000000000000000000000000000000000000000000000000000000000000000000000000000000000000000000000000000000000000000000000000000000000000000000000000000000000000000000000000000005300000000000000000000000000000000000000000000000000000000000000000000000000000000000000000000000000000000000000000000000000000000000000000000000000000000000000000000000000000000000000000000000000000000000000000000000000000000000000000000530000000000000000000000000000000000000000000000000000000000000000000000000000000000000000000000000000000000000000000000000000000000000000000000000000000000000000000000000000000000000000000000000000000000000000000000000000000000000000000000000000000000000000000000000000000000000000000000000000000000000000000000000000000000000000000000000000000000000000000000000000000000000000000000000000000000000000000000000000000000000000000000000000000000000000000000000000000000000000000000230000000000000000000000000000000000000000000000000000000000000000000000000000000000000000000000000000000000000000000000000000000000000000000000000000000000000000000000000000000000000000000000000000000000000000000000000000000000000000000000000000000000000000000000000000000000000000000000000000000000000000000000000000000000000000000000000000000000000000000000000000000000000000000000000000000000000000000000000000000000000000000000000000000000000000000000000000000000000000000000000000000000000000000000000000000000000000000000000000000000000000000000000000000000000000000000000000000000000000000000000000000000000000000000000000000000000000000000000000000000000000000000000000000000000000000000000000000000000000000000000000000000000000000000000000000000000000000000000000000000000000000000000000000000000000000000000000000000000000000000000000000000000000000000000000000000000000000000000000000000000000000000000000000000000000000000000000000000000000000000000000000000000000000000000000000000000000000000000000000000000000000000000000000000000000000000000000000000000000000000000000000000000000000000000000000000000000000000000000000000000000000000000000000000000000000000000000000000000000000000000000000000000000000000000000000000000000000000000000000000000000000000000000000000000000000000000000000000000000000000000000000000000000000000000000000000000000000000000000000000000000000000000000000000000000000000000000000000000000000000000000000000000000000000000000000000000000000000000000000000000000000000000000000000000000000000000000000000000000000000000000000000000000000000000000000000000000000000000000000000000000000000000000000000000000000000000000000000000000000000000000000000000000000000000000000000000000000000000000000000000000000000000000000000000000000000000000000000000000000000000000000000000000000000000000000000000000000000000000000000000000000000000000000000000000000000000000000000000000000000000000000000000000000000000000000000000000000000000000000000000000000000000000000000000000000000000000000000000000000000000000000000000000000000000000000000000000000000000000000000000000000000000000000000000000000000000000000000000000000000000000000000000000000000000000000000000000000000000000000000000000000000000000000000000000000000000000000000000000000000000000000000000000000000000000000000000000000000000000000000000000000000000000000000000000000000000000000000000000000000000000000000000000000000000000000000000000000000000000000000000000000000000000000000000000000000000000000000000000000000000000000000000000000000000000000000000000000000000000000000000000000000000000000000000000000000000000000000000000000000000000000000000000000000000000000000000000000000000000000000000000000000000000000000000000000000000000000000000000000000000000000000000000000000000000000000000000000000000000000000000000000000000000000000000000000000000000000000000000000000
#030371:00570057000000000000000000000000
#030341:000000000000000000000000000000000000000000000000000000000000000000000000000000000000000000000000000000000000000000000000000000000000000000000000000000000000000000000000000000000000000000000000000000000000000000000000000000000000000000000000000000000000000000000000000000000000000000000000000000000000000000000000000000000000000000000000000000000000000000000000000000000000000000000000000000000000000000000000000000000000000000000000000000000000000000000000000000000000000000000000000000000000000000000000000000000000000000000000000000000000000000000000000000000000000000000000000000000000000000000000000000000000000000000000000000000000000000000000000000000000000000000000000000000000000000000000000000000000000000000000000000000000000000000000000000000000000000000000000000000000000000000000000000000000000000000000000000000000000000000000000000000000000000000000000000000000000000000000000000000000000000000000000000000000000000000000000000000000000000000000000000000000000000000000000000000000000000000000000000000000000000000000000000000000000000000000000000000000000000000000000000000000000000000000000000000000000000000000000000000000000000000000000000000000000000000000000000000000000000000000000000000000000000000000000000000000000000000000000000000000000000000000000000000000000000000000000000000000000000000000000000000000000000000000000000000000000000000000000000000000000000000000000000000000000000000000000000000000000000000000000000000000000000000000000000000000000000000000000000000000000000000000000000000000000000000000000000000000000000000000000000000000000000000000000000000000000000000000000000000000000000000000000000000000000000000000000000000000000000000000000000000000000000000000000000000000000000000000000000000000000000000000000000000000000000000000000000000000000000000000000000000000000000000000000000000000000000000000000000000000000000000000000000000000000000000000000000000000000000000000130000000000000000000000000000000000000000000000000000000000000000000000000000000000000000000000000000000000000000000000000000000000000000000000000000000000000000000000000000000000000000000000000000000000000000000000000000000000000000000053000000000000000000000000000000000000000000000000000000000000000000000000000000000000000000005300000000000000000000000000000000000000000000000000000000000000000000000000000000000000000000000000000000000000000000000000000000000000000000000000530000000000000000000000000000000000000000000000000000000000000000000000000000000000000000000000000000000000000000000000000000000000000000000000000000000000000000000000000000000000000000000000000000000000000000000000000000000000000000000000000000000000000000000000000000000000000000000000000000000000000000000000000000000000000000000000000000000000000000000000000000000000000000000000000000000000000000000000000000000000000000000000000000000000000000000000000000000000000000000000230000000000000000000000000000000000000000000000000000000000000000000000000000000000000000000000000000000000000000000000000000000000000000000000000000000000000000000000000000000000000000000000000000000000000000000000000000000000000000000000000000000000000000000000000000000000000000000000000000000000000000000000000000000000000000000000000000000000000000000000000000000000000000000000000000000000000000000000000000000000000000000000000000000000000000000000000000000000000000000000000000000000000000000000000000000000000000000000000000000000000000000000000000000000000000000000000000000000000000000000000000000000000000000000000000000000000000000000000000000000000000000000000000000000000000000000000000000000000000000000000000000000000000000000000000000000000000000000000000000000000000000000000000000000000000000000000000000000000000000000000000000000000000000000000000000000000000000000000000000000000000000000000000000000000000000000000000000000000000000000
#030321:0000000000000000000000000000000000000000000000000000000000000000000000000000000000000000000000000000000000000000000000000000000000000000000000005700005700000000000000000000000057000000000000000000000000000000000000000000000000000000000000000000000000000000
#032391:15555555555555552500000000000000
#032381:0055005500550055005500550055005500000000000000000000000000000000
#035381:13333333003333333333333300000000
#0353b1:00330023
#035320:13333333003333333333333300000000
#035350:00330023
#036380:00000013
#0363b0:0000000000000023
#037380:00000000000000130000000000000000
#0373b0:00000023
#038320:1333
#038330:00330000000000330033000000000033
#038340:0033003300330033
#038350:00000033003300000000003300330000
#038360:00330033
#039320:23
#0393b1:13333333333333330000000000000000
#039371:0023
#041351:00130000
#041321:00000000003300230000000000000000
#0423b1:1333
#0423a1:00330000000000330033000000000033
#042391:0033003300330033
#042381:00000033003300000000003300330000
#042371:00330033
#0433b1:23
#043320:13333333333333330000000000000000
#043360:0023
#044320:13000023
#044360:0000005300000000
#0453b0:1323000000000000
#045350:0000132300000000
#045380:0000000013230000
#045320:0000000000001323
#0463b0:0000000000001323
#047320:1323000000000000
#047380:0000132300000000
#047350:0000000013230000
#0473b0:0000000000001323
#048320:0000000000001323
#050380:00000013
#0503b0:00000000000000000000000000333333
#0513b0:23
#0523b0:13
#052380:00333333230000000000000000000000
#052320:0013
#052350:00000000000000000033333323000000
#053350:00000000000000001333000000000000
#053320:00000000000000000000002300000000
#0563a0:1434
#056390:0054005400540000
#056380:00340024
#057320:15555555555555555555250000000000
#057330:0055005500550055005500550055005500550055000000000000000000000000
#059330:1454240000000000
#059320:00540000000000000000000000000000
#059340:00000054000000000000000000000000
#059390:0000000014542400
#059380:00000000000000000054000000000000
#0593a0:00000000000000000000005400000000
#061320:15555555555555552500000000000000
#061330:0055005500550055005500550055005500000000000000000000000000000000
#064350:13333333003333333333333300000000
#064320:00330023
#0643b1:13333333003333333333333300000000
#064381:00330023
#066351:00130000
#066321:0000002300000000
#066351:00000000000000000000000000000013
#067321:00230000
#0673b1:0013
#0673a1:00000000000000000033000000000033
#067391:0000000000330033
#067381:00000000000000000000003300330000
#067371:00000033
#0683b1:3323
#0683a1:00330000000000330000000000000000
#068391:0033003300000000
#068381:00000033003300000000000000000000
#068371:00330000
#068320:00000000000000001333333333333333
#069360:23
#070380:00000013
#0703b0:00000000000000000000000000330023
#071320:0013
#071330:00000000000000000033000000000033
#071340:0000000000330033
#071350:00000000000000000000003300330000
#071360:00000033
#072320:3323
#072330:00330000000000330000000000000000
#072340:0033003300000000
#072350:00000033003300000000000000000000
#072360:00330000
#0723b1:00000000000000001333333333333333
#073371:23
#0743b1:13330033000033003300330000330023
#074381:00330033
#078321:13333333003333333300330000330023
#078351:00330033
#0813a1:0014
#082361:0000005400000000
#0833a1:00240000
#083321:0000000013230000
#0843b1:0000000013230000
#084321:00000000000000000000000000000013
#085321:33333333000000000000000000000000
#085351:00000000333323000000000000000000
#0853b1:0000000013230000
#086321:0000000013230000
#086381:00000000000000000000000000000013
#087381:33333333000000000000000000000000
#0873b1:00000000333323000000000000000000
#087321:0000000013230000
#0883b1:0000000013230000
#088351:00000000000000000000000000000013
#089351:33333333000000000000000000000000
#089321:00000000333323000000000000000000
#0903a1:00000000000000140000000000000000
#090361:00000024
