This file was generated by Ched 2.7.0.0.
#TITLE ""
#ARTIST ""
#DESIGNER ""
#DIFFICULTY 0
#PLAYLEVEL
#SONGID ""
#WAVE ""
#WAVEOFFSET 0
#JACKET ""
#REQUEST "ticks_per_beat 480"
#00002: 4
#BPM01: 155
#00008: 01
#TIL00: ""
#HISPEED 00
#MEASUREHS 00
#0001b:1300000013000013
#00016:00001400000000130000000000130000
#00017:0000130000130000
#00012:00000000001300000000001300000000
#00118:00001300000000000014000000000000
#00112:0000130000131313
#00117:00000000001300000000000000000000
#0011a:00000000000000140000000000000000
#00115:0013
#00116:00000000000000000000000000140000
#00412:1313000018000018
#0041b:0000130000130000
#00416:00000000001400140000001400140000
#0051b:13000000131300000000130000000000
#00517:0013000000000000
#00518:00000000000000130013000000130000
#00515:00000000000000001300001600001300
#00516:14140000
#00512:00000013
#00812:1600000000130000
#00818:00130000000000130000130016000000
#00815:00000016000016000016000000130016
#0081b:00000000000000000000000000130000
#00915:00001613000013000016000013001300
#00918:00000000000000130000000013000013
#00912:00000000000000001300001300000000
#0091b:0000000000130000
#01012:13000000000000000000000000130013
#01014:0013000000000000
#01016:00130000
#01018:00000000000013000013000013000000
#01015:00000000000000130000001300001300
#0101b:0000130013130000
#01019:0013000000000000
#01118:13000000000013000000130000130000
#0111b:00001300000000130000000013000000
#01112:00000000130000000000130000000013
#01115:00001300001300001300000000001300
#0121b:1300000000001313
#01212:001313131c000000
#01217:00000013001300130013000000000000
#01216:00000000000000000000001300130013
#01210:41
#01318:0000001313001316
#01315:00000000000000130000000000130016
#01312:0013000000130000
#01316:00130000
#0131b:00330033000000000000000000000000
#0141b:1300000000131300
#01417:0013000000000000
#01412:0013130013000000
#01415:00000000001300000000000000001313
#01418:00000000000013130000000000130000
#01416:0000000000130000
#0151b:00000013
#01516:00000000000000000000000013130000
#01517:00000000000000002222220000000013
#01518:0000001300000000
#01515:00000000000000130000000000000000
#01612:13000000000000001300000000001c1c
#01618:00130000130000130013000013000000
#0161b:00000013001300000000001300130000
#01615:0013001300130000
#0191a:0000140000000000000000000000003434343434000000000000000000000000
#01912:13001400150016000000001600000013
#01919:00000015000000000000000000000000
#01918:00000000001600000000000000130000
#0191b:00000013
#01915:0000000000000013
#03112:13000000000000000000130000000013
#0311b:00130013001300130000000013000000
#03114:0013000000000000
#03116:00130000
#03118:0000001300000013
#03115:00000000000000000000000000130000
#03517:00130013000000000000000000000000
#03512:1313000013001400
#03516:0000131300000000
#0351b:00000000001300130000001300000000
#03515:00000000000000000013000000000000
#03518:0000000000130000
#0361b:13130013
#03617:2413001300000000
#03616:00000000140000000014001400000000
#03619:0000000000000013
#03612:00001400000014000000000000000014
#03614:00000000000000000000000000140000
#03610:41
#03715:00000000000000000000000000130013
#03718:0000000000000013
#03717:13131300
#0371b:0013001300130000
#03716:0013001300130000
#03712:00131300
#0381b:1313
#03818:00130013130013000013001313001300
#03815:00001300001300131300130000130013
#03812:00130013
#03918:16000016
#03916:00160000
#03919:00000000001300000000120000001200
#03914:0000001600000000
#03917:00000000000000130000000000000000
#0391b:00000013000000000000000000000000
#03912:00160000000000001600000000000000
#03915:0000000000120012
#04118:00000000000000000000000000160000
#04112:00000000130000000000000000130016
#0411b:00000000130000000000000000000013
#04116:14
#0421b:13131313
#04215:00130013000000000013000000130000
#04217:0013001300000000
#04212:00000000001300130000001300000013
#04218:0000000000130013
#0431b:1313130000000000
#04316:00130013000000000000000000000000
#04318:0000000000130013
#04315:00000013
#04312:00000000000013330000000013000000
#04317:00000000000013330000000000000000
#04314:0000000000130013
#04912:00130000000000000000001300000013
#0491b:00000013000013001300000013000000
#04916:00000014140000140000000000000000
#04915:00000000000000000016000000160000
#04918:13130000000000000000130000001300
#0501b:13001300000000000000001300000000
#05018:00130000000000000000000000000000
#05015:00000016160013000000000000000000
#05012:00000000001300130000000000001300
#05017:00000000000000001300000000000013
#05016:0000000000130000
#05014:00000013
#05019:00000000000000000000000000130000
#05212:13180000000000001813000000000000
#05216:00000018001300000000000018000000
#0521b:00000000130000000000001300130000
#05219:0000001300000000
#05214:00000000000000130000000000000000
#05218:0000000000000013
#05215:00000000000000000000000000000013
#05312:13131c001c130000
#05315:00160000000016000000001600000000
#05318:00000013000000000013000000000000
#0531b:00000000001300130000000000000000
#05412:1c00000000000000001c000000001c00
#05418:00160000000013000000000013000000
#05415:00000016000000160000001600000000
#0541b:0000000013130000
#0551b:13000000130000000000001300000000
#05515:00130000001900001300000019000000
#05512:00001913000000000019130000001600
#05518:00000000000000000000000000130016
#05615:1313131313131313
#05613:00130000001300000013000000130000
#05617:00000013001300130013001300000013
#05619:0000131313130000
#0561b:00000000000000130000001300000000
#05610:41
#05718:13001300130013001300130000000013
#05715:00000000000000001300130000001613
#05719:00130000001300000013000000000000
#05717:00000013000000130000000000000000
#05712:0013000000001300
#0571b:00000013
#05713:00130000
#05714:0000001300000000
#0571f:11
#0581b:0013000000000000
#05815:00000000160000130019000000190000
#05812:00000000000000000000190019000016
#05918:1612160016001600
#0591a:0000001200000012
#0591c:0000000000120000
#05912:00000016000000160012001600000016
#05914:00000000001200000000000000120000
#05916:00120000000000000000000000000000
#06018:16001200001300000000000000130000
#06016:00120000000000000000000000000000
#06012:00000016000000130000000013000000
#0601b:00000000130000000000130000000013
#06015:0000001300000013
#06315:001913001300000000130000
#06318:000000130000000013001300
#06312:23000013001c23190000131c
#0631b:230000001300230000130000
#06418:00130013000013000013001300000000
#06415:00001300001300130000130000000000
#06412:2313131c
#0641b:23131300
#0731b:1313000000000000
#07318:0013130000000000
#07315:0000131300000000
#07312:1300001324002400
#07314:0000000000130013
#07912:14000000000000131c00000000001600
#07918:0000000000160000
#07915:00000016
#0791b:00000000001300000000000000000000
#08015:16000016160000160013001600000000
#08018:00160000001600000000130000000000
#0801b:0000000000001313
#08016:00000000000000000000000000000013
#08012:0016001613000000
#08112:00000000000000000000130000000014
#0811a:00000014
#08116:00000000000000000000000000130000
#0811b:0033333300000000003333330000000013000000000000000000000000000000
#08117:0000000000130000
#08115:0000000000333333000000000033333300000000000000000000000000000000
#08217:13000000000013000000000000130000
#0821a:0014000000000000
#08216:00000013000000000000130000000000
#08212:00000000001400001300000013130000
#0821b:0000000013130000
#08218:00000000000000000000000000000016
#08315:13160000000013000000000000000000
#08312:00001316001613001300000014000000
#0831b:0000000013130000
#08317:00000000000000000000000000130000
#0831a:00000000000000000000000000000014
#08316:0000000000130000
#08915:00130000000000000000130000000000
#08912:0000000000000000130000001c000018
#0891a:00000000000000000000000000140000
#08918:16001613001316000000000000000000
#0891b:00000000001300001300000000000000
#08916:0000000000000014
#09012:14000000001814000000000000000000
#09016:00141800140000000000000000000000
#0901a:00000014000000000014000000000000
#00212:1300000013000013
#00216:0014130000130000
#0021b:00000000001300000000001300000000
#00217:00000000000000130000000000130000
#00315:0013000000000000
#0031b:0000130000131313
#00316:00000000001300000000000000140000
#00312:00000000000000140000000000000000
#00318:0013
#00314:00000000000000000014000000000000
#0061b:1313000000000000
#00612:0000130000130000
#00616:00000000001400141800001400141800
#00712:13000000131300000000130000000000
#00716:1413140000000000
#00715:00000000000000130013001600130000
#00718:0000000013000013
#0071b:00000013
#01812:13
#01815:00160016001600160016001600160016
#01814:0013000000000013
#01816:00130013
#01818:0000001300130000
#0181a:0013
#01712:13001300000000001300130000001c1c
#01715:00130000130013000013000013000000
#01718:00000013000000130000001300000000
#0171b:00000000001300000000000000130000
#02715:1300131900000013
#02718:1613160013001300
#02712:0000001300191613
#0271b:0013000000130000
#02018:16000000000000000000001300130000
#02015:00130016000016000000160000001600
#02012:00000016
#0201b:00000000000000000013000000000013
#02112:2c26130015001500
#02116:00000000000013000014000000140000
#02119:0000000000130013
#0211c:00000000000000000000001200000012
#02117:00130000
#0211b:0000001300000000
#02118:0026000000000000
#02212:1313130013130000
#02217:00130013000000000000000000000000
#0221b:00000000000000130000000000130013
#02215:00000000000000000013000013000000
#02218:00000000000000000000001300001300
#02315:13000000000013000000130000130000
#02312:00001300000000130000000013000000
#0231b:00000000130000000000130000000013
#02318:00001300001300001300000000001300
#02412:14000000000000001c1c000013001300
#0241b:0013131300000000
#02416:00000014001400140000140000140014
#02410:41
#02515:00000000000013001300000013000016
#02518:00000000000000130000000000130000
#0251b:0013000000130000
#02512:00330033000000000000000000001600
#02517:00130000
#02612:1300000000131300
#02616:0013000000000000
#0261b:0013130013000000
#02618:00000000001300130000000000001300
#02615:00000000000013000000000000130013
#02617:0000000000130000
#02815:1313131313000000
#02814:00130000001300000013000000000000
#02816:00000013000000130000000000000013
#02818:0000000013130000
#02812:00000013
#0281b:00001300000000000000000013001313
#0281a:00130000
#02819:0000001300000000
#02917:00001300000000130000000000000000
#02914:00000013
#02912:0000131300000013
#02916:00000000000000000000130000000013
#0291a:00000000000000000000001300000000
#02918:00000000000000000000000000130000
#0291b:00130000
#03412:141814000000001814000000
#0341a:000000140014000000000014
#03416:000000001800140000141800
#03014:0012000000120000
#03012:00000016000012000000000000000000
#0301c:0012000000000000
#03013:0012
#03016:0000000000001212
#0301a:0000001200120000
#03018:00000000000000160000000000120012
#03218:13001300130013000000000000000013
#03219:00130000001300000000000000130000
#03217:00000013000000130000000000000000
#03212:0000001313000000
#0321b:00000000000000000013000000000000
#03213:0000130000130000
#0321a:00000000000000000000001300000000
#03214:0013000000001300
#03215:1300000000000013
#03315:1300000013161613
#03318:00130000000000001300000000001300
#03314:0013000000000000
#03319:00000013000000000000000000000000
#03313:00130000
#0331a:00000000001300000000000000000000
#03312:0000001300130000
#0331b:00000000000000130000000013000000
#04012:1300230013130000
#04016:0013141300001313
#0401a:0014001400000000
#04017:00000000000000000013001300000000
#0401b:00000000000000000000000000130013
#04015:24
#0441b:1300000000000000000000000000000000333333000000001300000000000000
#04415:0000000000000000130000000000000000000000003333330000000000000000
#04416:130000000000000000000000000000000000001300000000
#04412:000000000000130000000000000000000000000000000013
#04419:000000000013
#04414:0000000000000013
#04417:000000000000000000000013
#04512:0013000013130000
#04515:0000131300001313
#04510:41
#0461b:0013000013130000
#04618:0000131300001313
#04712:0013000000130000
#0471b:0000001300000013
#04812:0013000000130000
#0481b:0000001300000013
#06215:00130000000000001300160016001300
#06212:00000000000000130000000013000000
#06218:1300000013000013
#06219:0013000000000000
#06214:00000013000000000000000000000000
#0621a:00130000
#06213:00000000001300000000000000000000
#0621b:0000001300130000
#06115:13001300130013000000000000000013
#06114:00130000001300000000000000130000
#06116:00000013000000130000000000000000
#0611b:0000001313000000
#06112:00000000000000000013000000000000
#0611a:0000130000130000
#06113:00000000000000000000001300000000
#06119:0013000000001300
#06118:1300000000000013
#06516:00001414
#06512:0000000000140014
#0651b:00000013
#06517:0000000000130013
#0651a:0024
#0651f:0021
#06616:00140014000000001400140014001400
#06612:0000140000130013
#06614:0000001400000000
#06618:00000000001400000000000000000000
#0661a:00000000000000140000000000000000
#0661b:00000013
#06610:0041
#06718:00000000001300000000130000131300
#06715:00000000000013000013001300000013
#06712:00001300000000131c00000013000000
#0671b:13000013
#06716:1414000000000000
#06814:00000000000000000000000016130000
#06816:00000000000000000000000000001613
#06812:1c000000130000000016001300000000
#06815:00130013000000000000000000000000
#06818:0013000000000000
#06817:00000000000000000000001300000000
#06918:1600001300000000
#06915:0013000000000000
#06912:00001c1324001300
#0691b:0013000000000000
#06916:0000000014132413
#0691a:0000000000140014
#07112:00000000001600001300000013000000
#07118:00000000001300160000000000001300
#07117:00000000000000000013001300000000
#07114:0000000000130000
#0711b:00000000000000000000000000130013
#07115:00000000000000130000000000000000
#07016:00130013000000001400000000000000
#0701b:1313000000001300
#07017:0000131300000000
#07012:00000000001300130000000013000000
#07412:00180000000000181300000000000000
#07416:00000018000014000000000000000000
#07418:00140000
#07414:14000000001800000000000000000000
#07515:00000000001300000000160000130000
#07518:00000000000013000013000000001300
#0751b:00000000000000130000001313000013
#07512:00001c13
#07614:00000000000000000000000016130000
#07616:00000000000000000000000000001613
#07612:1c0000000013001300001c1300000000
#07618:00130000000000001300000000000000
#07615:00001600000000000013000000000000
#07617:0000001300000000
#07718:1624
#07716:0014001400000000
#07712:00131c0000000013
#0771b:0000001300000000
#07719:0000000000130000
#07714:00000024
#07816:00180000001418000000140014340034
#07812:00001418140000001400000000000014
#0781a:00000000000000140000140000001400
#07814:14
#08416:13000000000013000000000000130000
#08412:00001400000000001300130000000016
#08417:00000013000000000000130000000000
#0841a:00000000001400000000000000000000
#0841b:00000000000000001300000013130000
#08518:13000016001613000000000000000000
#08515:00160000000000000000000000000000
#0851b:00001300000013000000000000130000
#08516:00000014
#08512:00000000000000000000000000000014
#0851a:0014
#08517:0000000000130000
#08617:13
#0861a:0014000014000000
#08616:00000013001400000000000000000000
#08612:0000001313130000
#08618:00000013
#08615:00000000000000000000000000130000
#0861b:00000000000000000000000000000013
#08712:16001600001316001400000000130000
#08718:00130000000000000000000000000000
#08715:00000013001300000000000000000000
#08716:0000000000131400
#0871a:00000000000000000000000000000014
#08816:13000000001400000000000000000000
#08812:00001400000000001400000000000013
#08817:00000013000000000000000000000000
#0881b:0000001313130000
#08815:00000013
#08818:00000000000000000000000000130000
#07212:13000000130000001316000000000000
#07215:00161600001616000000161300001600
#0721b:00000013000000130000000013000000
#07218:00000000000000000000000000160013
#00556:54
#00756:64
#00958:00000053
#01158:53
#0115b:0053000000000000
#01155:0063
#01152:0000000000630000
#0125b:53
#01257:00000000000000000053000000000000
#01356:00130000
#01358:0053
#01352:0000000000530000
#0145b:53
#01457:0053000000000000
#01452:0063
#01456:0000000000630000
#01556:00000000000000000000000000530000
#02755:6300630000000023
#02758:0023000063006300
#02752:0000002300000000
#0275b:0000000000230000
#02355:63
#02352:0063000000000000
#02358:0053
#0235b:0000000000530000
#02452:64
#02456:0000000000540000
#02555:0063
#0255b:0000000000630000
#02557:00130000
#02652:63
#02656:0063000000000000
#0265b:0053
#02657:0000000000530000
#02157:00130000
#02152:00130000
#0215b:0000001300000000
#02156:0000001300000000
#02252:00530000
#02855:5353535353000000
#02854:00230000002300000023000000000000
#02856:00000023000000230000000000000053
#03452:344834000000004834000000
#03456:000000003800340000443800
#0345a:000000440044000000000044
#03052:00000026000000000000000000000000
#03054:0062000000000000
#0305a:0000005200000000
#03058:00000000000000260000000000000000
#02957:00000000000000630000000000000000
#0315b:00000000000000530000000000000000
#03258:6363636300000000
#03259:00230000002300000000000000000000
#03257:00000023000000230000000000000000
#03552:00000054
#03657:1423002300000000
#0365b:53530000
#03656:00540000
#03652:0000002400000000
#03757:53535300
#03756:0053005300530000
#0375b:0023002300230000
#03752:00232300
#03952:0036
#03958:00000046
#04052:63330000
#04056:0023640000000000
#0405a:0000002400000000
#04055:14
#0415b:00530000
#04152:00530000
#04155:00000000000000430000000000000000
#04158:00000000000000330000000000000000
#0435b:00530000
#04357:0000002300000000
#04352:0000002300000000
#04456:53
#0445b:53
#04455:00230000
#04452:00230000
#04956:00540000
#04954:13
#05057:0053
#05355:00000000000000000000001600000000
#05458:00000013
#05452:000000000000001c
#05655:5353535353535353
#05653:00230000002300000023000000230000
#05657:00000023002300230023002300000023
#05659:0000535353530000
#0565b:00000000000000230000002300000000
#05758:6363636363000000
#05759:00230000002300000023000000000000
#05757:00000023000000230000000000000000
#05755:00000000000000000000000000000053
#05852:0000000000390000
#05855:00000000000000000000000000490000
#06052:00000000000000530000000000000000
#06155:5353535300000000
#06154:00230000002300000000000000000000
#06156:00000023000000230000000000000000
#06452:0000001c
#06556:00005454
#06552:0000000000240024
#0655a:0014
#0655b:00000053
#06557:0000000000000023
#06958:46
#06952:003c1453
#06956:0000000054001423
#0695a:0000000000240000
#06656:0000000064646464
#06652:0000000000230023
#0665b:00000023
#0675b:23
#06756:6464000000000000
#06752:0023000000000000
#0705b:00000063
#07052:00000063
#07055:00000000000000000000000000000043
#07058:00000000000000000000000000000033
#07352:00001414
#07758:4614
#07752:003c0000
#07754:00000014
#07852:0054
#07856:0000000000245400
#0785a:0000000000240024
#07952:54
#08156:00000000000000000000000000130000
#08257:1300001300000000
#08256:00000013000000000000000000000000
#08357:00000000000000000000000000130000
#08352:0000001300000000
#08456:1300001300000000
#08457:00000013000000000000000000000000
#0855b:00000000000013000000000000130000
#08657:13
#08656:00000013000000000000000000000000
#08652:0000001300000000
#0865a:0054
#08752:00000000000016000000000000130000
#08856:13
#08857:00000013000000000000000000000000
#0885b:0000001300000000
#08852:0064
#08958:0000001600000000
#0895b:0053
#0895a:00000000000000000000000000440000
#0905a:00000044000000000024000000000000
#09052:34000034
#06858:00000000000000000016000000000000
#06852:00000000000000000016000000000000
#04757:00130013
#04756:0013
#04752:13
#04856:13
#04859:00130013
#04854:0013
#0465b:13
#0425b:00004343
#04258:0000000000430043
#04255:00000000000000000033000000330000
#04252:00000000000000000000003300000033
#07252:33330000
#07255:00463600004636000000000000000000
#0725b:00000043000000430000000000000000
#08055:36000046360000460000000000000000
#08052:0036003600000000
#08058:00460000004600000000000000000000
#06258:0043
#06255:0000000000463633
#03355:0000000033364600
#03358:0000000000000043
#000320:1323000000000000
#001350:1323000000000000
#001360:00000000000000000000001424000000
#0023b0:1323000000000000
#003380:1323000000000000
#003360:00000000000000000000001424000000
#004360:1424000000000000
#005360:14
#005320:0024000000000000
#006360:1424000000000000
#007360:14
#0073a0:0024000000000000
#0083b0:0000132300000000
#009320:1323000000000000
#009380:0000132300000000
#009380:00000013
#0093b0:0000000000000023
#011380:13230000
#0113b0:0033000000000000
#011350:00001323
#011320:0000000000330000
#0123b0:13
#012370:0023000000000000
#012370:00000000000000000013000000000000
#0123b0:00000000000000000000002300000000
#0133b0:13330033230000000000000000000000
#013370:0033000000000000
#013380:0013
#0133b0:0000000000230000
#013321:0000000000130000
#013351:00000023
#0143b1:13230000
#014371:0033000000000000
#014321:00001323
#014361:0000000000330000
#0153b1:13230000
#015371:0033000000000000
#015391:00000033000000000000000000000000
#015320:0013002300000000
#015340:00000033000000000000000000000000
#015360:00330000
#015360:00000000000000000000000000130000
#015320:00000000000000000000000000000023
#0193a0:0000000000000000000000000000143434343434000000000000000000000000
#019320:0000000000240000
#020320:0000132300000000
#020350:00000000000000130023000000000000
#022320:00130000
#022360:0000002300000000
#023350:13230000
#023320:0033000000000000
#023380:00001323
#0233b0:0000000000330000
#024320:14
#024360:0024000000000000
#024360:0000000000140000
#0243a0:00000024
#025320:13330033230000000000000000000000
#025360:0033000000000000
#025350:0013
#025320:0000000000230000
#0253b1:0000000000130000
#025381:00000023
#026321:13230000
#026361:0033000000000000
#0263b1:00001323
#026371:0000000000330000
#027351:13332300
#027381:0033000000000000
#027321:0000003300000000
#027380:00001333
#0273b0:0000000000330000
#027350:0000000000000033
#028380:23
#028351:1353535353230000
#028341:00530000005300000053000000000000
#028361:00000053000000530000000000000000
#028361:00000000000000000000000000000013
#029321:0023000000000000
#029371:00000000000000130000000000000000
#0293b1:0000000000230000
#030341:120000000000000000000000000000000000000000000000000000000000000000000000000000000000000000000000000000000000000000000000000000000000000000000000000000000000000000000000000000000000000000000000000000000000000000000000000000000000000000000000005200000000000000000000000000000000000000000000000000000000000000000000000000000000000000000000000000000000000000000000000000000000000000000000000000000000000000000000000000000000000000000000000000000000000000000000000000000000000000000000520000000000000000000000000000000000000000000000000000000000000000000000000000000000000000000000000000000000000000000000000000000000000000000000000000000000000000000000000000000000000000000000000000000000000000000000000000000000000000000000000000000000000000000000000000000000000000000000000000000000000000000000000000000000000000000000000000000000000000000000000000000000000000000000000000000000000000000000000000000000000000000000000000000000000000000000000000000000000000000000220000000000000000000000000000000000000000000000000000000000000000000000000000000000000000000000000000000000000000000000000000000000000000000000000000000000000000000000000000000000000000000000000000000000000000000000000000000000000000000000000000000000000000000000000000000000000000000000000000000000000000000000000000000000000000000000000000000000000000000000000000000000000000000000000000000000000000000000000000000000000000000000000000000000000000000000000000000000000000000000000000000000000000000000000000000000000000000000000000000000000000000000000000000000000000000000000000000000000000000000000000000000000000000000000000000000000000000000000000000000000000000000000000000000000000000000000000000000000000000000000000000000000000000000000000000000000000000000000000000000000000000000000000000000000000000000000000000000000000000000000000000000000000000000000000000000000000000000000000000000000000000000000000000000000000000000000000000000000000000000000000000000000000000000000000000000000000000000000000000000000000000000000000000000000000000000000000000000000000000000000000000000000000000000000000000000000000000000000000000000000000000000000000000000000000000000000000000000000000000000000000000000000000000000000000000000000000000000000000000000000000000000000000000000000000000000000000000000000000000000000000000000000000000000000000000000000000000000000000000000000000000000000000000000000000000000000000000000000000000000000000000000000000000000000000000000000000000000000000000000000000000000000000000000000000000000000000000000000000000000000000000000000000000000000000000000000000000000000000000000000000000000000000000000000000000000000000000000000000000000000000000000000000000000000000000000000000000000000000000000000000000000000000000000000000000000000000000000000000000000000000000000000000000000000000000000000000000000000000000000000000000000000000000000000000000000000000000000000000000000000000000000000000000000000000000000000000000000000000000000000000000000000000000000000000000000000000000000000000000000000000000000000000000000000000000000000000000000000000000000000000000000000000000000000000000000000000000000000000000000000000000000000000000000000000000000000000000000000000000000000000000000000000000000000000000000000000000000000000000000000000000000000000000000000000000000000000000000000000000000000000000000000000000000000000000000000000000000000000000000000000000000000000000000000000000000000000000000000000000000000000000000000000000000000000000000000000000000000000000000000000000000000000000000000000000000000000000000000000000000000000000000000000000000000000000000000000000000000000000000000000000000000000000000000000000000000000000000000000000000000000000000000000000000000000000000000000000000000000000000000000000000000000000000000000000000000000000000000000000000000000000000000000000000000000000000000000000000000000000000
#030321:00560056000000000000000000000000
#0303a0:000000000000000000000000000000000000000000000000000000000000000000000000000000000000000000000000000000000000000000000000000000000000000000000000000000000000000000000000000000000000000000000000000000000000000000000000000000000000000000000000000000000000000000000000000000000000000000000000000000000000000000000000000000000000000000000000000000000000000000000000000000000000000000000000000000000000000000000000000000000000000000000000000000000000000000000000000000000000000000000000000000000000000000000000000000000000000000000000000000000000000000000000000000000000000000000000000000000000000000000000000000000000000000000000000000000000000000000000000000000000000000000000000000000000000000000000000000000000000000000000000000000000000000000000000000000000000000000000000000000000000000000000000000000000000000000000000000000000000000000000000000000000000000000000000000000000000000000000000000000000000000000000000000000000000000000000000000000000000000000000120000000000000000000000000000000000000000000000000000000000000000000000000000000000000000000000000000000000000000000000000000000000000000000000000000000000000000000000000000000000000000000000000000000000000000000000000000000000000000000052000000000000000000000000000000000000000000000000000000000000000000000000000000000000000000005200000000000000000000000000000000000000000000000000000000000000000000000000000000000000000000000000000000000000000000000000000000000000000000000000520000000000000000000000000000000000000000000000000000000000000000000000000000000000000000000000000000000000000000000000000000000000000000000000000000000000000000000000000000000000000000000000000000000000000000000000000000000000000000000000000000000000000000000000000000000000000000000000000000000000000000000000000000000000000000000000000000000000000000000000000000000000000000000000000000000000000000000000000000000000000000000000000000000000000000000000000000000000000000000000220000000000000000000000000000000000000000000000000000000000000000000000000000000000000000000000000000000000000000000000000000000000000000000000000000000000000000000000000000000000000000000000000000000000000000000000000000000000000000000000000000000000000000000000000000000000000000000000000000000000000000000000000000000000000000000000000000000000000000000000000000000000000000000000000000000000000000000000000000000000000000000000000000000000000000000000000000000000000000000000000000000000000000000000000000000000000000000000000000000000000000000000000000000000000000000000000000000000000000000000000000000000000000000000000000000000000000000000000000000000000000000000000000000000000000000000000000000000000000000000000000000000000000000000000000000000000000000000000000000000000000000000000000000000000000000000000000000000000000000000000000000000000000000000000000000000000000000000000000000000000000000000000000000000000000000000000000000000000000000000000000000000000000000000000000000000000000000000000000000000000000000000000000000000000000000000000000000000000000000000000000000000000000000000000000000000000000000000000000000000000000000000000000000000000000000000000000000000000000000000000000000000000000000000000000000000000000000000000000000000000000000000000000000000000000000000000000000000000000000000000000000000000000000000000000000000000000000000000000000000000000000000000000000000000000000000000000000000000000000000000000000000000000000000000000000000000000000000000000000000000000000000000000000000000000000000000000000000000000000000000000000000000000000000000000000000000000000000000000000000000000000000000000000000000000000000000000000000000000000000000000000000000000000000000000000000000000000000000000000000000000000000000000000000000000000000000000000000000000000000000000000000000000000000000000000000000000000000000000000000000000000000000000000000000000000000000000000000000000000000
#030380:0000000000000000000000000000000000000000000000000000000000000000000000000000000056000056000000000000000000000000560000000000000000000000000000000000000000000000000000000000000000000000000000000000000000000000000000000000000000000000000000000000000000000000
#0313b0:00000000000000130000000000000000
#031360:0000000000230000
#032380:1353535323000000
#032390:00530000005300000000000000000000
#032370:00000053000000530000000000000000
#035320:00000014
#036370:24
#0363b1:13332300
#036371:0053005300000000
#036360:00142400
#036320:0000005400000000
#037370:13333323
#0373b0:0053005300530000
#037361:0013003300330000
#037321:00535323
#040321:13230000
#040361:0053000000000000
#040360:00142400
#0403a0:0000005400000000
#041320:13530000
#041380:00000000000053230000000000000000
#0413b1:0013530000000000
#041351:00000000000053230000000000000000
#0433b1:00132300
#043371:00000000000033330000000000000000
#043320:00000000000013330000000000000000
#043360:0023
#0443b0:1300000000000000000000000000000033333333000000000000000000000000
#044350:00530000
#044380:0000000000230000
#044361:1323
#044321:00530000
#044351:0000000000000000000000000000000000000000133333330000000000000000
#044321:00000023
#045371:1300005300000000005300530000000000530053000000000053005300000000
#045391:0033333333333333
#0453b1:0000000000530053000000000053005300000000005300530000000000530000
#0463b1:23
#046360:1300005300000000005300530000000000530053000000000053005300000000
#046340:0033333333333333
#046320:0000000000530053000000000053005300000000005300530000000000530000
#047320:23
#0473b1:1300005300000000000000000000000000000000000000000000000000000000
#047391:0033000000000000
#047371:0000000000530000230000000000000000000000000000000000000000000000
#047320:0000000000000000130000530000000000000000000000000000000000000000
#047340:0000003300000000
#047360:0000000000000000000000000053000023000000000000000000000000000000
#0473b1:0000000000000000000000000000000013000053000000000000000000000000
#047391:0000000000330000
#047371:0000000000000000000000000000000000000000005300002300000000000000
#047320:0000000000000000000000000000000000000000000000001300005300000000
#047340:0000000000000033
#047360:0000000000000000000000000000000000000000000000000000000000530000
#048360:23
#048391:1333230000000000
#048371:0053005300000000000000000000000000000000000000000000000000000000
#0483b1:0000000000530053000000000000000000000000000000000000000000000000
#048340:0000133323000000
#048360:0000000000000000005300530000000000000000000000000000000000000000
#048320:0000000000000000000000000053005300000000000000000000000000000000
#048391:0000000013332300
#0483b1:0000000000000000000000000000000000530053000000000000000000000000
#048371:0000000000000000000000000000000000000000005300530000000000000000
#048340:0000000000001333
#048320:0000000000000000000000000000000000000000000000000053005300000000
#048360:0000000000000000000000000000000000000000000000000000000000530053
#049340:23
#049360:00140000
#049320:0000002400000000
#050370:0013
#0503b0:0000000000230000
#051320:13230000000000000000000000000000
#051371:00132300000000000000000000000000
#051340:00001323000000000000000000000000
#0513a1:00000013230000000000000000000000
#051360:00000000132300000000000000000000
#0513b1:00000000001323000000000000000000
#051340:00000000000013230000000000000000
#051381:00000000000000132300000000000000
#051320:0013
#051340:00000000000000000023000000000000
#051371:00000000000000000013000000000000
#051391:0000000000230000
#051350:0000000000130000
#051370:00000000000000000000002300000000
#0513b1:00000000000000000000001300000000
#051391:00000023
#051360:00000013
#051340:00000000000000000000000000230000
#051381:00000000000000000000000000130000
#051361:0000000000000023
#051320:0000000000000013
#051340:00000000000000000000000000000023
#051371:00000000000000000000000000000013
#052391:23
#054351:0000132300000000
#055381:0000001323000000
#056351:1353335333533353
#056331:00530000005300000053000000530000
#056371:00000053000000530000005300000053
#057351:23
#056390:0000135333532300
#056370:00000000005300000053000000000000
#0563b0:00000000000000530000005300000000
#057380:1353535353230000
#057390:00530000005300000053000000000000
#057370:00000053000000530000000000000000
#057350:00000000000000000000000000000013
#058320:0023000000000000
#058380:00000000001300230000000000000000
#060320:00000000000000130000000000000000
#060370:0000000000230000
#061350:1353535323000000
#061340:00530000005300000000000000000000
#061360:00000053000000530000000000000000
#065360:00001434
#065320:0000000000540054
#066360:24
#0653b1:00000013
#065371:0000000000000053
#0663b1:23
#066361:00001434
#066321:0000000000530053
#067361:34240000
#067321:0053000000000000
#066360:0000000000140034
#0663b0:00000053
#0673b0:53230000
#067360:0034000000000000
#0683b0:00000000132300000000000000000000
#068321:00000000001323000000000000000000
#068380:00000000000013230000000000000000
#068351:00000000000000132300000000000000
#068380:00000000000000001626000000000000
#069360:00001424
#0693a0:0000000000540000
#069321:00000013
#069361:0000000000000053
#070321:23
#0703b1:00001353
#070351:00000000000000000000000000005323
#070320:0000000000135300
#070380:00000000000000000000000000005323
#073380:0000000014343434
#0733a0:0000000000000000000000000000000000540054000000000054005400000000
#073360:0000000000000000000000000000000000000000005400540000000000540054
#074380:24
#074380:0000000013530000
#0743b0:00000033
#074350:0000000000000053
#075350:0053000000000000
#0753b0:00230000
#074351:0000000000130000
#074321:00000033
#074381:0000000000000053
#075321:33230000
#075381:0053000000000000
#0763b1:00000013000000000000000000000000
#076371:00000000002300000000000000000000
#077341:0000000014342400
#077321:0000000000000000000000000000000000540054000000000000000000000000
#077361:0000000000000000000000000000000000000000005400540000000000000000
#077380:0000000000001434
#077360:0000000000000000000000000000000000000000000000000054005400000000
#0773a0:0000000000000000000000000000000000000000000000000000000000540054
#078380:24
#078320:00001424
#078360:0000000000340000
#0783a1:0000000000140054
#078361:00000000000000000000000034340034
#079361:24
#079320:14
#079360:00000000002400000000000000000000
#079350:00000000000000000013230000000000
#079320:00000000000000000000001323000000
#079380:00000000000000000000000000132300
#0793b0:00000000000000000000000000000013
#0803b0:23
#080320:00000013
#080360:0000000000000023
#0813b0:1333333300000000000000000000000000000000000000000000000000000000
#081380:0023000000000000
#081351:0000000013333333000000000000000000000000000000000000000000000000
#081321:00230000
#0813b0:0000000000000000133333330000000000000000000000000000000000000000
#081380:0000002300000000
#081351:0000000000000000000000001333333300000000000000000000000000000000
#081321:0023
#085321:0000000014240000
#0863a1:0014
#086361:0000000000240000
#0873a1:0000000014240000
#088321:0014
#088361:0000000000240000
#0893b1:0013
#089381:0000000000230000
#0903a1:00000000000000140054000000000000
#090321:00000024
