This file was generated by Ched 2.7.0.0.
#TITLE ""
#ARTIST ""
#DESIGNER ""
#DIFFICULTY 0
#PLAYLEVEL
#SONGID ""
#WAVE ""
#WAVEOFFSET 0
#JACKET ""
#REQUEST "ticks_per_beat 480"
#00002: 4
#BPM01: 155
#00008: 01
#TIL00: ""
#HISPEED 00
#MEASUREHS 00
#0001a:14
#00014:00140000
#00018:0014
#00012:00000014
#00212:14
#00218:00140000
#00214:0014
#0021a:00000014
#0041a:14
#00414:00140000
#00418:0014
#00412:00000014
#00612:14
#00618:00140000
#00614:0014
#0061a:00000014
#0081a:1414
#00814:00140014
#00918:1414
#00912:00140014
#0101a:14340000
#01118:14340000
#01212:1414
#01218:00140014
#01210:41
#01314:1414
#0131a:00140014
#02014:00140000
#02018:0014
#02012:00000014
#0211a:14
#02114:00140000
#02118:0014
#02112:00000014
#02218:14340000
#0231a:14340000
#02418:00140000
#02414:0014
#0241a:00000014
#02412:14
#02410:41
#02512:14
#02518:00140000
#02514:0014
#0251a:00000014
#02614:14340000
#02712:14340000
#02819:1414
#0281a:00140000
#02818:00000014
#02919:14
#0291a:00140000
#03012:14
#03018:00140000
#03014:0014
#0301a:00000014
#03114:14
#0311a:00140000
#03112:0014
#03118:00000014
#03213:1414
#03212:00140000
#03214:00000014
#03313:14
#03312:00140000
#03518:1414
#03514:00140014
#03618:0014
#03614:00000014
#0361a:24
#03612:00240000
#03610:41
#0371a:14
#03712:00140000
#03718:0014
#03714:00000014
#0381a:14
#03818:0014
#0391a:14
#03914:00000014
#04018:0014
#04014:00000014
#0401a:24
#04012:00240000
#0411a:14
#04112:00140000
#04118:0014
#04114:00000014
#0421a:14
#04218:00343400
#04312:14
#04314:00343400
#04418:14
#05713:1414
#05712:00140000
#05714:00000014
#0571f:11
#05813:14
#05812:00140000
#0591a:14
#05914:00140000
#05918:0014
#05912:00000014
#06018:14
#06012:00140000
#0601a:0014
#06014:00000014
#06119:1414
#0611a:00140000
#06118:00000014
#06219:14
#0621a:00140000
#06414:1414
#06418:00140014
#05618:14
#05610:41
#06614:14
#06618:00140000
#06612:0014
#0661a:00000014
#06610:0041
#06714:14
#06718:00140000
#06712:0014
#06814:14
#06812:0014
#06918:00140000
#06912:0024
#0691a:00000024
#07014:14
#07018:00140000
#07012:0014
#0701a:00000014
#07114:14000034
#07118:00140000
#07112:0014
#0721a:0014
#07214:34
#07218:00000034
#07414:1414
#07412:00140014
#07514:14000014
#0751a:0014
#07618:14
#07612:00140000
#0761a:0014
#07614:00000014
#07718:1426
#07712:00140026
#07818:1414
#0781a:00140014
#07918:14000014
#07912:0014
#08014:14
#0801a:00140000
#08012:0014
#08018:00000014
#08114:14
#0811a:00140000
#08112:0014
#08216:0014
#08318:00000014
#08414:1414
#0841a:00140000
#08418:00000014
#08514:00000014
#0851a:0014
#08618:1414
#08612:00140000
#08614:00000014
#08714:0014
#08718:00000014
#08812:1414
#0881a:00140014
#08918:0014
#08914:00000014
#0901a:00000000000000140000000000000000
#01412:14340000
#01514:14340000
#03419:24
#03413:0024
#06313:24
#06319:0024
#06512:0024
#0651a:00000024
#0651f:0021
#07312:0026
#07318:34000026
#00118:00343400
#00314:00343400
#0051a:00343400
#00712:00343400
#05314:00343400
#05418:00343400
#05512:00343400
#04913:00340000
#04912:0034
#05013:0034
#05012:00340000
#05119:00340000
#0511a:0034
#0521a:00340000
#05219:0034
#04510:41
#0105a:54
#01158:54
#02258:64
#0235a:64
#02654:54
#02752:54
#02859:5454
#02858:00000024
#0285a:00240000
#02959:54
#0295a:00240000
#03253:6464
#03252:00240000
#03254:00000024
#03353:64
#03352:00240000
#0365a:14
#03652:00140000
#0385a:54
#03858:0054
#0395a:54
#0405a:14
#04052:00140000
#0425a:54
#04352:64
#04458:54
#05753:6464
#05752:00240000
#05754:00000024
#05853:64
#05852:00240000
#06159:5454
#0615a:00240000
#06158:00000024
#06259:54
#0625a:00240000
#05658:54
#06752:0064
#06854:64
#06852:0064
#07152:0064
#0725a:0054
#06552:0014
#0655a:00000014
#06952:0014
#0695a:00000014
#07352:0016
#07358:00000016
#07454:5454
#07452:00540054
#07554:54
#07858:6464
#0785a:00640064
#07958:64
#07758:0016
#07752:00000016
#08152:0054
#08256:0024
#0905a:00000000000000540000000000000000
#01452:64
#01554:64
#0013a0:14
#001380:00343424
#003320:14
#003340:00343424
#005380:14
#0053a0:00343424
#007340:14
#007320:00343424
#0103a0:14340000
#010380:00003434
#011380:34340000
#0113a0:00003424
#014320:14340000
#014340:00003434
#015340:34340000
#015320:00003424
#0163a0:14
#017360:34
#0183a0:34
#019360:34
#0203a0:24
#022380:14340000
#0223a0:00003434
#0233a0:34340000
#023380:00003424
#026340:14340000
#026320:00003434
#027320:34340000
#027340:00003424
#028390:1454
#0283a0:00540000
#028380:00000054
#029390:5424
#0293a0:00540000
#032330:1454
#032320:00540000
#032340:00000054
#033330:5424
#033320:00540000
#0383a0:14
#038380:0034
#0393a0:34
#039380:0024
#0423a0:14
#042380:00343424
#043320:14
#043340:00343424
#044380:14
#0443a0:00000024
#045320:14
#045330:00340000
#045340:0034
#045350:00000034
#046350:34
#046340:00340000
#046330:0034
#046320:00000024
#0473a0:14
#047390:00340000
#047380:0034
#047370:00000034
#048370:34
#048380:00340000
#048390:0034
#0483a0:00000024
#049340:14
#049330:00340000
#049320:00003434
#050320:34340000
#050330:0034
#050340:00000024
#051380:14
#051390:00340000
#0513a0:00003434
#0523a0:34340000
#052390:0034
#052380:00000024
#053320:14
#053340:00343424
#0543a0:14
#054380:00343424
#055340:14
#055320:00343424
#056380:14
#0563a0:00000024
#057330:1454
#057320:00540000
#057340:00000054
#058330:5424
#058320:00540000
#061390:1454
#0613a0:00540000
#061380:00000054
#062390:5424
#0623a0:00540000
#067320:0014
#068340:34
#068320:0034
#069340:24
#071320:0014
#071340:00000034
#072340:34240000
#0723a0:0014
#072380:00000034
#073380:34240000
#074340:1434
#074320:00340034
#075340:34
#075320:00240000
#078380:1434
#0783a0:00340034
#079380:34
#0793a0:00240000
#081320:0014
#082360:0054
#083320:0024
#085320:14240000
#0873a0:14240000
#089340:14240000
#0903a0:14000034000034340000000000000000
#090380:00000024
