This file was generated by Ched 2.7.0.0.
#TITLE ""
#ARTIST ""
#DESIGNER ""
#DIFFICULTY 0
#PLAYLEVEL
#SONGID ""
#WAVE ""
#WAVEOFFSET 0
#JACKET ""
#REQUEST "ticks_per_beat 480"
#00002: 4
#BPM01: 172
#00008: 01
#TIL00: ""
#HISPEED 00
#MEASUREHS 00
#00119:14
#00219:14
#00313:14
#00413:14
#0091a:14
#01014:14
#0111a:14
#01214:14
#01318:14
#01310:41
#01412:14
#01518:14
#01612:14
#0171a:14
#0181a:14
#02112:14
#02212:14
#0251a:14
#02514:0014
#0261a:14
#02712:14
#02718:0014
#02812:14
#02918:14
#02914:0014
#02910:41
#0301a:14
#03114:14
#03118:0014
#03212:14
#03312:0016
#03318:26
#03418:16
#03412:0016
#03618:0016
#03712:16
#03718:0016
#03812:16
#03818:0016
#04012:0016
#04218:0016
#04212:16
#04418:16
#04412:0016
#04712:0016
#04818:16
#04812:0016
#05012:14
#0511a:14
#05212:14
#0611a:14
#06114:0014
#0621a:14
#06312:14
#06318:0014
#06412:14
#06518:14
#06514:0014
#0661a:14
#06714:14
#06718:0014
#06812:14
#0771a:14
#07712:14
#08618:0016
#08612:26
#0861f:21
#08712:16
#08718:0016
#08710:41
#08912:0016
#09018:16
#09012:0016
#09118:16
#09112:0016
#09318:0016
#09512:0016
#09518:16
#09712:16
#09718:0016
#10018:0016
#10112:16
#10118:0016
#10312:0016
#10518:0016
#10818:0016
#10912:16000016
#10918:0016
#0781f:11
#0491a:24
#10212:26
#11018:26
#04517:0036
#04617:0036
#05319:0034
#05310:41
#05418:34
#05518:34
#05519:0034
#05713:0034
#05814:34
#05914:34
#05913:0034
#09813:0036
#09913:0036
#10613:0036
#10713:0036
#07310:41
#04110:41
#005390:14
#006390:24
#007330:14
#008330:24
#0193a0:14
#0203a0:24
#023320:14
#024320:24
#035380:16363636
#036380:26
#039320:16363636
#040320:26
#041380:1626
#043320:1626
#045380:16
#045370:0036
#046360:36
#046370:0036
#047380:26
#0533a0:14
#053390:0034
#054380:3434
#055380:34
#055390:0034
#0563a0:24
#057320:14
#057330:0034
#058340:3434
#059340:34
#059330:0034
#060320:24
#069380:14
#0703a0:34
#0713a0:34
#072380:24
#073340:14
#074320:34
#075320:34
#076340:24
#078340:14
#079340:24
#0803a0:14
#0813a0:24
#082320:14
#083320:24
#084380:14
#085380:24
#088320:16363636
#089320:26
#092380:16363636
#093380:26
#094320:1626
#096380:1626
#098320:16
#098330:0036
#099340:36
#099330:0036
#100320:26
#102320:16
#103320:26
#104380:16
#105380:26
#106320:16
#106330:0036
#107340:36
#107330:0036
#108320:26
