This file was generated by Ched 2.7.0.0.
#TITLE ""
#ARTIST ""
#DESIGNER ""
#DIFFICULTY 0
#PLAYLEVEL
#SONGID ""
#WAVE ""
#WAVEOFFSET 0
#JACKET ""
#REQUEST "ticks_per_beat 480"
#00002: 4
#BPM01: 172
#00008: 01
#TIL00: ""
#HISPEED 00
#MEASUREHS 00
#00115:12
#00119:12
#00116:00120012
#00112:0012
#00118:00120012
#0011c:0012
#00114:0000003200320032
#0011a:0000003200320032
#0021c:00120000
#00212:00120000
#00216:0012
#0021a:0000000000120000
#00214:00000012
#00218:0000000000000012
#00312:12
#0031b:0012121200000000
#00315:0000000012120000
#00318:0000000000001212
#0041a:12
#00414:12
#00415:00120000
#0041c:0012
#00412:0012
#00419:00120012
#00416:00000012
#0051b:13
#00517:0013
#00514:00130013
#00512:2213
#0091b:1300001300000013
#00918:00130013
#00915:0013000000130000
#00912:2300002300002323
#00713:0000141414141414
#00719:0000141414141414
#0071b:13
#00712:23
#0101b:0013001300000000
#01012:0013
#01014:0000000000130000
#01016:0013001300001300
#01018:0000000000000013
#01017:00000000000000000013000000000000
#01019:00000000000000000000001300000000
#01116:13
#01115:0000001400000000
#01114:0000000000001515
#01112:0000130000130000
#0111b:23
#0111a:0000002400000000
#01119:0000000000002525
#0121b:0013000013000000
#01218:0000130000131300
#01215:00000013000013000000001300000000
#01212:0000000013000013
#01316:1414141400000000
#01315:00140000001400000000000013000000
#01317:00000014000000140000000000000000
#01312:0000000000000013
#0131b:0000000000002323
#01310:41
#01715:00000013
#0171b:0000130000130000
#01718:23
#01712:23
#0191b:1300130000000013
#01919:0000001300000000
#01912:2323
#01916:0000230000000023
#01914:0000002300000000
#01818:0000001300130013
#01812:0013130000001300
#01815:0013
#0181b:00130013
#02418:0000000013001414
#02414:00000000000000000000000000140014
#02412:0000000000130000
#02416:0013000000000000
#0241a:00330000000000000000000000000000
#02419:33
#0251b:0000130000001313
#02512:00130013
#02615:00000013
#02612:0000000000130000
#02618:0000000000000013
#0261b:0000001300130000
#02617:0013000000000000
#0271b:2300130023000013
#02712:13231300
#02715:0013000000130013
#02718:0000001300001300
#02812:0013000000001300
#02818:0013000000130000
#0281b:0000001300001300
#02815:0000001300000000
#02816:0000000000000013
#0291b:13
#02912:0000130000000013
#02916:1313
#02917:0000130000001313
#02910:41
#0301b:0013000000130000
#03017:0000001300000000
#03012:0000000000130000
#03015:00000013
#03018:0000000000000013
#03016:0013000000000000
#03112:1400140014140000
#0311a:2400240024240000
#03118:0000000000000026
#03319:00130013
#03314:0000001300000000
#03317:0013
#03312:2300000000130000
#03315:0000000000000013
#0331b:13
#0341b:13130013
#03412:13
#03417:0013
#03512:1300000024240000
#0351a:0024242400000000
#03516:0000000000002424
#03616:0014001414000000
#03612:14
#0361a:00140000
#04116:00000000001300000000000000000000
#04115:00000013
#04118:2400000000000024
#04112:23
#0411a:0000002400000000
#04119:0000000000240000
#04110:41
#04215:0013000000001300
#04218:0000130013000013
#0421b:0000001300130000
#04212:1313
#04317:00000000001300000000000000000000
#0431b:13
#04318:00000013
#04314:1400000000000024
#04312:0000002400000000
#04313:0000000000240000
#04412:0000001300130000
#04418:0013000000001300
#04415:0000130023000013
#0441b:1323
#04712:00130013
#0471b:00130013
#04715:0000000000000000000000000013000000130000000000000000000013000000
#04716:14
#04719:00000000000023131313000000000000
#0471a:0000000000000000000000000013000000130000000000000000000000000000
#04718:0000000000000000000000000000001300000013000000000000000000000000
#04714:00000000000023131313000000000000
#04713:0000000000000000000000000000001300000013000000000000000000000000
#04818:13131313
#0481b:0013000000130000
#04815:0000001300000013
#04812:0013000000130000
#06819:00000013
#06814:00000013
#06818:0026000000000000
#06812:0000002600000000
#06912:14
#06914:00140014
#06916:0014
#0691a:14
#07012:14
#07014:00140014
#07016:0014
#0701a:24
#0711a:14
#07118:00140014
#07116:0014
#0721a:14
#07218:00140014
#07216:0014
#07212:24
#07312:14
#07314:00140014
#07316:0014
#0731a:2424
#07310:41
#0741a:14
#07418:00140014
#07416:0014
#07412:2424
#07512:14
#07514:00140014
#07516:0014
#0751a:2424
#0761a:14
#07618:00140014
#07616:0014
#07612:2424
#08218:0000131300130000
#0821b:13000013
#08215:1313
#08212:0000232300002300
#0851b:00130000
#08512:00130000
#08514:13
#08519:13
#08318:1313
#08315:0000131300130000
#08312:13000013
#0831b:0000232300002300
#08412:0000000013130000
#0841b:1313000000000000
#08416:2323000000000000
#08417:0000000023230000
#08916:0014001424000000
#08912:00240000
#0891a:24
#09417:00000000001300000000000000000000
#09418:00000013
#09414:2400000000000024
#09412:0000002400000000
#09413:0000000000240000
#0941b:23
#10516:0014001400000000
#1051a:00142400
#10518:0000000000131313
#10515:00000000000000000000001300130000
#10512:1424
#1061b:23130000
#10612:2333003324001300
#10616:00130014
#1061a:0000000024340034
#1071b:00130000
#10712:2535003424001400
#10716:00140014
#10719:25
#1071a:0000000024340034
#1081b:00130013
#10812:24130013
#10819:00000000000023131313000000000000
#10817:0000000000000013
#1081a:2400000000000000000000000013000000130000000000000000000000000000
#10818:0000000000000000000000000000001300000013000000000000000000000000
#10814:00000000000023131313000000000000
#10815:0000000000000000000000000013000000130000000000000000000000000000
#10813:0000000000000000000000000000001300000013000000000000000000000000
#10916:0013000023000000
#10914:2300130000130013
#10917:0000001300001300
#10919:2300130000130013
#10912:0000001300001300
#1091b:0013000023000000
#00612:13
#00616:0013
#00619:00130013
#0061b:2313
#00817:0012
#00819:24
#00813:24
#0211b:13
#02118:00000013
#02112:0000130000130000
#02115:13
#02215:0000001300130013
#0221b:0013130000001300
#02218:0013
#02212:00130013
#0391b:0013131300130000
#03918:13000000000000000000000000130000
#03915:0000130000001313
#03912:1313
#0371b:23130013
#03712:0013
#03715:0000130000131300
#03718:0000001313000013
#0381b:0000130000000013
#03818:13001313
#03812:13001313
#03815:0000130000130000
#02018:00000013
#0201b:0000000000130000
#02012:00000013
#02017:0013000000000000
#02015:0013
#02014:33
#02013:00330000000000000000000000000000
#0671a:1400140014140000
#06712:2400240024240026
#06312:2300130023000013
#0631b:13231300
#06318:0013000000130013
#06315:0000001300001300
#0641b:0013000000001300
#06415:0013000000130000
#06412:0000001300001300
#06418:0000001300000000
#06417:0000000000000013
#06512:13
#0651b:0000130000000013
#06517:1313
#06516:0000130000001313
#06612:0013000000130000
#06616:0000001300000000
#0661b:0000000000130000
#06618:00000013
#06617:0013000000000000
#06615:0000000000000013
#0451b:23131313
#04512:1336
#0461b:13131313
#04612:1836
#07818:00130013
#0781b:1313
#0781f:11
#07915:00130013
#07912:0013
#10316:0014001400140014
#10312:00141400
#1031a:14001414
#10212:1300140000240000
#10212:24
#1021a:24
#10216:0000002400000024
#1041a:2400140000240000
#10412:24
#10416:0000002400000024
#09212:0013131300130000
#09215:13000000000000000000000000130000
#09218:0000130000001313
#0921b:1313
#09012:23130013
#0901b:0013
#09018:0000130000131300
#09015:0000001313000013
#09112:0000130000000013
#09115:13001313
#0911b:23001313
#09118:0000130000130000
#08614:00130013
#08619:0000001300000000
#08616:0013
#0861b:0000000000130000
#08618:0000000000000013
#08612:24
#0861a:24
#0861f:21
#0871b:13
#08712:23130013
#08716:0013
#08710:41
#0881b:13
#08812:0024242400000000
#0881a:0000000024240000
#08816:0000000000002424
#09518:0013000000001300
#09515:0000130013000013
#09512:0000001300130000
#0951b:1313
#09616:00000000001300000000000000000000
#09615:00000013
#0961a:0000002400000000
#09619:0000000000240000
#09618:2400000000000024
#09612:23
#09715:0013000000001300
#09715:0013000000000000
#09718:0000130023000013
#0971b:0000001300130000
#09712:1323
#1001b:23130013
#10012:00130013
#10018:0000000000000000000000000013000000130000000000000000000013000000
#10014:00000000000023131313000000000000
#10013:0000000000000000000000000013000000130000000000000000000000000000
#10015:0000000000000000000000000000001300000013000000000000000000000000
#10019:00000000000023131313000000000000
#1001a:0000000000000000000000000000001300000013000000000000000000000000
#10016:24
#10112:0013000000130000
#10115:23132323
#10118:0000001300000013
#1011b:0013000000130000
#09812:23131313
#0981b:13
#09818:0036
#09912:13131313
#09916:18
#09918:0036
#06112:0000130000001313
#0611b:00130013
#06218:00000013
#0621b:0000000000130000
#06215:0000000000000013
#06212:0000001300130000
#06216:0013000000000000
#01412:0013001300000000
#0141b:0013
#01419:0000000000130000
#01417:0013001300001300
#01415:0000000000000013
#01416:00000000000000000013000000000000
#01414:00000000000000000000001300000000
#01517:1300001400001515
#0151b:0000130000130000
#01512:2300002400002525
#01612:0013000013000000
#01615:0000130000131300
#01618:00000013000013000000001300000000
#0161b:0000000013000013
#02319:0000001300000000
#02312:1300130000000013
#02317:0000130000000013
#02314:0000001300000000
#0231b:13
#0491b:1300001300000013
#04918:00130013
#04915:0013000000130000
#04912:2300002300002323
#0501b:0013001300000000
#05012:0013
#05014:0000000000130000
#05016:0013001300001300
#05018:0000000000000013
#05017:00000000000000000013000000000000
#05019:00000000000000000000001300000000
#05116:13
#05115:0000001400000000
#05114:0000000000001515
#05112:0000130000130000
#0511b:23
#0511a:0000002400000000
#05119:0000000000002525
#0521b:0013000013000000
#05218:0000130000131300
#05215:00000013000013000000001300000000
#05212:0000000013000013
#08012:1313
#08018:00130013
#08015:0013000000130000
#0801b:0000001300000013
#08115:1313
#08112:00130013
#08118:00130000
#0811b:0013
#0321b:00000013
#03212:0026000000000000
#03218:0000002600000000
#06015:1313
#06012:00230023
#0601b:00000000000000330000003300333333
#06018:00000033000000000000000000000000
#05615:0000000000131300
#05618:1313
#0561b:00230023
#05412:13
#0541b:0013
#05418:0000001300000000
#05415:00230023
#05312:1313
#05318:0000000000000013
#05315:00230023
#05310:41
#05515:0000001300130013
#05512:13130013
#05518:1313
#0551b:00230023
#0591b:13130013
#05915:1313
#05918:0000001300130013
#05912:00230023
#0581b:13
#05812:0013
#05815:0000001300000000
#05818:00230023
#0571b:1313
#05715:0000000000000013
#05718:00230023
#0771a:24
#07712:24
#1101a:24
#11012:24
#04014:00240024
#04018:2424
#0401b:00230023
#04012:2323
#09312:00230023
#0931b:2323
#09318:00240024
#09314:2424
#01357:00000024000000240000000000000000
#01355:00240000002400000000000000000000
#01356:5454545414000000
#02552:00530000
#0255b:00530000
#02852:0013000000000000
#0285b:0000001300000000
#03252:0016000000000000
#03258:0000001600000000
#03158:0000000000000016
#0365a:00644400
#03656:0024002434000000
#03652:54
#04158:14
#04156:00000000002300000000000000000000
#04152:63
#04357:00000000002300000000000000000000
#0435b:53
#04354:14
#06858:0016000000000000
#06852:0000001600000000
#0275b:0000000000000013
#0295b:5313
#02957:00530000
#02952:0000000000000063
#03056:0063000000000000
#03052:0000001300000000
#06952:24
#06956:0024
#06954:00640064
#07052:24
#07054:00640064
#07056:0024
#0705a:14
#0715a:24
#07158:00540054
#07156:0024
#0725a:24
#07258:00540054
#07256:0024
#07252:14
#07352:24
#07354:00640064
#07356:0024
#0735a:14
#0745a:24
#07458:00540054
#07456:0024
#07452:14
#07552:24
#07554:00640064
#07556:0024
#0755a:14
#0765a:24
#07658:00540054
#07656:0024
#07652:14
#0855b:00130000
#08552:00130000
#08956:0024002444000000
#08952:00543400
#0895a:64
#09457:00000000002300000000000000000000
#09454:14
#0945b:53
#04752:13
#04759:00000000000063636363000000000000
#0475a:0000000000000000000000000023000000230000000000000000000000000000
#04758:0000000000000000000000000000002300000023000000000000000000000000
#04754:00000000000063636363000000000000
#04755:0000000000000000000000000023000000230000000000000000000000000000
#04753:0000000000000000000000000000002300000023000000000000000000000000
#10859:00000000000063636363000000000000
#1085a:4400000000000000000000000023000000230000000000000000000000000000
#10858:0000000000000000000000000000002300000023000000000000000000000000
#10852:34
#10854:00000000000063636363000000000000
#10855:0000000000000000000000000023000000230000000000000000000000000000
#10853:0000000000000000000000000000002300000023000000000000000000000000
#00557:0023
#0055b:53
#00552:12
#00652:63
#00656:0023
#0065b:13
#00456:00000052
#00857:0012
#00752:13
#0345b:13
#04054:00140014
#04058:1414
#09358:00140014
#09354:1414
#06752:0000000000000016
#06352:0000000000000013
#0645b:0013000000000000
#06452:0000001300000000
#06552:6313
#0655b:0000000000000053
#06556:00630000
#06657:0053000000000000
#0665b:0000001300000000
#10252:14
#1045a:14
#04552:53
#09656:00000000002300000000000000000000
#09658:14
#09652:63
#10756:00240024
#10752:5534
#10759:45
#1075a:0064
#10656:00230024
#10652:5334
#1065b:43
#1065a:0064
#04652:28
#0985b:63
#09956:28
#00156:00520052
#00152:0052
#00158:00620062
#0015c:0062
#06152:00630000
#0615b:00630000
#10054:00000000000053535353000000000000
#10053:0000000000000000000000000023000000230000000000000000000000000000
#10055:0000000000000000000000000000002300000023000000000000000000000000
#10059:00000000000053535353000000000000
#10058:0000000000000000000000000023000000230000000000000000000000000000
#1005a:0000000000000000000000000000002300000023000000000000000000000000
#1005b:13
#03852:13
#08652:14
#0865a:14
#03352:13
#0375b:13
#0775a:14
#07752:14
#09052:13
#0915b:13
#08752:13
#02452:0000003300000000
#02456:0023000000000000
#02357:0000000000000063
#02352:0000000000000063
#0205b:0000004300000000
#02057:0023000000000000
#01956:0000000000000053
#0195b:0000000000000053
#001360:00120032
#001340:0000003200320032
#001320:0032
#002320:22
#001381:00120032
#0013a1:0000003200320032
#0013c1:0032
#0023c1:22
#004361:00000012
#005321:22
#0053b0:13
#005370:0053
#0063b0:23
#006321:13
#006361:0053
#007321:23
#013361:1454545424000000
#013351:00540000005400000000000000000000
#013371:00000054000000540000000000000000
#017361:0000001300000000
#017321:0000000000230000
#017381:0000000000000013
#018381:0023000000000000
#019321:0013
#019361:00000023
#019370:0013
#0193b0:00000023
#0193b0:0000000000000013
#020370:0053000000000000
#0203b0:0000002300000000
#019361:0000000000000013
#020341:33
#020331:00330000000000000000000000000000
#020321:00003333330023000000000000000000
#021371:0000001300000000
#0213b1:0000000000230000
#021351:0000000000000013
#022351:0023000000000000
#023361:0013
#023321:00000023
#0233b0:0013
#023370:00000023
#023370:0000000000000013
#024390:33
#0243a0:00330000000000000000000000000000
#0243b0:00003333330023000000000000000000
#023321:0000000000000013
#024361:0053000000000000
#024321:0000002300000000
#0253b1:13330000
#025381:0000005323000000
#025320:00130000
#025350:0000005323000000
#025360:0000000000000013
#026320:0033000000000000
#026360:0000002300000000
#0293b0:1323
#029370:00330000
#029320:0000000000000013
#030360:0033000000000000
#030320:0000002300000000
#032320:0013
#032340:0000000000330033
#032360:00000033
#033320:23
#034360:0000132300000000
#034320:0000000013230000
#034360:0000000000001323
#036320:14240000
#036360:0054000000000000
#0363a1:00142400
#036361:0000005400000000
#036371:00000013
#0373b1:23
#036320:00000013
#037360:23
#041320:1300000000230000
#041360:00000000005300000000000000000000
#0433b0:1300000000230000
#043370:00000000005300000000000000000000
#045320:1336
#046320:3836
#047320:23
#047390:00000000000013535353230000000000
#0473a0:0000000000000000000000000053000000530000000000000000000000000000
#047380:0000000000000000000000000000005300000053000000000000000000000000
#047341:00000000000013535353230000000000
#047351:0000000000000000000000000053000000530000000000000000000000000000
#047331:0000000000000000000000000000005300000053000000000000000000000000
#0533b1:13
#053381:00230000
#053381:0000001300000000
#0533b1:00000023
#054321:0013
#054351:0000000000230000
#054381:00000013
#0543b1:0000000000000023
#056321:13003333330000000000000000000000
#056351:00000000000033332300000000000000
#057321:13
#057351:00230000
#057351:0000001300000000
#057321:00000023
#0583b1:0013
#058381:0000000000230000
#058351:00000013
#058321:0000000000000023
#0603b1:13003300000000333300333300333333
#060381:00000033330033000000000033000000
#0613b1:23
#061320:13330000
#061350:0000005323000000
#0613b1:00130000
#061381:0000005323000000
#061371:0000000000000013
#0623b1:0033000000000000
#062371:0000002300000000
#065321:1323
#065361:00330000
#0653b1:0000000000000013
#066371:0033000000000000
#0663b1:0000002300000000
#069321:14
#069341:00540054
#069361:0054
#070321:54
#070341:00540054
#070361:0054
#071321:24
#0713a0:14
#071380:00540054
#071360:0054
#0723a0:54
#072380:00540054
#072360:0054
#0733a0:24
#073321:14
#073341:00540054
#073361:0054
#074321:24
#0743a0:14
#074380:00540054
#074360:0054
#0753a0:24
#075321:14
#075341:00540054
#075361:0054
#076321:24
#0763a0:14
#076380:00540054
#076360:0054
#0773a0:24
#078320:13535353
#078340:0053005300530053
#079320:23
#0793b1:13535353
#079391:0053005300530053
#0803b1:23
#087371:0000132300000000
#0873b1:0000000013230000
#087371:0000000000001323
#0893a1:14240000
#089361:0054000000000000
#089320:00142400
#089360:0000005400000000
#089360:00000013
#090320:23
#0893b1:00000013
#090371:23
#0943b1:1300000000230000
#094371:00000000005300000000000000000000
#096321:1300000000230000
#096361:00000000005300000000000000000000
#0983b1:13
#098381:0036
#099361:38
#099381:0036
#1003b1:23
#100341:00000000000013535353230000000000
#100331:0000000000000000000000000053000000530000000000000000000000000000
#100351:0000000000000000000000000000005300000053000000000000000000000000
#100390:00000000000013535353230000000000
#100380:0000000000000000000000000053000000530000000000000000000000000000
#1003a0:0000000000000000000000000000005300000053000000000000000000000000
#1023a0:1400003400000024
#102360:0000000000340000
#104320:1400003400000024
#104360:0000000000340000
#106320:1333003324000000
#106360:00330000
#1063a1:0000000014340034
#106361:00000034
#107391:25
#107320:1535003424000000
#107360:00340000
#1073a1:0000000014340034
#107361:00000034
#1083a1:24
#108391:00000000000013535353230000000000
#1083a1:0000000000000000000000000053000000530000000000000000000000000000
#108381:0000000000000000000000000000005300000053000000000000000000000000
#108340:00000000000013535353230000000000
#108350:0000000000000000000000000053000000530000000000000000000000000000
#108330:0000000000000000000000000000005300000053000000000000000000000000
