This file was generated by Ched 2.7.0.0.
#TITLE ""
#ARTIST ""
#DESIGNER ""
#DIFFICULTY 0
#PLAYLEVEL
#SONGID ""
#WAVE ""
#WAVEOFFSET 0
#JACKET ""
#REQUEST "ticks_per_beat 480"
#00002: 4
#BPM01: 172
#00008: 01
#TIL00: ""
#HISPEED 00
#MEASUREHS 00
#0021b:00130000
#00215:00001313
#00218:0000000000130013
#00312:13
#00415:13000013
#0041b:0013
#00412:0013
#00418:00130000
#0051b:13
#00517:0013
#00519:00330033
#00718:00141414
#00714:0000001400140014
#01018:0013
#01012:0000000000130000
#0101b:00000013
#01015:0000000000000013
#01218:0013000000130000
#01215:00130013
#01212:0000001300000013
#0121b:0013
#01319:1414141400000000
#01318:00140000001400000000000000000000
#0131a:00000014000000140000000000000000
#01315:00000023
#0131b:0000000000000023
#01310:41
#01712:23000000000000000013000000000000
#0171b:0000000000000013
#01718:00130000
#01715:0000001300000000
#0191b:0000000000000013
#01912:00130000
#01918:2300001300000000
#01815:0000000000130013
#01818:0013
#01812:0000001300000000
#0181b:00000013
#02618:0013000000001300
#02612:0013000000130000
#02615:0000001300000013
#0261b:0000001300000000
#02712:0013000000000000
#02715:0000001300130000
#0271b:2300000023000013
#02718:00230000
#02812:0013000000000000
#0281b:0000001300000000
#02815:0000000000000013
#0291b:13
#02918:00130013
#02912:0000000000000013
#02910:41
#0301b:0000000000130000
#03015:0013000000001300
#03018:0000000000000013
#03112:2400000014140000
#03116:00240000
#0311a:0000000024240000
#03118:0000000000000024
#0331b:00130000
#03315:0000001300000013
#03318:00001313
#03312:0000000000130000
#03316:24
#0341b:1300000000130013
#03412:00130000
#03415:00001313
#03418:00130000
#03512:13
#03518:0024002400240024
#03514:00242424
#04215:0013000000001300
#04218:0000130000130000
#0421b:0000001300000000
#04212:0000000013000013
#04718:0000000000000013
#04713:00000000000024141414000000000000
#04712:0000000000000000000000000014000000140000000000000000000000000000
#04714:0000000000000000000000000000001400000014000000000000000000000000
#0471b:00130013
#04815:13130013
#0481b:0013000000000013
#04818:0000001300130000
#04812:0013
#0531b:13000013
#05318:0000001300000033
#05310:41
#0681a:00000014
#06812:00000014
#06818:0024000000000000
#06814:0000002400000000
#0731a:14
#07318:00140014
#07316:0014
#07310:41
#07412:14
#07414:00140014
#07416:0014
#0751a:14
#07518:00140014
#07516:0014
#07612:14
#07614:00140014
#07616:0014
#08315:13
#08312:00001323
#08318:0000000000130000
#0831b:0000232300000000
#10918:0000001400140000
#10916:00140014
#10914:0014000000000014
#1091a:0024
#10912:24
#00118:13
#00115:00130013
#00112:0013
#00113:0000003300330033
#00814:0014
#00818:24
#03914:00130013
#0391b:0000000000130000
#03916:0013
#03919:0000001300000013
#03917:0013000000000000
#03912:13
#0381b:0000130000000013
#03815:00130013
#03818:0000000000130000
#03812:1313
#00915:0000130000130000
#00918:2300002300002300
#00912:0000000000000023
#0251b:1300000013000013
#02518:00130000
#02515:0000000000000013
#0821b:00001323
#08215:0000000000130000
#08218:13
#08212:0000232300000000
#10312:0014000014000000
#10316:00140000
#1031a:0000001400140000
#10318:0000000000000014
#10314:00000014
#04512:13
#04513:0034
#04615:15
#04613:0034
#10617:00140000
#10616:00000015
#10619:0015
#1061a:24
#02018:0013000000000000
#0801b:13
#08018:00130000
#08015:0013
#08012:00000013
#08115:13000013
#08118:00130000
#0811b:0013
#08112:0013
#00612:13
#00616:0013
#00614:00330033
#01615:0013000000130000
#01618:00130013
#0161b:0000001300000013
#01612:0013
#02312:0000000000000013
#0231b:00130000
#02315:1300001300000000
#02218:0000000000130013
#02215:0013
#0221b:0000001300000000
#02212:00000013
#02415:0013000000000000
#02414:00000013
#02419:00000013
#0211b:13000000000000000013000000000000
#02112:0000000000000013
#02115:00130000
#02118:0000001300000000
#03612:14
#03615:00140000
#03715:00130013
#03718:0000001300000013
#03712:0013
#0371b:2300000000130000
#04418:0013000000001300
#04415:0000130000130000
#04412:0000001300000000
#0441b:0000000023000013
#05218:0013000000130000
#05215:00130013
#05212:0000001300000013
#0521b:0013
#05415:0000001300000013
#05418:0013
#05412:0000000000130000
#0541b:00000013
#05518:13000013
#05512:1300000000130013
#0551b:00131300
#05515:0000001300000000
#05818:0000001300000013
#05815:0013
#0581b:0000000000130000
#05812:00000013
#05915:13000013
#0591b:1300000000130013
#05912:00131300
#05918:0000001300000000
#06215:0013000000001300
#0621b:0013000000130000
#06218:0000001300000013
#06212:0000001300000000
#0631b:0013000000000000
#06318:0000001300130000
#06312:2300000023000013
#06315:00230000
#0641b:0013000000000000
#06412:0000001300000000
#06418:0000000000000013
#06512:13
#06515:00130013
#0651b:0000000000000013
#06612:0000000000130000
#06618:0013000000001300
#06615:0000000000000013
#0671a:2400000014140000
#06716:00240000
#06712:0000000024240000
#06714:0000000000000024
#06112:1300000013000013
#06118:0000000000000013
#06115:00130000
#06018:0000000000000013
#0691a:14
#06918:00140014
#06916:0014
#0701a:14
#07018:00140014
#07016:0014
#07112:14
#07114:00140014
#07116:0014
#07212:14
#07214:00140014
#07216:0014
#1051a:0014000024000000
#10516:00140000
#10512:0000001400140000
#10514:0000000000000014
#10518:00000014
#10715:00150014
#10712:2515
#1081a:00140014
#10816:0000000000000014
#10813:00000000000024141414000000000000
#10812:0000000000000000000000000014000000140000000000000000000000000000
#10814:0000000000000000000000000000001400000014000000000000000000000000
#0111a:0000000000001414
#01119:1400001400000000
#01112:0000000000002424
#01113:2400002400000000
#01415:0013
#0141b:0000000000130000
#01412:00000013
#01418:0000000000000013
#01512:0000000000001414
#01513:1400001400000000
#0151a:0000000000002424
#01519:2400002400000000
#05012:0000000000130000
#05018:0013
#0501b:00000013
#05015:0000000000000013
#05112:0000000000001414
#05113:1400001400000000
#0511a:0000000000002424
#05119:2400002400000000
#03212:0014
#03214:0024000000003400
#03218:0000002400000000
#03213:0000000000340000
#03215:0000000000000034
#10015:0000000000000013
#10019:00000000000024141414000000000000
#1001a:0000000000000000000000000014000000140000000000000000000000000000
#10018:0000000000000000000000000000001400000014000000000000000000000000
#10012:00130013
#1001b:23
#10112:0013000000000013
#10118:23130023
#10115:0000001300130000
#1011b:0023
#0981b:13
#09819:0034
#09916:15
#09919:0034
#08612:00130000
#08618:0000001300000013
#08615:00001313
#0861b:0000000000130000
#0861a:24
#0861f:21
#0881b:13
#08814:0024002400240024
#08818:00242424
#09518:0013000000001300
#09515:0000130000130000
#09512:0000001300000000
#0951b:0000000013000013
#09219:00130013
#09212:0000000000130000
#09217:0013
#09214:0000001300000013
#09216:0013000000000000
#0921b:13
#09112:0000130000000013
#09118:00130013
#09115:0000000000130000
#0911b:2313
#0871b:00130000
#08718:00001313
#08712:2300000000130013
#08715:00130000
#08710:41
#08917:00140000
#0891a:24
#09018:00130013
#09015:0000001300000013
#0901b:0013
#09012:2300000000130000
#09715:0013000000001300
#09718:0000130000130000
#0971b:0000001300000000
#09712:0000000023000013
#05712:13000013
#05715:0000001300000033
#08412:0000000013130000
#0841b:1313000000000000
#08415:2323000000000000
#08418:0000000023230000
#0431a:14
#04312:0000002400000000
#0781f:11
#04112:24
#0411a:0000002400000000
#04110:41
#1101a:24
#11012:24
#04018:00240024
#04012:2424
#1021a:24
#10412:24
#0491b:00000023
#04915:2300000000000023
#0941a:24
#09412:0000002400000000
#09314:00240024
#0931a:2424
#09612:24
#0961a:0000002400000000
#0135a:00000024000000240000000000000000
#01358:00240000002400000000000000000000
#01359:5454545400000000
#03254:0014000000000000
#03258:0000001400000000
#03252:0064
#03158:0000000000000014
#04152:14
#0295b:5313
#02958:00530000
#02952:0000000000000063
#03055:0063000000000000
#03052:0000001300000000
#0735a:24
#07358:00540054
#07356:0024
#07452:24
#07454:00640064
#07456:0024
#0755a:24
#07558:00540054
#07556:0024
#07652:24
#07654:00640064
#07656:0024
#04752:1300000000000000000000000024000000240000000000000000000000000000
#04753:00000000000054545454000000000000
#04754:0000000000000000000000000000002400000024000000000000000000000000
#00557:0023
#0055b:53
#00854:0014
#0195b:0000000000000053
#04058:00140014
#04052:1414
#04552:53
#10656:00000025
#10657:00240000
#1065a:54
#10659:0055
#04655:25
#00155:00530053
#00152:0053
#02058:0023000000000000
#0205b:0000004300000000
#00652:63
#00656:0023
#02352:0000000000000063
#02455:0023000000000000
#02452:0000003300000000
#01752:00000000000000000023000000000000
#01755:0000005300000000
#0215b:00000000000000000023000000000000
#02158:0000006300000000
#0255b:5353
#02558:00530000
#0285b:0000001300000000
#02852:0013000000000000
#0275b:0000000000000013
#03655:00540000
#03652:5414
#0535b:53000053
#05358:0000002300000000
#06352:0000000000000013
#0645b:0013000000000000
#06452:0000001300000000
#06552:6313
#0655b:0000000000000053
#06555:00630000
#06658:0053000000000000
#0665b:0000001300000000
#06754:0000000000000014
#06858:0014000000000000
#06854:0000001400000000
#0695a:24
#06958:00540054
#06956:0024
#0705a:24
#07058:00540054
#07056:0024
#07152:24
#07154:00640064
#07156:0024
#07252:24
#07254:00640064
#07256:0024
#10755:00250024
#10752:6565
#10852:3400000000000000000000000024000000240000000000000000000000000000
#10853:00000000000054545454000000000000
#10854:0000000000000000000000000000002400000024000000000000000000000000
#04955:53
#0865a:14
#0985b:63
#09956:25
#10059:00000000000064646464000000000000
#1005a:0000000000000000000000000024000000240000000000000000000000000000
#10058:0000000000000000000000000000002400000024000000000000000000000000
#1005b:13
#08957:00640000
#0895a:6414
#0945a:14
#09354:00140014
#0935a:1414
#03356:14
#0375b:13
#05752:63000063
#05755:0000002300000000
#09052:13
#08555:00130000
#0855b:00130000
#06152:6363
#06155:00630000
#001350:00130033
#001330:0000003300330033
#001320:0033
#002320:23
#003380:0013000000000023
#003390:00330033
#0033a0:0000003300330000
#0033b0:0033
#0053b0:13
#005390:00330033
#005370:0033
#0063b0:23
#006321:13
#006341:00330033
#006361:0033
#007321:23
#013391:1454545424000000
#013381:00540000005400000000000000000000
#0133a1:00000054000000540000000000000000
#017351:0000001300002300
#017321:00000000000000000053000000000000
#019321:0013
#019351:00000023
#0193b1:0000000000000013
#020381:0053000000000000
#0203b1:0000002300000000
#021381:0000001300002300
#0213b1:00000000000000000053000000000000
#0233b1:0013
#023381:00000023
#023321:0000000000000013
#024351:0053000000000000
#024321:0000002300000000
#0253b1:1333
#025381:00330023
#0293b1:1323
#029381:00330000
#029321:0000000000000013
#030351:0033000000000000
#030321:0000002300000000
#032321:0014
#032331:0000000000340000
#032341:00000034
#032351:0000000000000034
#033361:24
#036321:1424
#036351:00340000
#036381:00000013
#0373b1:23
#0413a1:0000001400000024
#041371:0000000000340000
#043321:0000001400000024
#043351:0000000000340000
#045321:13
#045331:0034
#046351:35
#046331:0034
#047321:23
#047331:00000000000014545454240000000000
#047321:0000000000000000000000000054000000540000000000000000000000000000
#047341:0000000000000000000000000000005400000054000000000000000000000000
#049351:13
#049321:0000002300000000
#0533b1:13000033
#053381:0000003300000033
#054381:00230000
#0563b1:13003333330000000000000000000000
#056381:00000000000033333300330023000000
#057321:13000033
#057351:0000003300000033
#058351:00230000
#060321:13003333330000000000000000000000
#060351:00000000000033333300330023000000
#061321:1333
#061351:00330023
#065321:1323
#065351:00330000
#0653b1:0000000000000013
#066381:0033000000000000
#0663b1:0000002300000000
#0693a1:14
#069381:00540054
#069361:0054
#0703a1:34
#070381:00540054
#070361:0054
#0713a1:24
#071320:14
#071340:00540054
#071360:0054
#072320:34
#072340:00540054
#072360:0054
#073320:24
#0733a1:14
#073381:00540054
#073361:0054
#0743a1:24
#074320:14
#074340:00540054
#074360:0054
#075320:24
#0753a1:14
#075381:00540054
#075361:0054
#0763a1:24
#076320:14
#076340:00540054
#076360:0054
#077320:24
#0783a0:14343424
#078380:0054005400540000
#079320:14343424
#079340:0054005400540000
#085350:13230000
#0853b1:13230000
#0893a1:1424
#089371:00340000
#089351:00000013
#090321:23
#094321:0000001400000024
#094351:0000000000340000
#0963a1:0000001400000024
#096371:0000000000340000
#0983b1:13
#098391:0034
#099361:35
#099391:0034
#1003b1:23
#100391:00000000000014545454240000000000
#1003a1:0000000000000000000000000054000000540000000000000000000000000000
#100381:0000000000000000000000000000005400000054000000000000000000000000
#1023a1:1400003400000024
#102371:0000000000340000
#104321:1400003400000024
#104351:0000000000340000
#1063a1:14
#106371:00340000
#106391:0035
#106361:00000035
#107391:25
#107320:1535
#107350:00350034
#108320:24
#108330:00000000000014545454240000000000
#108320:0000000000000000000000000054000000540000000000000000000000000000
#108340:0000000000000000000000000000005400000054000000000000000000000000
