This file was generated by Ched 2.7.0.0.
#TITLE ""
#ARTIST ""
#DESIGNER ""
#DIFFICULTY 0
#PLAYLEVEL
#SONGID ""
#WAVE ""
#WAVEOFFSET 0
#JACKET ""
#REQUEST "ticks_per_beat 480"
#00002: 4
#BPM01: 172
#00008: 01
#TIL00: ""
#HISPEED 00
#MEASUREHS 00
#0781f:11
#0781c:1212
#07818:00120012
#06218:0000000000000012
#0621a:0013000000001200
#0621c:0000000000120000
#06213:0000000000000013
#06215:00000013
#06217:0000000000130000
#0621b:0000001300000000
#02019:00120000000000000000000000000000
#02012:1300002300131300
#0201b:0000001300130000
#02015:00120000
#02018:00000012000000000000000000000000
#02016:0012000013000000
#02017:00000013
#0231b:13
#02317:0000130000001313
#02319:0000001300000000
#02312:1300130000001313
#02314:0000001300000000
#0241b:1300001300130000
#02415:00120000000000000000000000130013
#02417:0013
#02412:0000001300130000
#02419:00120000
#02416:00000012000000000000000000000000
#02418:0012000000001313
#10815:00001600000000001616000000000000
#10814:0000000000000000000000000000000000000018000000000000000000000000
#10817:0000000000000000000000000000001200000000000000000000000000000000
#10813:00000000000000000000000000000000001a0000000000000000000000000000
#10816:0000002100000014
#1081b:0000000000001313
#10812:26150013
#10819:00150000
#10818:26
#01318:1414141400000000
#01317:00140000001400000000000000001300
#01315:00000014000000140000000000000000
#01314:1414141400000000
#01313:00140000001400000000000000000000
#01319:00000014000000140000000000000000
#01312:00000013
#0131a:0000000000002424
#01310:41
#06516:1400000000001414
#06512:00000013
#0651b:0000000000130000
#02916:1400000000001414
#0291b:00000013
#02912:0000000000130000
#02910:41
#1071a:2414241424142414
#10712:28
#10714:00260000
#10716:0024
#10718:00000022
#02612:0000001300120000
#02613:0013000000000000
#02616:0000000000130012
#02614:00000012
#0261a:0000000000000013
#02618:00000013
#02514:0000000000000013
#02517:0000000000130000
#02518:13
#02512:00000013
#0251b:00000013
#06016:0013000000130000
#0601b:00000013000000000000130000000000
#06017:1300001300000000
#06012:13000000000000130000000000000000
#06015:00261626
#06014:00000000000000000000000000330033
#05916:0000000000000013
#0591b:1300130013000013
#05912:1300001300001300
#05918:0000000000130000
#05915:00261326
#05718:0000000000000013
#05716:13000000000000000013000000000000
#0571b:0000001300000000
#05712:13261326
#0581b:00131313
#05817:0000001313130013
#05815:13
#05812:00260026
#0761a:14
#07613:0012
#07616:00000000000000000000000000001214
#07619:00000000000000000014000000000000
#07617:00000000000000000000000000140000
#07614:0000000000120000
#07618:00000000000016000000001400000000
#07612:2816000000000000
#07615:00160012
#07519:00130013
#07512:14161416
#0751a:0024
#07516:28
#07414:00130013
#0741a:1414
#07418:00160016
#07412:2824
#0991b:0000000000001313
#09912:1616000014140000
#09919:0000151500000000
#0981a:0000141400000000
#09812:2313000015150000
#09818:0000000000001616
#05617:0013000000130000
#05612:00000013000000000000130000000000
#05616:1300001300000000
#0561b:13000000000000130000000013000000
#05615:00261626
#04618:1616000014140000
#04613:0000151500000000
#04615:0000000000001313
#0921b:13000000130000001300000000130000
#09217:0013001300130000
#09216:13131313
#09212:0013000000000013
#09012:24130013
#09016:0000000000141313
#0901a:14
#09017:0000131313000000
#0901b:0013
#09112:0000130000181300
#09116:2300000013000018
#0911b:13131300
#09117:00000013
#08816:14
#0881b:0023000000000000
#08812:0024242424242424
#08917:00001400000000000000001400140014
#08915:0000001400141414
#08912:2424
#08918:00240000
#03912:13000000130000001300000000130000
#03916:0013001300130000
#03917:13131313
#0391b:0013000000000013
#01812:0013130013001300
#0181b:0000001300130013
#01817:0000130013131313
#09715:00000000000000000000000000000014
#09717:00000000000000000000000000140000
#09714:00000013
#09712:1300130023000013
#09719:00000000000000000000001400000000
#09716:0000141400130000
#0971b:0013001323000000
#04512:0000000000001616
#04518:2313000015150000
#04514:0000141400000000
#08619:0000001300130013
#0861b:00130013
#08617:0013
#08614:0000001400140014
#08616:00140014
#08612:2614
#0861f:21
#08618:26
#10512:1400000027140000
#10517:00170000
#10518:00000000000000000000000000000014
#10519:00000000000000000000000000140000
#10514:0000000000000014
#10513:00000014
#1051a:00000000000000000000001400000000
#04814:00000014001400140000000000000000
#04812:1324
#04818:0014141400000000
#0481b:13
#0481a:0024
#04317:0000000000000013
#04312:1600130000000024
#04316:00000013000024000000000000000000
#04319:00000013
#0431b:1300000000130000
#04314:0000000000240000
#04116:0000002400000013
#0411b:00130000
#04112:2300000000130000
#04114:00000013
#04117:00000013000000000000000000000000
#0411a:0000000000000024
#04118:2600000000240000
#04110:41
#04015:00001300000000130000130000000013
#04018:26000013000013002600001300001300
#0401b:00230023
#04012:23262326
#04417:00000000000000000000130000000014
#04415:00000000000000000000000000140000
#04419:00000013
#0441b:1300130023000013
#04412:0013001323000000
#04416:0000141400000000
#04413:00000000000000000000001400000000
#04216:0000141400141400
#0421b:0013001300130013
#04212:13131313
#03116:1414141414001400
#03118:0000000000260026
#03112:2400000024260026
#0311a:00240000
#09616:0000002400000013
#0961b:00130000
#09617:00000013000000000000000000000000
#09614:00000013
#09612:2300000000130000
#09618:2600000000240000
#0961a:0000000000000024
#09417:0000000000000013
#09412:2600130000000024
#0941b:2300000000130000
#09419:00000013
#09416:00000013000024000000000000000000
#09414:0000000000240000
#08412:00000000000000001400140000130013
#0841b:0000000000001313
#0841a:1414000000000000
#08416:2424000024240000
#08312:13001313
#08317:1300131313130000
#0831b:0000232300002300
#0821b:13001313
#08216:0000131313130000
#08212:0000232300002300
#0811c:1212
#08117:12121200
#08112:00120013
#0801b:0000001212000000
#0801c:0000000000000012
#08019:00000012
#08016:0000000000120000
#08013:0012
#08015:0012000000000000
#08018:00120000
#08012:12
#06716:1414141414001400
#06712:0000240000260026
#06718:0000000000260026
#0671a:2424
#09318:00001300260000130000130026000013
#09315:00000013000013000000001300001300
#09312:26232623
#0931b:2323
#10016:0014000000000013
#1001b:0000130000001313
#10012:00130013
#10018:23
#10015:23
#1001a:0000002200000000
#10013:0000002200000000
#09516:0000141400141400
#09512:0013001300130013
#0951b:13131313
#06119:0000000000000013
#0611b:1300000000000000000000130000000000000000000000001300000000000000
#06112:00130013
#06116:0000130000130000
#06117:0000000000000000000000130000000000000000000000000000000000000000
#06815:0000000000140000
#0681a:0000000000000000000000000000000014343434003434340000000000000000
#06816:14140000
#06812:0026002600001600
#06818:0026002600000000
#06612:0000000000140014
#0661a:0000000000140000
#06616:00000014
#06416:0000000000140014
#06415:0000001200000000
#06417:12120000
#0641b:0000001300001313
#06412:0013000000001300
#06419:0012000000000000
#06312:2313000023130000
#06317:00000012
#0631b:0000231300000013
#06315:0000000000000012
#05517:0000000000000013
#05512:1300130013000013
#0551b:1300001300001300
#05515:0000260000132600
#05518:0013
#0501c:00000000000000000000000000000012
#0501a:00000000000000000000000000120000
#05016:00001300180013000012000014000000
#05018:00000000000000000000001200001400
#0501b:0013001300000000
#05014:0000000000140000
#05012:0014
#0521b:0000001313000013
#05215:00000000000000000000141414000000
#05212:0000001313000013
#05217:00001414140000000000000000000000
#04914:0013000000130000
#04919:00131300
#04916:0000130013000013
#04917:0013000000130000
#0491b:1300001300001300
#04912:2400002400002424
#05112:0012120012120000
#05115:1300001300001313
#05118:0000000000002626
#05119:0000002500000000
#0511a:24
#0221b:0013130013001300
#02216:0000130013131313
#02212:0000001300130013
#01717:0013
#01714:0000001300000000
#0171b:00131300
#01718:2300001300000000
#01716:0000000000001313
#01712:00130013
#01715:23
#01412:00001300180013000000000000000012
#01414:00000000000000000000000000121400
#01416:00000000000000000000001214000000
#01418:00000000000000000012140000000000
#0141a:0014
#01417:0013001300000000
#0101c:00000000000000000000000000000012
#0101a:00000000000000000000000000120000
#01016:00001300180013000012000014000000
#01018:00000000000000000000001200001400
#0101b:0013001300000000
#01014:0000000000140000
#01012:0014
#0161b:0000001313000013
#01612:0000001313000013
#01617:00000014000000000000140014000000
#01615:00001400140000000000001400000000
#0151c:0012120012120000
#01518:1300001300001313
#01512:2400002500002626
#0121b:0000001313000013
#01215:00000014000000000000140014000000
#01212:0000001313000013
#01217:00001400140000000000001400000000
#00914:0013000000130000
#00919:00131300
#00916:0000130013000013
#00917:0013000000130000
#0091b:1300001300001300
#00912:2400002400002424
#00716:0014000000000000
#00718:0000000000000013
#00719:00130014
#0071a:0000001300140000
#0071b:0013
#00715:0000000000000013
#00713:0000001300001400
#00712:2400000013140000
#00714:00130000
#08712:0000131300001313
#0871b:0000000013130000
#08717:23
#08710:41
#07218:00140014
#0721a:0014
#07216:14
#07212:24
#07118:00140014
#0711a:0014
#07116:1414
#07116:0014
#07114:00140014
#07112:14
#07012:14
#07014:00140014
#07016:2414
#03516:14
#0351a:0024242424242424
#02117:0000000000001313
#0211b:00130013
#02116:0013
#02119:0000001300000000
#02112:00131300
#02115:1300001300000000
#02118:13
#00412:12000000000000120000000000000000
#0041c:00000000120000000000001200000000
#00418:1200001212000000
#00416:0000000000121200
#0031b:1200000000000012
#00319:00121200
#00318:00000012
#00315:0000000000120000
#00312:0012
#0031c:0000001200000000
#00316:0012000000000000
#00313:12
#10916:24000014140014140000130000000000
#10912:23000000001400000014001400000014
#1091a:0014000024001414
#10917:00000000000000000000000000130000
#10612:2414241424142414
#10616:22242628
#10312:00170017
#10316:0000000000000012
#10317:0017
#1031a:14
#10412:2414
#10417:0014000000000000
#10416:0000142400001424
#1041a:2400000000240000
#1021a:2414
#10215:0014000000000000
#10216:0000142400001424
#10212:2400000000240000
#10116:00000000000000002400140000140014
#1011a:00000000000000000014001400000000
#1011b:13
#10118:00000014001400140000000000000000
#10114:0014141400000000
#10112:2400000000002414
#08518:1313000000000000
#08515:00130013000000000000000000000000
#08512:00130000
#0851b:00130000
#07319:00130013
#07312:14161416
#0731a:0024
#07316:24
#07310:41
#06918:00140014
#0691a:0014
#06916:1414
#06912:14
#06914:00140014
#05315:0000000000000013
#05317:13000000000000000013000000000000
#05312:0000001300000000
#0531b:1313
#05318:00260026
#05310:41
#05412:00131313
#05416:0000001313130013
#05418:13260026
#04717:0000000000000013
#04716:0014000000000000
#04712:1300130000001313
#0471b:13130013
#0471a:0000002200000000
#04713:0000002200000000
#03217:0000000000140000
#03212:0000000026000000000000002600000014343434003434340000000000000000
#03216:14140000
#03218:0026002600001600
#03812:1300130013000018
#0381b:00130013
#03817:1313
#03816:0000000000181300
#03712:1413
#0371b:00130013
#03716:0000131313140000
#03717:0000000000001313
#0371a:24
#03615:00001400000000000000001400140014
#03617:0000001400141414
#03614:00140000
#0361a:1414
#03414:00000000000000000018000000000000
#03416:1324
#03418:00000024
#03417:00230000
#03412:00230000
#03314:0000001300130013
#03312:14130013
#03316:00141314
#03318:0000001400140014
#0331a:2414
#0301a:0000000000140014
#03012:0000000000140000
#03016:00000014
#02816:0000000000140014
#02819:0000001200000000
#02817:12120000
#02812:0000001300001313
#0281b:0013000000001300
#02815:0012000000000000
#0271b:2313000023130000
#02717:00000012
#02712:0000231300000013
#02719:0000000000000012
#0191b:1300130000001313
#01919:0000001300000000
#01914:0000002300000000
#01916:0000230000002323
#01912:2323
#01112:0012120012120000
#01115:1300001300001313
#01118:0000000000002626
#01119:0000002500000000
#0111a:24
#00518:0000000000000013
#00514:0000001300130000
#00516:13130013
#00512:2213
#00618:00000000000000000000000000000013
#00615:0000000000000013
#00617:13130013
#0061a:24000000000000000000000000130000
#00619:0000001300130000
#0061b:0013
#0021b:00121212
#00216:0000000000120000
#00213:00121212
#00218:0000001200000012
#0011b:0000000000120012
#00118:00121212
#00113:0000001200000012
#00116:00121212
#0011c:12
#00112:12
#07912:0012
#07916:00120012
#00817:0012
#00812:26
#00818:26
#0771a:24
#07712:24
#11012:2c
#01354:5454545414000000
#01358:5454545414000000
#01357:00240000002400000000000000000000
#01355:00000024000000240000000000000000
#01353:00240000002400000000000000000000
#01359:00000024000000240000000000000000
#06656:0000003400000000
#0665a:0000003400000000
#06556:0044
#06552:0044
#03056:0000004400000000
#03052:0000004400000000
#08957:4324000000000000
#08954:00340000
#0895a:0044
#08952:5434
#08958:00640000
#08955:0000002400000000
#03656:33
#03652:0034
#03658:00440000
#03654:00540000
#03655:0024000000000000
#0365a:6444
#03657:0000002400000000
#06152:33530000
#06159:0000000000000043
#06157:0000000000000000000000230000000000000000000000000000000000000000
#0615b:5300000000000000000000230000000000000000000000000000000000000000
#06156:00530000
#02956:0034
#0295a:0034
#08658:16
#08652:1624
#08654:0000006400640064
#08656:00240024
#09652:63
#09658:46
#09657:00000023000000000000000000000000
#08757:13
#09156:13
#1075a:44444444
#07652:38
#0755a:0044
#07556:48
#07552:64266426
#07452:3834
#0745a:5454
#07458:00260026
#0735a:0044
#07356:44
#07352:64266426
#07252:44
#07258:00540064
#0725a:0024
#07256:24
#07056:4424
#07052:24
#07054:00640064
#10058:13
#10055:13
#1005a:0000006200000000
#0475a:0000006200000000
#04752:13
#0475b:13
#04058:4646
#04052:00360036
#04152:63
#04158:46
#04157:00000023000000000000000000000000
#06858:0000004600000000
#06852:0036000000000000
#06855:0000000000240000
#0685a:0064
#06758:0000000000000046
#0775a:44
#07752:34
#10852:36
#10858:46
#10855:00000000000000006666000000000000
#10854:0000000000000000000000000000000000000028000000000000000000000000
#10857:0000000000000000000000000000006200000000000000000000000000000000
#10853:00000000000000000000000000000000002a0000000000000000000000000000
#10652:34343434
#10452:64
#1045a:14
#10457:0024000000000000
#1025a:54
#10252:14
#10255:0024000000000000
#09052:14
#09352:3636
#09358:00460046
#0945b:53
#09452:36
#09456:00000023000000000000000000000000
#0375a:14
#03456:1354
#03454:00000000000000000028000000000000
#00752:14
#0065a:14
#00657:63
#00552:12
#00556:53
#11052:4c
#0335a:1424
#03358:0000005400540054
#03356:00240024
#03252:0000003654000000
#03258:0046000000000000
#03257:0000000000240000
#03152:0000000000000036
#02652:0000003300000000
#02653:0033000000000000
#02554:0000000000000033
#05756:63000000000000000023000000000000
#0575b:0000006300000000
#0925b:00535300
#09257:0053005300530000
#09256:00535300
#03952:00636300
#03956:0063006300630000
#03957:00636300
#04356:00000023000000000000000000000000
#04352:36
#0435b:53
#0625b:0000004300000000
#0625a:0043000000000000
#0645b:0000004300000000
#06452:0033000000000000
#0635b:0000000000000043
#05155:0000000000003333
#01757:0023
#01754:0000006300000000
#0175b:0023
#01758:0000005300000000
#01558:0000000000004343
#07158:00640064
#0715a:0024
#07156:2424
#07156:0024
#07154:00540054
#07152:24
#00452:52
#00456:00000052
#06958:00640064
#0695a:0024
#06956:2424
#06952:24
#06954:00640064
#05357:53000000000000000023000000000000
#05352:0000005300000000
#02156:0023
#02159:0000005300000000
#02152:0023
#02155:0000006300000000
#02452:0000001300000000
#0205b:0000001300000000
#0015b:0000000000220022
#00158:00626262
#00153:0000002200000022
#00156:00525252
#08152:00000063
#03857:13
#00857:0042
#08552:00330000
#0855b:00430000
#02852:0000003300000000
#0285b:0043000000000000
#02752:0000000000000033
#01155:0000000000003333
#001380:00123232
#0013b0:0000000000320032
#002380:22
#001361:00123232
#001331:0000003200000032
#002361:22
#004321:12
#004361:00220000
#004361:00000012
#005321:22
#005360:13
#0053b0:00530023
#006370:13
#006320:00530023
#013340:1454545424000000
#013330:00540000005400000000000000000000
#013350:00000054000000540000000000000000
#013381:1454545424000000
#013371:00540000005400000000000000000000
#013391:00000054000000540000000000000000
#017341:0000001300000000
#017371:0053
#017321:0000000000230000
#017380:0000001300000000
#0173b0:0053
#017360:0000000000230000
#0173b0:0000000000000013
#0183b0:0023000000000000
#019320:0013
#019360:0000000000230000
#019371:0013
#0193b1:0000000000230000
#021391:0000001300000000
#021361:0053
#0213b1:0000000000230000
#021350:0000001300000000
#021320:0053
#021370:0000000000230000
#021320:0000000000000013
#022320:0023000000000000
#0233b0:0013
#023370:0000000000230000
#023361:0013
#023321:0000000000230000
#025351:13330000
#025321:00000000005300002300000000000000
#025380:00130000
#0253b0:00000000005300002300000000000000
#025370:0000000000000013
#0253b0:00000000000000000000000000000053
#0263b0:23
#026360:0013000000000000
#0263a0:00000053230000000000000000000000
#026350:0000001300000000
#026390:00000000000000532300000000000000
#027370:1222000000000000
#027370:0000122200000000
#027370:0000000012220000
#0293a0:14000000005400002400000000000000
#029360:00540000340000000000000000000000
#029321:00140000
#029361:00000000005400002400000000000000
#029321:0000000000000014
#029361:00000000000000000000000000000054
#030361:0034000000000000
#030321:00000054000024000000000000000000
#0303a0:0014000000000000
#030360:00000054000024000000000000000000
#032320:0000000000000000000000000000000014343434003434342400000000000000
#032370:0000000000340000
#033360:00140034
#033380:0000005400540054
#0333a0:0034
#0343a0:24
#034370:000000000000000000000000000000000000000000000000000000000000000000000000000000000000000000000000000000000000000000000000000000000000000000000000000000000000000000000000000000000000000000000000000000000000000000000000000000000000000000000000000000000000000000000000000000000000000000000000000000000000000000000000000000000000000000000000000000000000000000000000000000000000000000000000000000000000000000000000000000000000000000000000000000000000000000000000000000000000000000000000130000000000000000000000000000000000000000000000000000000000000000000000000000000000005300000000000000000000000000000000000000000000000000000000000000000053000000000000000000000000000000000000000000000000000000000000000000000000000000000000230000000000000000000000000000000000000000000000000000000000000000000000000000000000000000000000000000000000000000000000000000000000000000000000000000000000000000000000000000000000000000000000000000000000000000000000000000000000000000000000000000000000000000000000000000000000000000000000000000000000000000000000000000000000000000000000000000000000000000000000000000000000000000000000000000000000000000000000000000000000000000000000000000000000000000000000000000000000000000000000000000000000000000000000000000000000000000000000000000000000000000000000000000000000000000000000000000000000000000000000000000000000000000000000000000000000000000000000000000000000000000000000000000000000000000000000000000000000000000000000000000000000000000000000000000000000000000000000000000000000000000000000000000000000000000000000000000000000000000000000000000000000000000000000000000000000000000000000000000000000000000000000000000000000000000000000000000000000000000000000000000000000000000000000000000000000000000000000000000000000000000000000000000000000000000000000000000000000000000000000000000000000000000000000000000000000000000000000000000000000000000000000000000000000000000000000000000000000000000000000
#034350:000000000000000000000000000000000000000000000000000000000000000000000000000000000000000000000000000000000000000000000000000000000000000000000055000000000000005500000000000000000000000000000000000000000000000000000000000000000000000000000000000000000000000000000000000000000000000000000000000000000000000000000000000000000000000000000000000000000000000000000000000000000000000000000000000000000000000000000000000000000000000000000000000000000000000000000000000000000000000000000000
#034321:000000000000000000000000000000000000000000000000000000000000000000000000000000000000000000000000000000000000000000000000000000000000000000000000000000000000000000000000000000000000000000000000000000000000000000000000000000000000000000000000000000000000000000000000000000000000000000000000000000000000000000000000000000000000000000000000000000000000000000000000000000000000000000000000000000000000000000000000000000000000000000000000000000000000000000000000000000000000000000000000130000000000000000000000000000000000000000000000000000000000000000000000000000000000000053550000000000000000000000000000000000000000000000000000000000555300000000000000000000000000000000000000000000000000000000000000000000000000000000000000230000000000000000000000000000000000000000000000000000000000000000000000000000000000000000000000000000000000000000000000000000000000000000000000000000000000000000000000000000000000000000000000000000000000000000000000000000000000000000000000000000000000000000000000000000000000000000000000000000000000000000000000000000000000000000000000000000000000000000000000000000000000000000000000000000000000000000000000000000000000000000000000000000000000000000000000000000000000000000000000000000000000000000000000000000000000000000000000000000000000000000000000000000000000000000000000000000000000000000000000000000000000000000000000000000000000000000000000000000000000000000000000000000000000000000000000000000000000000000000000000000000000000000000000000000000000000000000000000000000000000000000000000000000000000000000000000000000000000000000000000000000000000000000000000000000000000000000000000000000000000000000000000000000000000000000000000000000000000000000000000000000000000000000000000000000000000000000000000000000000000000000000000000000000000000000000000000000000000000000000000000000000000000000000000000000000000000000000000000000000000000000000000000000000000000000000000000000000000000000000
#034361:0000000014240000
#034341:00000000000000000058000000000000
#034381:000000000000000000000000000000000000000000000000000000000000000000000000000000000000000000000000000000000000000000000000000000000000000000000000000000000000000000000000000000000000000000000000000000000000000000000000000000000000000000000000000000000000000000000000000000000000000000000000000000000000000000000000000000000000000000000000000000000000000000000000000000000000000000000000000000000000000000000000000000000000000000000000000000000000000000000000000000000000000000000000000000000000000000000000000000000000000000000000000000000000000000000000000000000000000000000000000000000000000000000000000000000000000000000000000000000000000000000000000000000000000000000000000000000000000000000000000000000000000000000000140000000000000000000000000000000000000000000000000000000000000000000000005400000000000000000000000000000000000000000000000000000000000000000000000000000000000000000000000000000000000000000000000000000000000000000000000000000000000000000000
#034361:00000000000000000000000000000000000000000000000000000000000000000000000000000000000000000000000000000000005800002800000000000000
#035321:000000000000000000000000000000000000000000000000130000000000000000000000000000000000000000000000000000000000000000530000000000000000000000000000003300000000000000000000000000000000000000000000000000000000000000530000000000000000000000000000330000000000000000000000000000000000000000000000000000000000000000530000000000000000000000000000330000000000000000000000000000000000000000000000
#035361:000000000000000000000000000000000000000000000000000000000000000000530000000000000000000000000000330000000000000000000000000000000000000000000000000000000000000000530000000000000000000000000033000000000000000000000000000000000000000000000000000000000000000000530000000000000000000000000000330000000000000000000000000000000000000000000000000000000000000000530000000000000000000000000000
#036361:23
#0363a0:14
#036350:0054000000000000
#036380:00240000
#036341:00140000
#036371:0000005400000000
#036321:0024
#039361:0013003300330000
#039321:00333323
#039370:00130000
#0393b0:0000002300000000
#039370:0013
#0393b0:0000000000230000
#041321:1300002300000000
#041371:00000053000000000000000000000000
#0433b1:1300002300000000
#043361:00000053000000000000000000000000
#045351:1323000000000000
#045381:0000142400000000
#045331:0000000015250000
#045381:0000000000001626
#046321:1626000000000000
#046381:0000152500000000
#046341:0000000014240000
#046381:0000000000001323
#0473a1:0000001200000000
#047391:00000000000000540000240000000000
#047330:000000000000000000000000000000000000000000000000000000000000000000000000000000000000000000000000000000000000000000000000000000000000000000000000000000000000000000000000000000000000000000000000000000000000000000000000000000000000000000000000000000000000000000000000000000000000000000000000000000000000000000000000000000000000000000000000000000000000000000000000000000000000000000000000000000000000000000000000000000000000000000000000000000000000000000000000000000000000000000000000000000000000000000000000000000000000000000000000000000000000000000000000000000000000000000000000000000000000000000000000000000000000000000000000000000000000000000000000000000000000000000000000000000000000000000000000000000000000000000000000120000000000000000000000000000000000000000000000000000000000000000000000000000000000000000000000000000000000000000000000000000000000000000000000000000000000000000000000000000000000000000000000000000000000000000000000000000000000000000000052540000000000000000000000000000000000000000000000000000000000000000000000000000005452000000000000000000000000000000000000000000000000000000000000000000000000005254000000000000000000000000000000000000000000000000000000000000000000000000000000240000000000000000000000000000000000000000000000000000000000000000000000000000000000000000000000000000000000000000000000000000000000000000000000000000000000000000000000000000000000000000000000000000000000000000000000000000000000000000000000000000000000000000000000000000000000000000000000000000000000000000000000000000000000000000000000000000000000000000000000000000000000000000000000000000000000000000000000000000000000000000000000000000000000000000000000000000000000000000000000000000000000000000000000000000000000000000000000000000000000000000000000000000000000000000000000000000000000000000000000000000000000000000000000000000000000000000000000000000000000000000000000000000000000000000000000000000000000000000000000
#053370:13
#053320:0053230000000000
#053320:0000001300002300
#053370:00000000000000000053000000000000
#057360:13
#0573b0:0053230000000000
#0573b0:0000001300002300
#057360:00000000000000000053000000000000
#060320:00000013
#060340:00000000000000000000000000330033
#060370:0000000000000033
#061320:23
#0613b1:1300000000000000000000530000000000000000000000000000000000000000
#061361:0000005300000000330000000000000023000000000000000000000000000000
#061320:00132300
#061370:0000000000000000000000530000000000000000000000000000000000000000
#061360:0000000000000013
#061320:00000000000000000000000000000053
#062320:23
#062370:0013000000000000
#062330:00000053230000000000000000000000
#062380:0000001300000000
#062340:00000000000000532300000000000000
#063370:1222000000000000
#063370:0000122200000000
#063370:0000000012220000
#065320:14000000005400002400000000000000
#065360:00540000340000000000000000000000
#0653a1:00140000
#065361:00000000005400002400000000000000
#0653a1:0000000000000014
#065361:00000000000000000000000000000054
#066361:0034000000000000
#0663a1:00000054000024000000000000000000
#066320:0014000000000000
#066360:00000054000024000000000000000000
#0683a0:0000000000000000000000000000000014343434003434342400000000000000
#068350:0000000000340000
#069360:14
#069380:00540054
#0693a0:0054
#070360:24
#069321:14
#069341:00540054
#069361:0054
#070321:54
#070341:00540054
#070361:0054
#071321:54
#071341:00540054
#071361:0054
#072321:24
#071360:14
#071380:00540054
#0713a0:0054
#072360:54
#072380:00540054
#0723a0:0054
#073360:24
#073321:140000000000000000000000000000000000000000000000000000000000000000000000000000000000000000000000000000000000000000000000000000000000000000000000000000000000000000000000000000000000000000000000000000000000000000000000000000000000000000000000560000000000000000000000000000000000000000000000000000000000000000000000000000000000000000000000000000000000000000000000000000000000000000000000000000000000000000000000000000000000000000000000000000000000000000000000000000000000000000000058540000000000000000000000000000000000000000000000000000000000000000000000000000000000000000000000000000000000000000000000000000000000000000000000000000000000000000000000000000000000000000000000000000000000000000000000000000000000000000000000560000000000000000000000000000000000000000000000000000000000000000000000000000000000000000000000000000000000000000000000000000000000000000000000000000000000000000000000000000000000000000000000000000000000000000000000000000000000000000000000
#074321:28
#0743a0:1454
#074380:00560056
#074360:000000000000000000000000000000000000000000000000000000000000000000000000000000000000000000000000000000000000000000000000000000000000000000000000000000000000000000000000000000000000000000000000000000000000000000000000000000000000000000000000000000000000000000000000000000000000000000000000000000000000000000000000000000000000000000000000000000000000000000000000000000000000000000000000000000000000000000000000000000000000000000000000000000000000000000000000000000000000000000000058000000000000000000000000000000000000000000000000000000000000000000000000000000000000000000000000000000000000000000000000000000000000000000000000000000000000000000000000000000000000000000000000000000000000000000000000000000000000000000000000000000000000000000000000000000000000000000000000000000000000000000000000000000000000000000000000000000000000000000000000000000000000000000000000000000000000000000000000000000000000000000000000000000000000000000000000000000000000000000000000
#075360:28
#075321:140000000000000000000000000000000000000000000000000000000000000000000000000000000000000000000000000000000000000000000000000000000000000000000000000000000000000000000000000000000000000000000000000000000000000000000000000000000000000000000000560000000000000000000000000000000000000000000000000000000000000000000000000000000000000000000000000000000000000000000000000000000000000000000000000000000000000000000000000000000000000000000000000000000000000000000000000000000000000000000058540000000000000000000000000000000000000000000000000000000000000000000000000000000000000000000000000000000000000000000000000000000000000000000000000000000000000000000000000000000000000000000000000000000000000000000000000000000000000000000000560000000000000000000000000000000000000000000000000000000000000000000000000000000000000000000000000000000000000000000000000000000000000000000000000000000000000000000000000000000000000000000000000000000000000000000000000000000000000000000000
#076321:28
#078321:12525252
#078341:0052005200520052
#079321:22
#0793c0:12525252
#0793a0:0052005200520052
#0803c0:22
#081320:00000013
#082360:23
#086360:00140034
#086340:0000005400540054
#086320:0034
#087320:24
#087360:00130000
#0873b0:0000002300000000
#087370:0013
#087320:0000000000230000
#087360:00000013
#0873b0:0000000000000023
#0883b0:000000000000000000000000000000000000000000000000130000000000000000000000000000000000000000000000000000000000000000530000000000000000000000000000003300000000000000000000000000000000000000000000000000000000000000530000000000000000000000000000330000000000000000000000000000000000000000000000000000000000000000530000000000000000000000000000330000000000000000000000000000000000000000000000
#088370:000000000000000000000000000000000000000000000000000000000000000000530000000000000000000000000000330000000000000000000000000000000000000000000000000000000000000000530000000000000000000000000033000000000000000000000000000000000000000000000000000000000000000000530000000000000000000000000000330000000000000000000000000000000000000000000000000000000000000000530000000000000000000000000000
#089370:23
#089321:14
#089371:0054000000000000
#089341:00240000
#089380:00140000
#089350:0000005400000000
#0893a0:0024
#092370:0013003300330000
#0923b0:00333323
#092361:00130000
#092321:0000002300000000
#092361:0013
#092321:0000000000230000
#0943b0:1300002300000000
#094360:00000053000000000000000000000000
#096320:1300002300000000
#096370:00000053000000000000000000000000
#0983b0:1323000000000000
#098320:0000142400000000
#098390:0000000015250000
#098320:0000000000001626
#099380:1626000000000000
#099320:0000152500000000
#0993a0:0000000014240000
#099320:0000000000001323
#1003a0:0000001200000000
#100390:00000000000000540000240000000000
#100331:000000000000000000000000000000000000000000000000000000000000000000000000000000000000000000000000000000000000000000000000000000000000000000000000000000000000000000000000000000000000000000000000000000000000000000000000000000000000000000000000000000000000000000000000000000000000000000000000000000000000000000000000000000000000000000000000000000000000000000000000000000000000000000000000000000000000000000000000000000000000000000000000000000000000000000000000000000000000000000000000000000000000000000000000000000000000000000000000000000000000000000000000000000000000000000000000000000000000000000000000000000000000000000000000000000000000000000000000000000000000000000000000000000000000000000000000000000000000000000000000120000000000000000000000000000000000000000000000000000000000000000000000000000000000000000000000000000000000000000000000000000000000000000000000000000000000000000000000000000000000000000000000000000000000000000000000000000000000000000000052540000000000000000000000000000000000000000000000000000000000000000000000000000005452000000000000000000000000000000000000000000000000000000000000000000000000005254000000000000000000000000000000000000000000000000000000000000000000000000000000240000000000000000000000000000000000000000000000000000000000000000000000000000000000000000000000000000000000000000000000000000000000000000000000000000000000000000000000000000000000000000000000000000000000000000000000000000000000000000000000000000000000000000000000000000000000000000000000000000000000000000000000000000000000000000000000000000000000000000000000000000000000000000000000000000000000000000000000000000000000000000000000000000000000000000000000000000000000000000000000000000000000000000000000000000000000000000000000000000000000000000000000000000000000000000000000000000000000000000000000000000000000000000000000000000000000000000000000000000000000000000000000000000000000000000000000000000000000000000000000
#1023a1:14240000
#102351:0034000000000000
#102321:0000001400000000
#102361:0024
#102361:0000000000140000
#1023a1:00000024
#102321:0000000000000014
#103361:24
#103381:0012000000000000
#1033c1:0000002200000000
#103320:0000001200000000
#103360:0000000000220000
#103381:0000000000120000
#1033c1:0000000000000022
#104321:14240000
#104371:0034000000000000
#1043a1:0000001400000000
#104361:0024
#104361:0000000000140000
#104321:00000024
#1043a1:0000000000000014
#105361:24
#105361:0012000000000000
#105321:0000002200000000
#1053c0:0000001200000000
#105380:0000000000220000
#106360:1222000000000000
#106360:0000142400000000
#106360:0000000016260000
#106360:0000000000001828
#107320:1828000000000000
#107340:0000162600000000
#107360:0000000014240000
#107380:0000000000001222
#108360:0000001100000000
#108370:0000000000000000000000000000005200000000220000000000000000000000
#108350:00000000000000005656000000000000
#108330:00000000000000000000000000000000005a0000000000000000000000000000
#108340:0000000000000000000000000000000000000058000000000000000000000000
