This file was generated by Ched 2.7.0.0.
#TITLE ""
#ARTIST ""
#DESIGNER ""
#DIFFICULTY 0
#PLAYLEVEL
#SONGID ""
#WAVE ""
#WAVEOFFSET 0
#JACKET ""
#REQUEST "ticks_per_beat 480"
#00002: 4
#BPM01: 172
#00008: 01
#TIL00: ""
#HISPEED 00
#MEASUREHS 00
#00714:00140014
#00718:1414
#00814:0014
#00818:24
#00518:14
#00514:0014
#0061a:14
#00612:0014
#0091a:14
#01014:0014
#01018:00000014
#01312:14
#01310:41
#01418:0014
#01414:00000014
#02514:00140000
#02518:0014
#02512:00000014
#0251a:14
#02618:14
#02614:00140000
#0261a:0014
#02712:14
#02718:00140000
#02714:0014
#0271a:00000014
#02814:14
#02818:00140000
#02812:0014
#0171a:1414
#01812:1414
#01918:14
#01914:00140000
#02112:1414
#0221a:1414
#02314:14
#02318:00140000
#03314:00140000
#03318:0014
#03312:00000014
#0331a:24
#0341a:14
#03414:00140000
#03418:0014
#03412:00000014
#0351a:14
#03512:00242424
#03618:1414
#03614:00140000
#03718:00140000
#03714:0014
#0371a:00000014
#03712:24
#03812:14
#03818:00140000
#03814:0014
#0381a:00000014
#03912:14
#0391a:00242424
#04014:14
#04018:00140000
#04012:0014
#0401a:00000014
#04318:14
#04114:14
#04110:41
#04512:14
#04513:0034
#04614:14
#04613:0034
#04714:0014
#04718:00140000
#0471a:00000014
#04812:14
#04818:00140000
#04814:0014
#0481a:00000014
#05018:0014
#05018:0014
#05014:00000014
#04912:14
#05312:14
#0531a:00140000
#05314:0014
#05318:00000014
#05310:41
#05412:14
#0541a:00140000
#05414:0014
#05418:00000014
#06118:00140000
#0611a:00000014
#06114:0014
#06112:24
#06218:00140000
#06212:0014
#06214:14
#0631a:14
#06314:00140000
#06318:0014
#06312:00000014
#06418:14
#06414:00140000
#0641a:0014
#0571a:14
#05712:00140000
#05718:0014
#05714:00000014
#0581a:14
#05812:00140000
#05818:0014
#05814:00000014
#06912:15
#06913:00150015
#06914:0015
#07012:15
#07013:00150015
#07014:0015
#07112:15
#07113:00150015
#07114:0015
#08212:0014
#0821a:14
#08314:0014
#08318:14
#08412:1414
#0841a:1414
#08514:00140000
#08518:14
#08612:00140000
#08618:0014
#08614:00000014
#0861a:24
#0861f:21
#0871a:14
#08712:00140000
#08718:0014
#08714:00000014
#08710:41
#0881a:14
#08812:00242424
#0891a:14
#08914:00140000
#08918:0014
#0901a:00140000
#09014:0014
#09018:00000014
#09012:24
#09112:14
#0911a:00140000
#09114:0014
#09118:00000014
#09212:14
#0921a:00242424
#09312:14
#09318:00140000
#09314:0014
#0931a:00000014
#09412:14
#09516:0014
#09512:00000014
#0951a:00140000
#0961a:14
#09716:0014
#0971a:00000014
#09712:00140000
#09812:14
#09813:0034
#09914:14
#09913:0034
#10014:0014
#1001a:00000014
#10018:00140000
#10112:14000014
#1011a:00140000
#10116:0014
#10316:0014
#1031a:00000014
#10312:00140000
#10516:0014
#10512:00000014
#1051a:00140000
#10718:14
#10719:0034
#10818:0014
#10812:00000014
#10814:00140000
#1091a:14000014
#10912:00140000
#10916:0014
#07918:0014
#08114:0014
#07212:15
#07213:00150000
#07319:15
#07318:00150015
#07317:0015
#07310:41
#07419:15
#07418:00150015
#07417:0015
#07519:15
#07518:00150015
#07517:0015
#07619:15
#07618:00150000
#0421a:00140000
#04216:0014
#04212:00000014
#04412:00140000
#04416:0014
#0441a:00000014
#0781f:11
#01114:24
#01518:24
#03114:2424
#03118:0000240000240000
#03112:0000000000000024
#05118:24
#06718:2424
#06714:0000240000240000
#0671a:0000000000000024
#07712:24
#0771a:24
#1021a:24
#10412:24
#11013:24
#11019:24
#1061a:24
#10619:0034
#0011a:0034
#0021a:34
#00312:0034
#00412:34
#02910:41
#00854:0014
#0095a:64
#01352:54
#0205a:0000001400000000
#02452:0000001400000000
#03252:0000001400000000
#03658:0014
#04358:54
#04154:64
#04552:54
#04654:24
#04952:54
#0685a:0000001400000000
#06954:0025
#06952:25
#06953:00650065
#07052:25
#07053:00650065
#07054:0025
#07152:25
#07153:00650065
#07154:0025
#08554:00140000
#0865a:14
#08958:0014
#09052:14
#09452:54
#0965a:64
#09852:54
#09954:24
#10452:64
#1025a:64
#10758:24
#1065a:54
#07252:25
#07253:00550000
#07359:25
#07358:00550055
#07357:0025
#07459:25
#07458:00550055
#07457:0025
#07559:25
#07558:00550055
#07557:0025
#07659:25
#07658:00650000
#001380:14
#0013a0:0034
#0023a0:3424
#003340:14
#003320:0034
#004320:3424
#0093a0:14
#010380:24
#011340:1400003400003424
#013320:14
#014340:24
#015380:1400003400003424
#019380:0014
#0193a0:0000000000003434
#0203a0:0000002400000000
#023340:0014
#023320:0000000000003434
#024320:0000002400000000
#0293a0:1400000034003434
#029380:00340000
#030380:0034000000000000
#0303a0:0000002400000000
#031320:0000000000000014
#032320:0034002400000000
#041340:14
#042320:24
#043380:14
#0443a0:24
#045320:14
#045330:0034
#046340:34
#046330:0034
#047320:24
#049320:14
#050340:24
#051380:1400003400003424
#055320:14
#055330:00340034
#055340:0034
#056320:34
#056330:00340000
#056340:0024
#0593a0:14
#059390:00340034
#059380:0034
#0603a0:34
#060390:00340000
#060380:0024
#065320:1400000034003434
#065340:00340000
#066340:0034000000000000
#066320:0000002400000000
#0673a0:0000000000000014
#0683a0:0034002400000000
#069320:15
#069330:00550055
#069340:0055
#070320:55
#070330:00550055
#070340:0055
#071320:55
#071330:00550055
#071340:0055
#072320:55
#072330:00550000
#072340:0025
#073390:15
#073380:00550055
#073370:0055
#074390:55
#074380:00550055
#074370:0055
#075390:55
#075380:00550055
#075370:0055
#076390:55
#076380:00550000
#076370:0025
#0783a0:14
#079380:24
#080320:14
#081340:24
#094320:14
#095340:24
#0963a0:14
#097380:24
#098320:14
#098330:0034
#099340:34
#099330:0034
#100320:24
#1023a0:14
#103380:24
#104320:14
#105340:24
#1063a0:14
#106390:0034
#107380:34
#107390:0034
#1083a0:24
