This file was generated by Ched 2.7.0.0.
#TITLE ""
#ARTIST ""
#DESIGNER ""
#DIFFICULTY 0
#PLAYLEVEL
#SONGID ""
#WAVE ""
#WAVEOFFSET 0
#JACKET ""
#REQUEST "ticks_per_beat 480"
#00002: 4
#BPM01: 195
#00008: 01
#TIL00: ""
#HISPEED 00
#MEASUREHS 00
#0001a:14
#00114:14
#00218:14
#00312:14
#0041a:14
#00514:14
#00618:14
#00712:14
#0081a:14
#0091a:14
#01014:14
#01114:14
#01218:14
#01318:14
#01412:14
#01512:14
#0201a:14
#02014:0014
#02010:41
#02118:14
#02112:0014
#02518:16
#02512:0016
#02918:16
#02912:0016
#03018:16
#03012:0016
#03118:16
#03112:0016
#03312:16
#03318:0016
#03712:16
#03718:0016
#04018:0016
#04112:16
#04118:0016
#04418:16
#04412:0016
#04410:41
#04518:16
#04512:0016
#04812:14
#04918:14
#05014:14
#0511a:14
#05212:14
#05318:14
#0561a:14
#05610:41
#05714:14
#06012:14
#06118:14
#0641a:14
#06514:14
#06812:14
#06918:14
#0841a:14
#08414:0014
#08518:14
#08512:0014
#08918:16
#08912:0016
#08910:00410000
#09318:16
#09312:0016
#09418:16
#09412:0016
#09518:16
#09512:0016
#09712:16
#09718:0016
#10112:16
#10118:0016
#10418:0016
#10512:16
#10518:0016
#10818:16
#10812:0016
#10918:16
#10912:0016
#11212:14
#11318:14
#11414:14
#1151a:14
#11612:14
#11718:14
#0721f:0011000000000000
#01813:24
#02312:0026
#02712:0026
#03218:26
#03210:41
#03518:0026
#08213:24
#08712:0026
#09112:0026
#09618:26
#09918:0026
#0881f:00210000
#07010:41
#016390:14
#017390:24
#018330:14343434
#019330:24
#0223a0:1400000000000024
#023320:00001636
#024320:36260000
#026380:1636
#027380:26
#027320:00001636
#028320:36260000
#032380:16260000
#034320:1636
#035320:26
#035380:00001636
#036380:36260000
#038320:16
#038330:0036
#039340:36
#039330:0036
#040320:26
#042320:1636
#043320:26
#046380:1636
#047380:26
#054340:1400000000000024
#0583a0:14
#0593a0:24
#062320:14
#063320:24
#066380:14
#067380:24
#070340:14
#071340:24
#0723a0:14
#073380:34
#074380:34
#0753a0:24
#076320:14
#077340:34
#078340:34
#079320:24
#080390:14
#081390:24
#082330:14343434
#083330:24
#0863a0:1400000000000024
#087320:00001636
#088320:36260000
#090380:1636
#091380:26
#091320:00001636
#092320:36260000
#096380:16260000
#098320:1636
#099320:26
#099380:00001636
#100380:36260000
#102320:16
#102330:0036
#103340:36
#103330:0036
#104320:26
#106320:1636
#107320:26
#110380:1636
#111380:26
#118340:1400000000000024
#1203a0:14
#1243a0:24
