This file was generated by Ched 2.7.0.0.
#TITLE ""
#ARTIST ""
#DESIGNER ""
#DIFFICULTY 0
#PLAYLEVEL
#SONGID ""
#WAVE ""
#WAVEOFFSET 0
#JACKET ""
#REQUEST "ticks_per_beat 480"
#00002: 4
#BPM01: 195
#00008: 01
#TIL00: ""
#HISPEED 00
#MEASUREHS 00
#00016:1200000000120000
#00018:0012000000000000
#0001a:00120000
#00014:0000000012000012
#0001c:0000000000120012
#00115:0012000012000000
#00119:0000120000120000
#00117:0000001200001200
#0011b:0012000012001200
#0081b:0000001300000000
#00812:2400000000130000
#00815:00000013
#00818:0000000000000013
#00816:0000001300000000
#0081a:24
#0091b:13
#00917:0000001300000000
#00918:0000000000130013
#00915:00000013
#00912:1400001300000000
#0101b:1300001300130000
#01018:00000013
#01015:0000000000000013
#01012:14
#0111b:13130000
#01118:0000001300000000
#01115:0000130000130000
#01112:1400001300000000
#01619:00130013
#01617:0013
#01616:13
#01614:00130013
#01612:0013
#0161b:0000000000000013
#01719:1313
#01717:00130000
#0171b:00000013
#01714:1313
#01712:00130000
#01716:00000013
#01918:0000000013000013
#01916:13
#01915:0013
#01912:00000000000000000000001300000000
#0191a:24
#0201b:13131300
#02018:0013001300001300
#02015:0000130000130013
#02012:13001313
#02010:41
#0211b:1313
#02118:0013001300001300
#02115:00130000
#02112:1313
#0231b:0013
#02317:0000000000130000
#02312:0014140000001300
#02316:0000000000000013
#0231a:0014140000000000
#0241b:1300230000000013
#02418:0000000000130000
#02415:00000013
#02412:13230000
#02518:13
#02515:0013000000000000
#02517:0000001300001300
#0251b:0013
#02512:00000013
#02516:0013
#0261b:13
#02616:13
#02612:0000001313000000
#02617:0013
#02712:0013
#02715:0000000000130013
#02718:00000013
#0271b:13
#02812:1300000000130000
#0281b:00130000
#02814:00000013
#02816:0000130000000013
#02817:13
#02912:00130000
#02915:0000001300000013
#02918:00001313
#0291b:0000000000130000
#03012:1300001313000000
#03017:00000000000000130000000000000000
#03016:0000000000000013
#0301b:13000000000000000000000000000013
#03116:1300000000130000
#0311b:00130013
#03117:0000001300000013
#03112:0013
#0381b:2313
#03812:1323
#03815:00230000
#03818:00000023
#03916:13
#03919:00130013
#03912:0013
#0391b:23
#03914:00230023
#03917:0023
#04016:13
#0401b:2300001313000000
#04017:00000013
#04012:00000013000000001300000013000000
#0411b:1313
#04117:00130013
#04116:1313
#04112:00130000
#0421b:1313
#04216:1313
#04212:0000001300001300
#04217:00000013
#0431b:0000000000130000
#04318:00000013
#04315:0000000000000013
#04316:13
#04715:00000013
#04718:0000000000000013
#04712:0000000000130000
#04717:13
#04812:00130000
#04815:0000001300130000
#04818:0000000013000013
#0481b:1300000000130000
#04915:13130000
#04912:0013001300000013
#04918:0000001300000000
#0491b:0000000000130000
#04917:0000000000000013
#04916:0000000000130000
#05012:00130000
#05015:0000001300000013
#05018:00001313
#0501b:0000000000130013
#05317:0000000000130000
#0531b:0013001300000013
#05318:13130000
#05315:0000001300000000
#05312:0000000000130000
#05316:0000000000000013
#05612:13
#05616:0013
#05617:13
#0561a:00130013
#0561b:0013
#05610:41
#05717:13
#0571b:0013
#05715:00130013
#05716:0013
#05816:0013
#05812:13
#0581a:00130013
#0581b:0013
#05912:13
#05917:13
#0591a:00130000
#0591b:00001313
#06416:1313000000000000
#0641b:1300001300000013
#06412:0013
#06415:0000000000130000
#06418:00000013
#06517:1300000000001313
#06515:0013000000000000
#06519:00130000
#06514:00130000
#06516:0013
#06512:1300000000001313
#06518:0000001300000000
#0651b:0013
#0661b:0013000000001300
#06612:0000001300000000
#06618:0000000013000013
#06615:0000000000130000
#06616:0013000000000000
#06715:1313
#06712:0013000000000000
#0671b:00130000
#06718:0000001300000000
#06717:0000000000001313
#0681b:0013000013000000
#06812:0000001300000013
#06815:0000000000130000
#06818:00000013
#06816:0013000000000000
#07012:13
#07014:0013000000000013
#07016:00130013
#07018:0000001300130000
#0701a:0013
#0701b:13
#07010:41
#07112:0013000000000013
#07116:0000001300130000
#07114:00130013
#07118:0013
#08017:13
#08018:00131300
#0801b:00000013
#08015:0000001300000013
#08012:13000013
#08118:1300130000131300
#0811b:0013
#08115:00001300000000000000001300000000
#08112:0000000013000013
#0871b:0013
#08719:0000000000130013
#08717:00000013
#0871a:0014140000000000
#08712:0014140000001300
#08716:0013
#0881b:1300000000130000
#08816:13000014
#08812:0000230000000013
#08817:00230000
#0881f:00210000
#0951b:00130013
#09517:1313
#09512:0013
#09514:0000001300130013
#09516:00130013
#10318:0013001300002300
#10315:0000230000130013
#10312:2323
#1031b:2323
#1151b:0000000000130000
#11518:00000013
#11515:0000000000000013
#11512:14
#1151a:0000001414000000
#00214:1200000000120000
#00216:0012000000000000
#00218:00120000
#00212:0000000012000012
#0021a:0000000000120012
#00313:0012000012000000
#00317:0000120000120000
#00315:0000001200001200
#00319:0012000012001200
#00416:1200000000120000
#00418:0012000000000000
#0041a:00120000
#00414:0000000012000012
#0041c:0000000000120012
#00515:0012000012000000
#00519:0000120000120000
#00517:0000001200001200
#0051b:0012000012001200
#00614:1200000000120000
#00616:0012000000000000
#00618:00120000
#00612:0000000012000012
#0061a:0000000000120012
#01212:0000001300000000
#0121b:0000000000130000
#01218:00000013
#01215:0000000000000013
#01217:0000001300000000
#0121a:24
#01312:13
#01316:0000001300000000
#01315:0000000000130013
#01318:00000013
#0131a:14
#0131b:0000001300000000
#01412:1300001300130000
#01415:00000013
#01418:0000000000000013
#0141a:14
#01512:13130000
#01515:0000001300000000
#01518:0000130000130000
#0151a:14
#0151b:0000001300000000
#01817:13
#01819:00130000
#0181b:0013
#01814:00240013
#01812:24
#01816:0024
#01818:00000024
#0221b:1300333333333300
#02218:00000000000000130000000000000000
#02212:1300333333333300
#02215:00000000000000130000000000000000
#03212:1300230000000013
#03215:0000000000130000
#03218:00000013
#0321b:13230000
#03210:41
#03315:13
#03318:0013000000000000
#03316:0000001300001300
#03312:0013
#0331b:00000013
#03317:0013
#03412:13
#03417:13
#0341b:0000001313000000
#03416:0013
#0351b:0013
#03518:0000000000130013
#03515:00000013
#03512:13
#0361b:1300000000130000
#03612:00130000
#03619:00000013
#03617:0000130000000013
#03616:13
#0371b:00130000
#03718:0000001300000013
#03715:00001313
#03712:0000000000130000
#04417:13
#04412:2300001313000000
#04416:00000013
#0441b:00000013000000001300000013000000
#04410:41
#04512:1313
#04516:00130013
#04517:1313
#0451b:00130000
#04612:1313
#04617:1313
#0461b:0000001300001300
#04616:00000013
#05118:00000013
#05115:0000000000000013
#0511b:0000000000130000
#0521b:00130000
#05218:0000001300001300
#05215:0000000013000013
#05212:1300000000130000
#0541b:00130000
#05418:0000001300000023
#05415:00001313
#05412:0000000000130013
#0601b:13
#06017:0013
#06016:13
#06013:00130013
#06012:0013
#06116:13
#06112:0013
#06118:00130013
#06117:0013
#06217:0013
#0621b:13
#06213:00130013
#06212:0013
#0631b:13
#06316:13
#06313:00130000
#06312:00001313
#07217:0013000000000000
#07212:0000001300000013
#0721b:0013
#07218:0000000000130000
#07215:00000013
#0721f:0011000000000000
#07316:1300000000001313
#07318:0013000000000000
#07314:00130000
#07319:00130000
#07317:0013
#0731b:1300000000001313
#07315:0000001300000000
#07312:0013
#07412:0013000000001300
#0741b:0000001300000000
#07415:0000000013000013
#07418:0000000000130000
#07417:0013000000000000
#07518:1313
#0751b:0013000000000000
#07512:00130000
#07515:0000001300000000
#07516:0000000000001313
#07612:0013000013000000
#0761b:0000001300000013
#07617:0013000000000000
#07618:0000000000130000
#07615:00000013
#0781b:13
#07819:0013000000000013
#07817:00130013
#07815:0000001300130000
#07813:0013
#07812:13
#0791b:0013000000000013
#07917:0000001300130000
#07919:00130013
#07915:0013
#0691b:1300001300000000
#06917:0013000000000000
#06919:00130000
#06915:13
#06912:00130000
#07712:1300001300000000
#07716:0013000000000000
#07714:00130000
#07718:13
#0771b:00130000
#08216:1324
#08214:00130024
#08212:0013
#08219:00000013
#0821a:24
#08218:00240000
#08317:13
#08315:0000000013000013
#08318:0013
#0831b:00000000000000000000001300000000
#08312:24
#08412:13131300
#08415:0013001300001300
#08418:0000130000130013
#0841b:13001313
#08512:1313
#08515:0013001300001300
#08518:00130000
#0851b:1313
#08612:1300333333333300
#08615:00000000000000130000000000000000
#0861b:1300333333333300
#08618:00000000000000130000000000000000
#08916:14
#0891b:0013000000001300
#08912:0000001313000000
#08917:0013
#08910:00410000
#09116:0013
#09112:00000013
#09117:13
#09212:00130000
#0921b:0000000000130013
#09217:00130013
#09216:13
#0931b:00131313
#09318:0000001300000013
#09315:00131313
#09312:0000000000130000
#0941b:1300001313000000
#09416:00000000000000130000000000000000
#09417:0000000000000013
#09412:13000000000000000000000000000013
#0901b:0013
#09016:0000001313000000
#09012:13
#09017:13
#09612:1300000000130000
#09617:13
#09616:00230014
#0961b:0000230000000013
#09716:1413
#09712:0013000000001300
#0971b:0000001313000000
#09917:0013
#0991b:00000013
#09916:13
#1001b:00130000
#10012:0000000000130013
#10016:00130013
#10017:13
#09812:0013
#09817:0000001313000000
#0981b:13
#09816:13
#10112:00131313
#10115:0000001300000013
#10118:00131313
#1011b:0000000000130000
#1041b:1313
#10416:0000001300000000
#10412:23001313
#10417:00000013000000000000000013000000
#10616:13000013
#1061b:13000013
#10617:0000001313000000
#10612:0013
#1071a:0000000000140000
#10712:13000014
#10716:0000000000000014
#1051b:1313
#10517:00130000
#10516:1313
#10812:1313
#10817:0000001300000000
#1081b:00001313
#10816:00000013000000000000000013000000
#1081a:24
#11017:13000013
#11012:13000013
#11016:0000001313000000
#1101b:0013
#11112:0000000000140000
#1111a:00000014
#11116:0000000000000014
#1111b:13
#10912:1313
#10916:00130000
#10917:1313
#11417:0000130000130013
#1141b:0013001300000000
#11412:14141414
#11217:0000131300000013
#1121b:1300000013130000
#11212:24141414
#11312:14141414
#11317:0013001300000023
#1131b:0000000000230000
#11816:0000130000130013
#11812:0013001300000000
#1181a:14141414
#11616:0000131300000013
#11612:1300000013130000
#1161a:24141414
#1171a:14141414
#11716:0013001300000023
#11712:0000000000230000
#00719:0022000022000000
#00717:0000220000220000
#00715:0000002200002200
#05517:0022002200222200
#10212:2323
#1021b:2323
#10218:00230000
#10215:00000023
#1191b:0022000000000000
#11918:0000002200000000
#11915:0000000000222200
#00952:14
#01052:14
#01152:14
#01158:0000005300000000
#01155:0000000000530000
#01555:0000006300000000
#01558:0000000000630000
#0155a:14
#0135a:14
#0145a:14
#01955:0053
#01952:00000000000000000000002300000000
#0225b:53
#02258:00000000000000230000000000000000
#02252:63
#02255:00000000000000230000000000000000
#02555:0053000000000000
#0255b:0053
#02557:00000053
#0265b:53
#02652:0053
#0285b:00130000
#0305b:13
#03052:13
#03358:0063000000000000
#03352:0063
#03356:00000063
#03452:63
#0345b:0063
#03652:00130000
#0395b:13
#03957:0013
#0405b:13
#04056:53
#04052:00000023000000000000000000000000
#04156:5353
#04152:00530000
#0425b:5353
#04257:00000053
#04356:53
#04457:63
#0445b:00000023000000000000000000000000
#04452:13
#04652:6363
#04656:00000063
#04557:6363
#0455b:00630000
#04757:63
#0485b:53
#04855:0000000000130000
#04958:0000001300000000
#05055:0000000000000013
#05355:0000001300000000
#05252:63
#05652:53
#05656:0023
#05757:53
#0575b:0023
#05852:53
#05856:0023
#05952:53
#0605b:63
#06057:0023
#06156:63
#06152:0023
#06257:0023
#0625b:63
#0635b:63
#0245b:00130000
#02452:00130000
#0325b:00130000
#03252:00130000
#06755:0053
#06757:0000000000000013
#06957:0023000000001300
#0695b:6300002300000000
#06959:00630000
#06952:00000013
#07558:0063
#07556:0000000000000013
#07752:5300002300000000
#07756:0023000000001300
#07754:00530000
#0775b:00000013
#08358:0063
#0835b:00000000000000000000002300000000
#08652:63
#08655:00000000000000230000000000000000
#0865b:53
#08658:00000000000000230000000000000000
#08857:00130000
#08852:00130000
#0895b:0063000000005300
#08952:0053
#09252:00130000
#0945b:13
#09452:13
#09056:0063
#09057:53
#09752:0053000000006300
#0975b:0063
#1005b:00130000
#09857:0053
#09856:63
#09656:00130000
#0965b:00130000
#10352:13
#1035b:0013
#1045b:6313
#10457:00000023000000000000000000000000
#10452:13000013
#10656:63
#10657:0063
#1065b:00000063
#10752:63
#1055b:5353
#10557:00530000
#10556:6363
#10852:5313
#10856:00000023000000000000000000000000
#1085b:00000013
#1085a:14
#11057:53
#11056:0053
#11052:00000053
#1115b:53
#10952:6363
#10956:00630000
#10957:5353
#11552:64
#05458:0000000000000013
#06456:0013000000000000
#06656:0013000000000000
#0665b:0013000000000000
#06856:0013000000000000
#0685b:0013000000000000
#07257:0013000000000000
#07457:0013000000000000
#07452:0013000000000000
#07657:0013000000000000
#07652:0013000000000000
#010360:0000001300230000
#011380:0000001300000000
#0113b0:0000000000230000
#011351:0000000000130000
#012321:23
#014371:0000001300230000
#015351:0000001300000000
#015321:0000000000230000
#015380:0000000000130000
#0163b0:23
#019350:0000000013000023
#019320:00000000000000000000005300000000
#0223b0:1300333333333323
#022380:00000000000000530000000000000000
#022321:1300333333333323
#022351:00000000000000530000000000000000
#025351:0013000000000000
#025321:0000002300000000
#0253b1:0013
#025371:00000033
#0263b1:33
#026371:0000002300000000
#026321:0013
#027361:23
#028371:0000000000130000
#028391:00000033
#0283b1:0000000000000023
#033381:0013000000000000
#0333b1:0000002300000000
#033321:0013
#033361:00000033
#034321:33
#034361:0000002300000000
#0343b1:0013
#035371:23
#036361:0000000000130000
#036341:00000033
#036321:0000000000000023
#040361:1300002300000000
#040321:00000053000000000000000000000000
#041361:1333
#041321:00330023
#0423b1:13
#042371:0000002300000000
#0423b1:0013
#042371:00000033
#0433b1:23
#043360:13
#043320:0000000000230000
#044370:1300002300000000
#0443b0:00000053000000000000000000000000
#045370:1333
#0453b0:00330023
#046320:13
#046360:0000002300000000
#046320:0013
#046360:00000033
#047320:23
#047371:13
#0473b1:0000000000230000
#0483b1:13
#048371:00230000
#0503b1:0013230000000000
#052321:13
#052361:00230000
#054321:0013230000000000
#056321:13
#056361:0053
#057321:23
#057370:13
#0573b0:0053
#058370:23
#058321:13
#058361:0053
#059321:33
#059361:00000023
#0603b1:13
#060371:0053
#0613b1:23
#061360:13
#061320:0053
#062360:23
#0623b1:13
#062371:0053
#0633b1:33
#063371:00000023
#067351:0013
#067321:0000000000000023
#0693b1:1300003300000000
#069371:0033000033002300
#069391:00330000
#069320:00001323
#075380:0013
#0753b0:0000000000000023
#077320:1300003300000000
#077360:0033000033002300
#077340:00330000
#0773b1:00001323
#083381:0000000013000023
#0833b1:00000000000000000000005300000000
#086321:1300333333333323
#086351:00000000000000530000000000000000
#0863b0:1300333333333323
#086380:00000000000000530000000000000000
#0893b0:0013000000000000
#089370:0000002300000000
#089320:0013
#089360:00000023
#0893b1:00000013
#090371:33
#0903b1:0000002300000000
#090361:0013
#091321:23
#0913b1:0013
#091391:0000000000330033
#091371:00000033
#0923b1:23
#092361:0000000000130023
#092321:00000033
#097321:0013000000000000
#097361:0000002300000000
#0973b1:0013
#097371:00000023
#097320:00000013
#098360:33
#098320:0000002300000000
#098370:0013
#0993b0:23
#099320:0013
#099340:0000000000330033
#099360:00000033
#100320:23
#100370:0000000000130023
#1003b0:00000033
#1043b0:1300002300000000
#104370:00000053000000000000000000000000
#1053b0:1333
#105370:00330023
#105361:13
#105321:00230000
#105361:0013
#105321:00000023
#106361:13
#106321:0000002300000000
#106371:0013
#1063b1:00000033
#107371:23
#107320:13
#107360:0000000000230000
#108320:1300002300000000
#108360:00000053000000000000000000000000
#109320:1333
#109360:00330023
#109371:13
#1093b1:00230000
#109371:0013
#1093b1:00000023
#110371:13
#1103b1:0000002300000000
#110361:0013
#110321:00000033
#111361:23
#1113b0:13
#111370:0000000000230000
#115320:14
#115360:0024
#120320:13
#124320:23
