This file was generated by Ched 2.7.0.0.
#TITLE ""
#ARTIST ""
#DESIGNER ""
#DIFFICULTY 0
#PLAYLEVEL
#SONGID ""
#WAVE ""
#WAVEOFFSET 0
#JACKET ""
#REQUEST "ticks_per_beat 480"
#00002: 4
#BPM01: 195
#00008: 01
#TIL00: ""
#HISPEED 00
#MEASUREHS 00
#00016:1200000000000012
#00018:0012000000120000
#0001a:00120000
#00014:0012
#00114:00121200
#00118:0000001200000000
#0011a:0012000000120000
#00116:00000012
#00818:0000001300001300
#00812:2300000000130000
#00815:0000000000000013
#0081b:23
#0091b:0000000000130000
#00915:00000013
#00918:0000000000000013
#0091a:14
#00912:0000001300000000
#01018:0000001300000000
#01015:0000000000130000
#0101b:00000013
#01012:1400000000000013
#01619:00130013
#01617:0013
#01614:00130013
#01612:0013
#0171b:13000013
#01717:00130000
#01719:0013
#01716:13000013
#01712:00130000
#01714:0013
#0201b:13130000
#02015:0013001300000000
#02018:00001313
#02012:0000000000130013
#02010:41
#0211b:1313
#02115:0013001300001300
#02118:00130000
#02315:00001313
#02318:0000140000130013
#02314:0014000000000000
#02418:0000000000130013
#02415:13000013
#0241b:00230000
#02412:00230000
#02515:13
#02518:0013000000000000
#0271b:0013
#02715:0000000000130013
#02718:00000013
#02812:00130000
#0281b:13000033
#02912:00130000
#02918:0000001300000013
#02915:00001313
#0291b:0000000000130000
#03012:13000000000000000000000000000033
#03018:00000000000000330000000000000000
#03112:0000001300000000
#03118:00001313
#03115:0000000000130013
#0311b:00130000
#04015:0000001300000000
#04018:0013
#04012:00000013
#0401b:23
#04215:1313
#04218:0000001300000000
#04212:00000013
#0431b:0000000000130000
#04315:13000013
#04318:0000000000000013
#04815:0000001300130000
#04818:0013
#0481b:1300000000000013
#04915:13130000
#04918:0013001300000000
#04912:0000000000130000
#0491b:0000000000000013
#05018:00130013
#05012:0000001300000000
#0501b:0013
#05015:0013000000130013
#05612:13
#05615:0013
#05610:41
#05718:13
#0571b:0013
#05815:0013
#05812:13
#05912:13
#06415:0013000013000000
#0641b:0000001300000013
#06418:0000000000130000
#06412:00000013
#06515:0033333300000013
#06518:00000013
#0661b:0013000000001300
#06612:0000001300000013
#06618:0013
#06615:0000000000130000
#0671b:13000033
#06718:0013000013000000
#06715:00130000
#06712:0000001300000000
#06812:0013000013000000
#0681b:0000001300000013
#06818:0000000000130000
#06815:00000013
#01118:1400001300000000
#01115:00130000
#0111b:0000000000130000
#01915:0013
#0191a:24
#0411b:1313
#04118:00130000
#06912:1333003300000000
#06915:00130000
#02218:1300333333333300
#0221b:00000000000000130000000000000000
#00218:1200000000000012
#00216:0012000000120000
#00214:00120000
#0021a:0012
#0031a:00121200
#00316:0000001200000000
#00314:0012000000120000
#00318:00000012
#00416:1200000000000012
#00418:0012000000120000
#0041a:00120000
#00414:0012
#00514:00121200
#00518:0000001200000000
#0051a:0012000000120000
#00516:00000012
#00618:1200000000000012
#00616:0012000000120000
#00614:00120000
#0061a:0012
#01215:0000001300001300
#0121b:0000000000130000
#01218:0000000000000013
#01312:1400000000130000
#01318:00000013
#01315:0000000000000013
#0131b:0000001300000000
#01415:0000001300000000
#01418:0000000000130000
#01412:00000013
#0141b:0000000000000013
#0141a:14
#01514:14
#01518:00130000
#01515:0000001300000000
#01512:0000000000130000
#02615:13
#02612:0013
#03215:0000000000130013
#03218:13000013
#03212:00230000
#0321b:00230000
#03210:41
#03318:13
#03315:0013000000000000
#03512:0013
#03518:0000000000130013
#03515:00000013
#0361b:00130000
#03612:13000033
#0371b:00130000
#03715:0000001300000013
#03718:00001313
#03712:0000000000130000
#03418:13
#0341b:0013
#04418:0000001300000000
#04415:0013
#0441b:00000013
#04412:23
#04410:41
#04618:1313
#04615:0000001300000000
#0461b:00000013
#04712:0000000000130000
#04718:13000013
#04715:0000000000000013
#04512:1313
#04515:00130000
#0601b:13
#06018:0013
#06115:13
#06112:00001333
#06218:0013
#0621b:13
#0631b:13
#07218:0013000013000000
#07212:0000001300000013
#07215:0000000000130000
#0721b:00000013
#0721f:0011000000000000
#07318:0033333300000013
#07315:00000013
#07412:0013000000001300
#0741b:0000001300000013
#07415:0013
#07418:0000000000130000
#07512:13000033
#07515:0013000013000000
#07518:00130000
#0751b:0000001300000000
#0761b:0013000013000000
#07612:0000001300000013
#07615:0000000000130000
#07618:00000013
#0771b:1333003300000000
#07718:00130000
#0791b:0013000000000000
#07915:00130000
#07918:0000001300001300
#07912:0013
#08014:00130013
#08016:0013
#08019:00130013
#0801b:0013
#08012:13
#08017:13
#08112:13000013
#08116:00130000
#08114:0013
#08117:13000013
#0811b:00130000
#08119:0013
#08412:13130000
#08418:0013001300000000
#08415:00001313
#0841b:0000000000130013
#08512:1313
#08518:0013001300001300
#08515:00130000
#08718:0014000013001300
#08715:0000000000130013
#08714:00140000
#08318:0013
#08312:24
#08818:13000013
#08815:0000000000130013
#08812:00230000
#0881b:00230000
#0881f:00210000
#08615:1300333333333300
#08612:00000000000000130000000000000000
#08918:1313
#08915:0013000000000000
#08910:00410000
#09112:0013
#09118:0000000000130013
#09115:00000013
#0921b:00130000
#09212:13
#09215:00000033
#0931b:00130000
#09315:0000001300000013
#09318:00001313
#09312:0000000000130000
#0941b:13000000000000000000000000000033
#09415:00000000000000330000000000000000
#09512:00130000
#0951b:0000001300000000
#09515:00001313
#09518:0000000000130013
#09012:13
#09015:0013
#09615:13000013
#09618:0000000000130013
#0961b:00230000
#09612:00230000
#09715:1313
#09718:0013000000000000
#0991b:0013
#09915:0000000000130013
#09918:00000013
#10012:00130000
#1001b:13
#10018:00000033
#10112:00130000
#10118:0000001300000013
#10115:00001313
#1011b:0000000000130000
#0981b:13
#09818:0013
#10418:0000001300000000
#10415:0013
#1041b:00000013
#10412:23
#10618:1313
#10615:0000001300000000
#1061b:00000013
#10712:0000000000130000
#10718:13000013
#10715:0000000000000013
#11218:0000001300130000
#11215:0013
#11212:1300000000000013
#11318:13130000
#11315:0013001300000000
#1131b:0000000000230000
#11312:0000000000000023
#11415:00130013
#1141b:0000001300000000
#11412:0013
#11418:0013000000130013
#10512:1313
#10515:00130000
#10815:0000001300000000
#10818:0013
#10812:00000013
#1081b:23
#11015:1313
#11018:0000001300000000
#11012:00000013
#1111b:0000000000130000
#11115:13000013
#11118:0000000000000013
#1091b:1313
#10918:00130000
#1161b:13000013
#11615:0000001300000013
#11612:0000000000130000
#11618:0013
#11818:0013001300000013
#11815:00130013
#1181b:0000000000130000
#11812:0013
#11515:0000000000000013
#11518:00000013
#11512:0000000000130000
#11712:0000001300000000
#11718:1300130000230000
#11715:0013000000000023
#05212:13000013
#05218:0000001300000013
#0521b:0000000000130000
#05215:0013
#05415:0013001300000023
#05418:00130013
#05412:0000000000130000
#0541b:0013
#05118:0000000000000013
#05115:00000013
#0511b:0000000000130000
#0531b:0000001300000013
#05312:0000000000130000
#05315:13130000
#05318:0013000000000000
#00715:0022000000220000
#00719:00222200
#00717:0000002200002200
#01812:24
#01814:00240000
#01816:0024
#01818:00000024
#03818:0023
#0381b:23
#03815:00230000
#03812:00000023
#0391b:23
#03915:00230000
#03918:0023
#03912:00000023
#05519:0022002200002200
#05515:0000000000220000
#10218:0023
#10215:00230000
#10212:23
#1021b:00000023
#10312:23
#10318:00230000
#10315:0023
#1031b:00000023
#0821a:24
#08218:00240000
#08216:0024
#08214:00000024
#11915:0022002200002200
#11919:0000000000220000
#0701b:0033330000333300
#07010:41
#07112:0000333300333300
#07812:0033330000333300
#0095a:14
#01052:14
#01158:1400005300000000
#0115b:0000000000530000
#01955:0053
#02558:0053000000000000
#02852:00130000
#03052:13
#0395b:13
#03958:0013
#0405b:13
#0415b:5353
#04158:00530000
#04255:0053
#04252:00000053
#0485b:53
#04855:0000000000130000
#04958:0000001300000000
#05055:0000000000000013
#05652:53
#05655:0023
#05758:53
#0575b:0023
#05852:53
#05855:0023
#05952:53
#0245b:00130000
#02452:00130000
#06758:0063
#0675b:0000000000000013
#06952:53000013
#06955:00230000
#02258:63
#0225b:00000000000000230000000000000000
#10352:13
#10355:0013
#10452:13
#10455:0013
#1045b:00000013
#01352:14
#0145a:14
#01554:14
#01555:0000006300000000
#01552:0000000000630000
#02655:53
#02652:0053
#03355:0063000000000000
#0365b:00130000
#03458:63
#0345b:0063
#03252:00130000
#0325b:00130000
#04355:53
#04658:0063
#0465b:00000063
#04552:6363
#04555:00630000
#04758:63
#04452:13
#0605b:63
#06058:0023
#06155:63
#06152:0023
#06258:0023
#0625b:63
#0635b:63
#07555:0053
#07552:0000000000000013
#0775b:63000013
#07758:00230000
#08358:0063
#08655:53
#08652:00000000000000230000000000000000
#08852:00130000
#0885b:00130000
#08955:0063000000000000
#08958:0053
#0925b:00130000
#0945b:13
#09052:63
#09055:0063
#0965b:00130000
#09652:00130000
#09758:0053000000000000
#09755:0053
#10052:00130000
#0985b:53
#09858:0053
#10658:0063
#1065b:00000063
#11258:0000000000130000
#11252:63
#11355:0000001300000000
#10552:6363
#10555:00630000
#11458:0000000000000013
#10758:63
#11055:0053
#11052:00000053
#1095b:5353
#10958:00530000
#11155:53
#1085b:13
#10858:0013
#10852:00000013
#11858:0000000000000013
#1165b:53
#11752:0000001300000000
#05252:63
#0535b:0000001300000000
#05455:0000000000000013
#06455:0013000000000000
#0665b:0013000000000000
#06852:0013000000000000
#07258:0013000000000000
#07452:0013000000000000
#0765b:0013000000000000
#011380:0000001300000000
#0113b0:0000000000330000
#012380:23
#015350:0000001300000000
#015320:0000000000330000
#016350:23
#019350:0013
#019320:0000000000000023
#022380:1300333333333323
#0223b0:00000000000000530000000000000000
#025380:0013000000000000
#0253b0:0000002300000000
#025350:0013
#025320:00000033
#026350:33
#026320:0000003333000000
#027350:23
#028380:0000000000130000
#0283b0:0000000000003323
#030380:00000000000013330000000000000000
#0303b0:0023
#030320:00000000000000000000000000001333
#031350:23
#033350:0013000000000000
#033320:0000002300000000
#033380:0013
#0333b0:00000033
#034380:33
#0343b0:0000003333000000
#035380:23
#036350:0000000000130000
#036320:0000000000003323
#0413b0:1333
#041380:00330023
#042350:0013
#042320:00000033
#043350:33
#043320:0023
#045320:1333
#045350:00330023
#046380:0013
#0463b0:00000033
#047380:33
#0473b0:0023
#0483b0:13
#048380:00230000
#052320:13
#052350:00230000
#056320:13
#056350:0053
#057320:23
#057381:13
#0573b1:0053
#058381:23
#058320:13
#058350:0053
#059320:33
#059350:00000023
#0603b0:13
#060380:0053
#0613b0:23
#061351:13
#061321:00005333
#062351:23
#0623b0:13
#062380:0053
#0633b0:33
#063380:00000023
#065350:1333333300000000
#065320:0023
#067380:0013
#0673b0:0000000000003323
#069320:1333003333002300
#069350:00330000
#0703b0:1333330000333323
#070380:0000003333000000
#071320:0013333300333323
#071350:0033
#073380:1333333300000000
#0733b0:0023
#075350:0013
#075320:0000000000003323
#0773b0:1333003333002300
#077380:00330000
#078320:1333330000333323
#078350:0000003333000000
#083380:0013
#0833b0:0000000000000023
#086350:1300333333333323
#086320:00000000000000530000000000000000
#089350:0013000000000000
#089320:0000002300000000
#089380:0013
#0893b0:00000023
#090320:13
#090350:0000003333000000
#091320:23
#092320:0000000000130000
#092350:0000000000003323
#094350:00000000000013330000000000000000
#094320:0023
#0943b0:00000000000000000000000000001333
#095380:23
#097380:0013000000000000
#0973b0:0000002300000000
#097350:0013
#097320:00000023
#0983b0:13
#098380:0000003333000000
#0993b0:23
#1003b0:0000000000130000
#100380:0000000000003323
#105320:1333
#105350:00330023
#106380:0013
#1063b0:00000033
#107380:33
#1073b0:0023
#1093b0:1333
#109380:00330023
#110350:0013
#110320:00000033
#111350:33
#111320:0023
#112320:13
#112350:00230000
#1163b0:13
#116380:00230000
#120320:12
#124320:22
