This file was generated by Ched 2.7.0.0.
#TITLE ""
#ARTIST ""
#DESIGNER ""
#DIFFICULTY 0
#PLAYLEVEL
#SONGID ""
#WAVE ""
#WAVEOFFSET 0
#JACKET ""
#REQUEST "ticks_per_beat 480"
#00002: 4
#BPM01: 195
#00008: 01
#TIL00: ""
#HISPEED 00
#MEASUREHS 00
#00014:12
#00018:0012000000001200
#0001c:0000120000120012
#00016:0000000012120012
#00114:0012000000000000
#00119:0000120000120000
#00116:1200001212001200
#0011c:0012000012001200
#0081b:0000001300000000
#00818:2600000000130013
#00815:00000013
#00816:0000181300000000
#00812:26
#0091b:13
#00917:0000001300000000
#00912:1600181300130000
#00915:00000013
#00918:0000000000000013
#0101b:1300001300130000
#01018:00000013
#01015:0000000000000013
#01012:1613
#01016:0000181300000000
#0111b:1300130000000013
#01117:0000001300000000
#01116:0000000000130000
#01112:1600001313000000
#01115:00130000
#01118:0013000000000000
#0161b:00130000
#01617:0000131313000000
#01616:0000000000001313
#01612:13001313
#0171b:1300000013001313
#01716:1313130000000000
#01712:0000130013000013
#01718:0000000000130000
#01715:00000000000000000000001300000000
#0201b:13001313
#02019:0013001300130013
#02017:00130000
#02012:13131300
#02014:0013001300130013
#02016:00000013
#02010:41
#0231b:0013
#02319:0000000000120000
#02317:00000012
#02315:0000000000000012
#02316:0014140000000000
#02312:00141300
#0231a:0014000000000000
#0241b:13
#02415:0000000000130000
#02419:00250013
#02417:0000000013000013
#02412:13251300
#02414:00000013
#0251b:1300131313330033
#02512:0013000000001300
#02517:00000013
#02516:1313
#02514:0000000000130013
#0271b:0013
#02719:0000000000120012
#02717:00000012
#02716:13
#02718:0000001300000000
#02714:00000012
#02812:1300000000130000
#0281a:00140000
#0281b:1300000000000013
#02816:0000140000000013
#02817:0000000000130000
#02814:00000013
#02819:00000013
#02912:00120000
#02915:0000001200000000
#02918:0012
#0291c:0000000000120000
#02919:00000012
#02916:0000000000000012
#03012:1400001313000000
#03016:00000000000000130000000000000000
#0301b:0000000000000013
#03017:00000000000000000000000000000013
#03018:16
#0311b:1313
#03112:0000131813000000
#03115:0000000000120000
#03117:00000012
#03119:0000000000000012
#03818:00001623
#03812:1624
#03815:0016231600160016
#0381a:24
#04016:13
#0401b:2300001300130000
#04017:0013
#04012:00000013000000001300000013000000
#04018:00130000
#0411b:1313
#04117:00130013
#04114:00130013
#04112:0013001300130013
#04119:0013001300130013
#04116:1313
#0421b:13001313
#04212:0000001300001300
#04216:0013
#04217:0000000000130013
#0431b:0000130013130013
#04318:00000013
#04315:0000000000000013
#04316:14
#04715:00000013
#04718:0000000000000013
#04712:0000130013130013
#04716:14
#04816:13
#04815:0000001300001600
#04818:0000000013000013
#04812:0000000000130000
#0481b:1300000000130000
#0491c:0000000000120000
#04918:0000000000000012
#04912:0000000000000012
#04916:0000000000121400
#05012:00130000
#05015:0000001300000000
#05016:1412000000000000
#05018:0000001300000000
#05612:13
#05617:0013
#0561b:00000013
#05619:0000000000000013
#05610:41
#06416:1318001400000000
#0641b:1300001300000013
#06412:00001313
#06415:0000000000130013
#06418:00000013
#06517:1300001300000000
#06519:00130000
#06512:1300001300001313
#0651b:0013000013000000
#06516:0013000000000000
#06514:00130000
#0661a:0014000000000000
#06612:0000001300001300
#0661b:0013
#06616:0014000013000000
#06617:00000013
#06619:0000000000130013
#0671b:1300130000001313
#06712:0013000013000000
#06715:0000001600000000
#06716:13
#0681a:0014000000000000
#06812:0000001300000013
#0681b:0013
#06818:0000000000130000
#06815:00000013
#06816:0014001400000000
#07012:12
#07014:0012000000000012
#07016:00120012
#07018:0000001200120000
#0701a:0012
#0701c:12
#07010:41
#07112:0012000000000012
#07116:0000001200120000
#07114:00120012
#07118:0012
#0711a:0012000000000000
#0801b:13
#08018:00131300
#08015:0000001300000013
#08012:00000013
#08118:1300130000130000
#0811b:0013
#08112:00001313
#08115:00001300000000000000001300000000
#08116:0000000000000014
#10318:0013000026000013
#10315:0000261300132600
#10312:2623
#1031b:23
#1151b:1300000000130000
#11518:00000013
#11515:0000000000000013
#11512:1400000013130000
#02616:13000023
#02617:0000001313000000
#02612:0013
#03212:13250000
#0321b:1313
#03218:0000000000130000
#03214:00000013
#03216:0000000013000013
#03219:00250013
#03210:41
#05118:00130013
#05115:0013001613000013
#0511b:1300000000130000
#05112:1300000000160000
#1041b:13
#10412:2600001300001400
#10416:0013
#1041a:0014
#10417:00000013
#1061b:1300000000000013
#10612:0000001313000000
#10618:0013000000001300
#10615:0000130000130000
#1071b:1300000013130000
#10712:13
#10719:00130000
#10718:00000013
#10715:0000000000000013
#11417:0000001300000000
#1141b:0013000000000000
#11412:1c141414
#11419:00130000
#11217:0000130000130013
#1121b:1313
#11219:0000001300000000
#11212:24141414
#11312:14141c1c
#1131b:0000000000230000
#11317:0000000000000023
#00212:12
#00216:0012000000001200
#0021a:0000120000120012
#00214:0000000012120012
#00312:0012000000000000
#00317:0000120000120000
#00314:1200001212001200
#0031a:0012000012001200
#00414:12
#00418:0012000000001200
#0041c:0000120000120012
#00416:0000000012120012
#00514:0012000000000000
#00519:0000120000120000
#00516:1200001212001200
#0051c:0012000012001200
#00612:12
#00616:0012000000001200
#0061a:0000120000120012
#00614:0000000012120012
#00714:1200001200001200
#00718:0012220012220000
#00716:0000122200122200
#0071a:0022000022000000
#01212:0000181300000000
#01215:0000000000130013
#01218:26000013
#01217:0000001300000000
#01312:13
#01316:0000181300000000
#0131b:0000001300130000
#01318:16000013
#01315:0000000000000013
#01412:1300181300130000
#01415:00000013
#01418:1600000000000013
#01417:0000001300000000
#0141b:0013
#01512:1300130000000013
#01516:0000001300000000
#01517:0000000000130000
#01518:16130000
#0151b:0000001313000000
#01515:0013000000000000
#01912:0000130000130000
#01918:0000001212001300
#01916:13000000000000120000000000000000
#01915:0000000000000013
#0191b:0000130000130000
#0191a:24
#02215:0016000013000000
#02217:00130000
#02216:0000001300000000
#02214:0000000000130000
#02213:00000013
#02212:1300000000000013
#0221b:13
#01812:2c13
#01814:002a0013
#01816:0028
#01818:00000026
#03312:1300131313330033
#0331b:0013000000001300
#03316:00000013
#03317:1313
#03319:0000000000130013
#03512:0013
#03515:0000001300120012
#03517:13000012
#0351a:00000012
#0361b:1300000000130000
#03612:1300140000000013
#03616:0000140000130000
#03619:00000013
#03617:0000000000000013
#03614:00000013
#0371c:00120000
#03719:0000001200000000
#03716:0012
#03712:0000000000120000
#03715:00000012
#03718:0000000000000012
#03417:13000023
#03416:0000001313000000
#0341b:0013
#03914:0000001600160000
#03916:0016000000000016
#0391b:23
#03912:00230023
#03917:0023
#04417:13
#04412:2300001300130000
#04416:0013
#0441b:00000013000000001300000013000000
#04415:00130000
#04410:41
#04512:1313
#04516:00130013
#04519:00130013
#0451b:0013001300130013
#04514:0013001300130013
#04517:1313
#04612:13001313
#0461b:0000001300001300
#04617:0013
#04616:0000000000130013
#05217:13
#05218:0000001300000000
#05215:0000000013001613
#0521b:0000000000130000
#05212:1300000000130000
#05312:2333330000120000
#05316:0000000000001412
#0531c:0000000000000012
#05318:0000000000120000
#0541b:00130000
#05418:0012001324000000
#05416:14
#05415:0000001300000000
#05414:0024
#05712:13
#05717:0013
#0571b:00000013
#05719:0000000000000013
#05812:0000130000000013
#0581b:0000001300130000
#05819:00000013
#05817:0000000000000013
#0591b:1300130000000013
#05912:0000001300130000
#05914:00000013
#05916:0000000000000013
#0601b:13
#06016:0013
#06012:00000013
#06014:0000000000000013
#0611b:13
#06116:0013
#06112:00000013
#06114:0000000000000013
#0621b:0000130000000013
#06212:0000001300130000
#06214:00000013
#06216:0000000000000013
#06312:1300130000000013
#0631b:0000001300130000
#06319:00000013
#06317:0000000000000013
#06915:1300131300000000
#06912:0013001300000000
#06918:13130000
#0691b:0013000000000000
#07212:0018001300000013
#0721b:00001313
#07218:0000000000130013
#07215:00000013
#07216:0000001400000000
#0721f:0011000000000000
#07316:1300001300000000
#07314:00130000
#0731b:1300001300001313
#07312:0013000013000000
#07317:0013000000000000
#07319:00130000
#07412:0014000013000000
#0741b:0000001300001300
#07417:0013
#07416:0014000000001300
#07414:0000000000130013
#07512:1300130000001313
#0751b:0013000013000000
#07515:0000001600000000
#07517:13
#07612:0014000013000000
#0761b:0000001300000013
#07615:0000000000130000
#07618:00000013
#07616:0014001400000000
#0781c:12
#0781a:0012000000000012
#07818:00120012
#07816:0000001200120000
#07814:0012
#07812:12
#0791c:0012000000000012
#07918:0000001200120000
#0791a:00120012
#07916:0012
#07914:0012000000000000
#07718:1300131300000000
#0771b:0013001300000000
#07715:13130000
#07712:0013000000000000
#08716:0014140000001200
#0871a:00140000
#08712:0014000012000000
#08714:0000000000120012
#0831b:0000130000130000
#08316:0000001212000000
#08318:00000000000000120000000000001300
#08315:00000013
#08317:13
#08312:2400130000130000
#08615:0016000000000000
#08616:00130000
#08617:0000001300000000
#08618:0013
#08619:0000000000130000
#0861a:00000013
#0861b:1300000000000013
#08612:13
#0821b:0013
#08219:00000013
#08212:2c2a2826
#08812:12240013
#08816:0000280000130000
#0881f:00210000
#08917:0013000000001333
#08916:0000130013330000
#08912:0000001300000000
#08919:0000000000130000
#08914:0000000000000013
#0891b:13
#08910:00410000
#09112:0013
#09115:0000001300121212
#09117:00000012
#09116:13
#09119:0000000000120012
#0921b:13
#09212:1300180000000013
#0921a:00140000
#09216:0000000000130000
#09214:00000013
#0931c:00120000
#09318:0000001300000014
#09314:0014
#09312:0000000000120000
#09315:00000013
#0941c:12
#0941b:0000001313000000
#09417:00000000000000130000000000000000
#09412:1800000000000013
#09416:00000000000000000000000000000013
#09512:13
#0951b:00130000
#09519:0000001200000000
#0951c:0012
#0951a:0000000000120012
#09518:00000012
#09515:0000001200000000
#09016:1300131313000000
#0901b:00001323
#09716:0013000000001333
#09717:0000130013330000
#0971b:0000001300000000
#09714:0000000000130000
#09719:0000000000000013
#09712:13
#0991b:0013
#09919:0000000000121212
#09917:13000012
#09918:0000001300000000
#09915:0000000000120012
#10012:13140000
#10016:00180000
#1001b:1300000000000013
#10017:0000000000130000
#10019:00000013
#10112:00120000
#10115:0000001300000000
#10118:00001413
#1011c:0000000000120000
#10114:0000000000000014
#09817:1300131313000000
#09812:00001323
#09617:0000000000130000
#0961b:00000013
#0961c:12
#09612:00280000
#0961a:00240000
#10216:0012001200000000
#10218:0000230000120012
#10212:2323
#1021b:2323
#10215:00000023
#1051a:14141400
#10516:1314131413141300
#10512:0013001300130000
#10812:1314
#1081b:0000001300000000
#10817:0013
#1081a:00000014
#10816:00000013
#10818:26
#11012:1300000000000013
#1101b:0000001313000000
#11015:0013000000001300
#11018:0000130000130000
#11112:1300000013130000
#1111b:13
#11114:00130000
#11115:00000013
#11118:0000000000000013
#10912:14141400
#10916:0014001400140000
#10917:13131313
#1091b:0013001300130000
#11816:0000001300000000
#11812:1c13000000000000
#1181a:00141414
#11814:00130000
#11616:0000130000130013
#11612:1313
#11614:0000001300000000
#1161a:24141414
#1171a:14140000
#11712:000000001c231c00
#11716:0000000000000023
#12012:1c
#08412:13001313
#08414:0013001300130013
#08416:00130000
#0841b:13131300
#08419:0013001300130013
#08417:00000013
#08512:13001313
#08515:0013131600130016
#0851b:13131300
#08518:0013000000131300
#0211b:13001313
#02118:0013130000130000
#02112:13131300
#02115:0013001600131316
#05519:0021000000000000
#05518:0000002100000000
#05517:0000000000212100
#1191c:0021000000000000
#11918:0000002100000000
#11914:0000000000212100
#01157:0000005300000000
#01156:0000000000530000
#01152:36
#02552:0053000000000000
#0255b:0053
#02557:00000053
#02657:0053
#02656:53
#0285a:00140000
#03058:16
#03052:1453
#0395b:13
#03957:0013
#03952:00130013
#0405b:1300000000230000
#04056:53
#04052:00000023000000000000000000000000
#04057:0053
#0425b:53005353
#04257:0000000000230023
#04356:54
#0485b:53
#04852:0000000000130000
#04856:53
#05652:53
#05657:0023
#02459:00150000
#02452:00150000
#06752:0053
#0675b:0000000000000013
#08856:00180000
#08852:00140000
#10352:16
#10358:0016
#10355:00160016
#1045b:63
#10452:16000014
#1045a:0014
#10752:63
#11552:64
#1155b:53
#00952:36
#00957:0000005300000000
#01052:3623
#01056:0000005300000000
#00856:0000005300000000
#01356:0000006300000000
#01358:46
#01556:0000006300000000
#01557:0000000000630000
#01558:46
#01458:46
#01457:0000006300000000
#0145b:0023
#01257:0000006300000000
#02352:00140000
#02756:53
#0315b:53
#0335b:0063000000000000
#03352:0063
#03356:00000063
#03652:00140000
#03457:63
#03456:0063
#03557:63
#03252:00150000
#03259:00150000
#04152:0023002300230023
#04156:5353
#04154:00530053
#04457:63
#04456:0063
#04452:1300000000230000
#0445b:00000023000000000000000000000000
#04559:00630063
#0455b:0023002300230023
#04557:6363
#04652:63006363
#04656:0000000000230023
#04756:64
#0495a:0000001400000000
#04956:0000001400000000
#05056:0000000000000014
#0505a:0000000000000014
#05257:63
#0525b:0000000000130000
#05252:63
#05352:53
#0535b:0000001300000000
#05356:0000001400000000
#05458:0000000000000014
#05454:0000000000000014
#05752:53
#05757:0023
#0605b:63
#06056:0023
#0615b:63
#06156:0023
#06456:0038000000000000
#06552:5300002300000000
#06554:00530000
#06556:0023000000000000
#06656:0034000000000000
#0665a:0034000000000000
#0685a:0044000000000000
#06856:0044000000000000
#06958:53530013
#06955:0000532300001300
#0695b:0023000000000000
#06952:0000002300000000
#07252:0048000000000000
#07452:0044000000000000
#07456:0044000000000000
#0755b:0063
#07552:0000000000000013
#07652:0034000000000000
#07656:0034000000000000
#0735b:6300002300000000
#07357:0023000000000000
#07359:00630000
#07755:63630013
#07752:0023000000000000
#07758:0000632300001300
#0775b:0000002300000000
#0875a:00140000
#08957:00000063
#08956:0053
#0945c:12
#0945b:0063
#09452:18
#09552:63
#09056:5363
#09156:63
#09252:00380000
#0925a:00440000
#09756:00000053
#09757:0063
#10056:00480000
#10052:00340000
#09857:6353
#09957:53
#09652:00180000
#0965a:00140000
#1055a:54545400
#10556:0054005400540000
#10852:5314
#1085a:00000014
#10858:16
#1115b:53
#10952:64646400
#10956:0064006400640000
#12052:5c
#02059:0013001300000000
#02054:0000000000130013
#08454:0013001300000000
#08459:0000000000130013
#08555:0013003600000046
#08558:0000000000130000
#02158:0013000000000000
#02155:0000004600130036
#008360:0000001300000000
#008320:0000000000230000
#009370:0000001300000000
#0093b0:0000000000230000
#010360:0000001300230000
#010320:0053
#011370:0000001300000000
#0113b0:0000000000230000
#011361:0000000000130000
#012321:23
#012371:0000001300000000
#0123b1:0000000000230000
#013361:0000001300000000
#013321:0000000000230000
#014371:0000001300230000
#0143b1:0053
#015361:0000001300000000
#015321:0000000000230000
#015370:0000000000130000
#0163b0:23
#0223b0:00130000
#0223a0:0000003300000000
#022390:0033
#022380:0000000000330000
#022370:00000033
#022360:0000000000000023
#025320:0013000000000000
#025360:0000002300000000
#0253b0:0000000013330033
#025370:00000033
#0263b0:23
#026361:13
#026321:0000002300000000
#026371:0013
#0273b1:23
#027360:13
#027320:0023
#030320:0013
#030370:0000000000000023
#0313b0:13
#031370:00230000
#0333b0:0013000000000000
#033370:0000002300000000
#033320:0000000013330033
#033360:00000033
#034320:23
#034371:13
#0343b1:0000002300000000
#034361:0013
#035321:23
#035370:13
#0353b0:0023
#040360:1300002300000000
#040320:00000053000000000000000000000000
#040370:00001323
#0403b0:0000000000530000
#041360:1333
#041320:0053005300530053
#041340:00330033
#042360:23
#0423b1:13
#042371:0000002300000000
#0423b1:00001333
#042371:0000000000530053
#0433b1:23
#043360:14
#043320:0000000000240000
#044370:1300002300000000
#0443b0:00000053000000000000000000000000
#044360:00001323
#044320:0000000000530000
#045370:1333
#0453b0:0053005300530053
#045390:00330033
#046370:23
#046321:13
#046361:0000002300000000
#046321:00001333
#046361:0000000000530053
#047321:23
#047360:14
#0473a0:0000000000240000
#0483b0:13
#048370:00230000
#048361:13
#048321:00230000
#049321:14340000
#049361:0034002400000000
#049360:14340000
#0493a0:0034002400000000
#0503b0:0013230000000000
#050320:00001434
#050360:0000000000340024
#050361:00001434
#0503a1:0000000000340024
#052321:13
#052361:00230000
#052370:13
#0523b0:00230000
#053320:1333330000000000
#0533b0:0000002300000000
#053361:1400002400000000
#054321:0013230000000000
#054341:00001434
#054381:0000000000340024
#054380:00001434
#054340:0000000000340024
#056320:13
#056370:0053
#057320:33
#057370:0053
#058320:23
#056381:13
#0563b1:00230000
#0563b1:0000001300230000
#057381:13
#0573b1:00230000
#0573b1:0000001300230000
#058371:13230000
#058361:0000001300230000
#059361:13230000
#059371:0000001300230000
#0603b1:13
#060361:0053
#0613b1:33
#061361:0053
#0623b1:23
#060350:13
#060320:00230000
#060320:0000001300230000
#061350:13
#061320:00230000
#061320:0000001300230000
#062360:13230000
#062370:0000001300230000
#063370:13230000
#063360:0000001300230000
#065320:1300003300000000
#065360:0033000023000000
#065340:00330000
#065370:0000000000001323
#067320:0013
#067370:0000000000000023
#069380:13333323
#0693b0:0033000000000000
#069350:0000003300000000
#069351:00133323
#069321:0000003300000000
#0733b1:1300003300000000
#073371:0033000023000000
#073391:00330000
#073361:0000000000001323
#0753b1:0013
#075361:0000000000000023
#077351:13333323
#077321:0033000000000000
#077381:0000003300000000
#077380:00133323
#0773b0:0000003300000000
#080320:1300002300000000
#0803b0:00000013
#0813b0:0023000000000000
#086320:00130000
#086330:0000003300000000
#086340:0033
#086350:0000000000330000
#086360:00000033
#086370:0000000000000023
#0873c0:0012
#0873a0:0000000000320032
#087380:00000032
#0883c0:22
#0883b0:0000000000130000
#088370:00000033
#088390:0000000000000023
#088341:0000000000000013
#089361:33
#089321:0023000000000000
#0893b1:00132300
#089360:0000000013330000
#089320:00000023
#089371:0000000000001333
#0903b1:23
#090360:13
#090320:0000002300000000
#090360:0013
#091320:23
#091361:13
#0913b1:0023
#0923b1:0000000000130023
#092371:00000033
#0943b1:0013
#094361:0000000000000023
#095321:13
#095361:00230000
#095321:0012
#095341:0000000000320032
#095361:00000032
#096321:22
#096321:0000000000130000
#096361:00000033
#096341:0000000000000023
#096390:0000000000000013
#097370:33
#0973b0:0023000000000000
#097320:00132300
#097371:0000000013330000
#0973b1:00000023
#097360:0000000000001333
#098320:23
#098371:13
#0983b1:0000002300000000
#098371:0013
#0993b1:23
#099370:13
#099320:0023
#100320:0000000000130023
#100360:00000033
#1043b0:13
#104360:0000002300000000
#1053a0:14343424
#105360:0034003400340000
#106320:13
#106350:0023000000000000
#106380:00130000
#1063b0:0000002300000000
#1063b0:0013
#106380:0000000000230000
#106350:00000013
#106320:0000000000000023
#107320:13
#107370:0000000000230000
#108320:13
#108370:0000002300000000
#109320:14343424
#109360:0034003400340000
#1103b0:13
#110380:0023000000000000
#110350:00130000
#110320:0000002300000000
#110320:0013
#110350:0000000000230000
#110380:00000013
#1103b0:0000000000000023
#1113b0:13
#111360:0000000000230000
#1133b0:13
#113370:0023000000000000
#1133b0:00130000
#113370:0000002300000000
#1143b0:0013
#114370:0000000000230000
#1143b0:00000013
#114370:0000000000000023
#115320:14
#1153a0:0000003424000000
#1153b1:13
#115321:0000002300000000
#117320:13
#117360:0023000000000000
#117320:00130000
#117360:0000002300000000
#118320:0013
#118360:0000000000230000
#118320:00000013
#118360:0000000000000023
#120320:1c
#124320:21
