This file was generated by Ched 2.7.0.0.
#TITLE ""
#ARTIST ""
#DESIGNER ""
#DIFFICULTY 0
#PLAYLEVEL
#SONGID ""
#WAVE ""
#WAVEOFFSET 0
#JACKET ""
#REQUEST "ticks_per_beat 480"
#00002: 4
#BPM01: 195
#00008: 01
#TIL00: ""
#HISPEED 00
#MEASUREHS 00
#0001a:14
#00014:0014
#0011a:14
#00114:0014
#00212:0014
#00218:14
#00318:14
#00312:0014
#0041a:14
#00414:0014
#0051a:14
#00514:0014
#00618:14
#00612:0014
#00812:0014
#0081a:00000014
#00914:14
#0091a:0014
#00912:00000014
#01018:14
#01012:0014
#0101a:00000014
#0121a:0014
#01212:00000014
#01318:14
#01312:0014
#0131a:00000014
#01414:14
#0141a:0014
#01412:00000014
#02018:00140000
#02014:0014
#0201a:00000014
#02010:41
#02112:14
#02118:00140000
#02114:0014
#0211a:00000014
#02212:14
#02318:0014
#02314:00000014
#02418:14
#0241a:00000014
#02414:00240000
#02514:14
#02518:00140014
#02512:0014
#0271a:0014
#02714:00000014
#02818:14
#0281a:00000014
#02812:00240000
#02914:1414
#02918:00140014
#03012:14
#03018:0014
#03114:14
#0311a:0014
#03214:14
#03212:00000014
#03218:00240000
#03210:41
#03318:14
#03314:00140014
#0331a:0014
#03512:0014
#03518:00000014
#03614:14
#03612:00000014
#0361a:00240000
#03718:1414
#03714:00140014
#0481a:14
#04814:00140000
#04819:0014
#04813:00000014
#04918:1414
#04912:00140014
#05019:14
#05013:00140000
#0501a:0014
#05014:00000014
#0511a:14
#05212:14
#05218:00140000
#05214:0014
#0521a:00000014
#05312:14
#05318:00140000
#05314:0014
#0531a:00000014
#05412:14
#05418:00140000
#05414:0014
#0541a:00000024
#05612:14
#05610:41
#05715:14
#05812:14
#0601a:14
#06117:14
#0621a:14
#06412:14
#06418:00140000
#06414:0014
#0641a:00000014
#0661a:14
#06614:00140000
#06618:0014
#06612:00000014
#06812:1414
#06818:00140014
#06914:1414
#0691a:00140014
#07012:14
#07014:0014
#07010:41
#07112:14
#0721a:14
#07214:00140000
#07218:0014
#07212:00000014
#0721f:0011000000000000
#07412:14
#07418:00140000
#07414:0014
#0741a:00000014
#0761a:1414
#07614:00140014
#07718:1414
#07712:00140014
#0781a:14
#07818:0014
#0791a:14
#08414:00140000
#08418:0014
#08412:00000014
#0851a:14
#08514:00140000
#08518:0014
#08512:00000014
#0861a:14
#08714:0014
#08718:00000014
#08814:14
#08812:00000014
#08818:00240000
#0881f:00210000
#08918:14
#08914:00140014
#0891a:0014
#08910:00410000
#09112:0014
#09118:00000014
#09214:14
#09212:00000014
#0921a:00240000
#09318:1414
#09314:00140014
#0941a:14
#09414:0014
#09518:14
#09512:0014
#09618:14
#0961a:00000014
#09614:00240000
#09714:14
#09718:00140014
#09712:0014
#0991a:0014
#09914:00000014
#10018:14
#1001a:00000014
#10012:00240000
#10114:1414
#10118:00140014
#11212:14
#11218:00140000
#11213:0014
#11219:00000014
#11314:1414
#1131a:00140014
#11413:14
#11419:00140000
#11412:0014
#11418:00000014
#11512:14
#1161a:14
#11614:00140000
#11618:0014
#11612:00000014
#1171a:14
#11714:00140000
#11718:0014
#11712:00000014
#1181a:14
#11814:00140000
#11818:0014
#11812:00000024
#01818:2424
#01814:00240024
#0191a:24
#01912:24
#0381a:24
#03814:0024
#03918:24
#03912:0024
#08218:2424
#08214:00240024
#0831a:24
#08312:24
#10212:24
#10218:0024
#10314:24
#1031a:0024
#01112:00343434
#0151a:00343400
#06512:00343400
#0671a:00343400
#0731a:00343400
#07512:00343400
#04410:41
#00858:14
#02252:54
#03052:14
#05652:54
#05755:54
#05852:54
#0605a:64
#06157:64
#0625a:64
#07052:54
#07054:0024
#07152:54
#0785a:64
#07858:0024
#0795a:64
#0865a:64
#0945a:14
#01252:14
#02454:00140000
#02852:00140000
#03258:00140000
#0365a:00140000
#08858:00140000
#0925a:00140000
#09654:00140000
#10052:00140000
#007380:1434343434343400
#008380:24
#011340:14
#011320:00343434
#012320:24
#015380:14
#0153a0:00343424
#016320:14
#016340:0034
#017320:34
#017340:0024
#019320:0014
#020320:24
#022320:14
#022340:0000000000000024
#026340:14
#026320:0034
#027340:24
#034380:14
#0343a0:0034
#035380:24
#040390:15
#040370:0035
#041390:35
#041370:0035
#042390:35
#042370:0035
#043390:35
#043370:0025
#044320:15
#044340:0035
#045320:35
#045340:0035
#046320:35
#046340:0035
#047320:35
#047340:0025
#0543a0:0000000000001434
#0553a0:0034003400342400
#056320:14
#057350:34
#058320:34
#059350:24
#0603a0:14
#061370:34
#0623a0:34
#063370:24
#065320:14343400
#065340:00000024
#0673a0:14343400
#067380:00000024
#070320:14
#070340:0034
#071320:34
#071340:0024
#0733a0:14343400
#073380:00000024
#075320:14343400
#075340:00000024
#0783a0:14
#078380:0034
#0793a0:34
#079380:0024
#080340:14
#080320:0034
#081340:34
#081320:0024
#0833a0:0014
#0843a0:24
#0863a0:14
#086380:0000000000000024
#090380:14
#0903a0:0034
#091380:24
#098340:14
#098320:0034
#099340:24
#104340:15
#104320:0035
#105340:35
#105320:0035
#106340:35
#106320:0035
#107340:35
#107320:0025
#108370:15
#108390:0035
#109370:35
#109390:0035
#110370:35
#110390:0035
#111370:35
#111390:0025
#118320:0000000000001434
#119320:0034003400342400
#1203a0:14
#1243a0:24
