This file was generated by Ched 2.7.0.0.
#TITLE ""
#ARTIST ""
#DESIGNER ""
#DIFFICULTY 0
#PLAYLEVEL
#SONGID ""
#WAVE ""
#WAVEOFFSET 0
#JACKET ""
#REQUEST "ticks_per_beat 480"
#00002: 4
#BPM01: 126
#00008: 01
#TIL00: ""
#HISPEED 00
#MEASUREHS 00
#00618:14
#00712:14
#0081a:14
#00912:14
#00918:0014
#01012:14
#0111a:14
#01114:0014
#0121a:14
#01312:14
#01318:0014
#01412:14
#0151a:14
#01514:0014
#0161a:14
#01712:14
#01710:41
#01818:14
#01914:14
#0201a:14
#02512:14
#02510:41
#02612:14
#02718:14
#02818:14
#02914:14
#03014:14
#0311a:14
#0321a:14
#03318:0016
#03312:26
#03310:41
#03412:16
#03418:0016
#03712:2616
#03818:1616
#04112:14
#04218:14
#04314:14
#04310:41
#0441a:14
#04512:14
#04618:14
#04714:14
#0481a:14
#05718:0016
#05712:26
#0571f:21
#05812:16
#05818:0016
#05810:41
#06112:2616
#06218:1616
#06512:14
#06612:14
#06718:14
#06818:14
#06914:14
#07014:14
#0711a:14
#07110:41
#0721a:14
#0491f:11
#05112:34
#05012:34
#0551a:34
#0541a:34
#001380:14
#002380:24
#003340:14
#005340:24
#021330:14
#022330:24
#023390:14
#024390:24
#035320:1626
#036380:1626
#039320:1626
#040380:1626
#049320:14
#050320:34
#051320:34
#052340:24
#0533a0:14
#0543a0:34
#0553a0:34
#056380:24
#059320:1626
#060380:1626
#063320:1626
#064380:1626
#073320:14
#074320:0024
#075380:14
#076380:0024
#077340:14
#078340:0024
#0793a0:14
#0803a0:0000000034342400
