This file was generated by Ched 2.7.0.0.
#TITLE ""
#ARTIST ""
#DESIGNER ""
#DIFFICULTY 0
#PLAYLEVEL
#SONGID ""
#WAVE ""
#WAVEOFFSET 0
#JACKET ""
#REQUEST "ticks_per_beat 480"
#00002: 4
#BPM01: 126
#00008: 01
#TIL00: ""
#HISPEED 00
#MEASUREHS 00
#00112:1300000000130000
#00116:0000000000000013
#0011b:1300000000000013
#00117:0000000000130000
#00316:0000001300000000
#00312:0000000000131300
#0031b:1300001300000000
#00317:00000013
#00514:00130000
#00516:00001313
#00512:13
#0051b:0000000000130013
#00612:1313
#00614:00130013
#0071b:00130013
#00718:0013
#00712:1300001300000013
#00715:0000000000130000
#00916:00000000130000000000001300000000
#00912:2300000013000013
#0091b:23000000130000000000001300000000
#00917:0013
#0101b:00130000
#01012:0013
#01015:0000000000130013
#01018:00001313
#01112:1300000013000013
#01116:00130000
#0111b:13000000000000000000001300000000
#01117:0000000000000013
#0121b:00130013
#01212:0013
#01219:0000000000130000
#01216:00000013
#01214:0000000000000013
#01217:0013
#0171b:1300001300000013
#01712:0000130000130000
#01714:00000013
#01716:1300001300000013
#01717:0000000000130000
#01710:41
#01816:0000001300000000
#01818:0013
#01815:0000000000130000
#01812:00000013
#0181b:0000000000000013
#01817:0013000000000000
#01917:1300000000131300
#01912:13000013
#0191b:0000001300000000
#01916:0000001300000000
#02012:0000000000130000
#02015:00000013
#02018:0000000000000013
#02112:0013000000000000
#0211b:3300000000130013
#02118:00000013
#02115:0000000000000013
#02218:0013130000000000
#0221b:0000001300000000
#02216:0000000000130000
#02212:0013000000000013
#02215:00330000
#02316:0013000000000012
#02317:00130000
#02314:0000000000120000
#0231a:00000012
#02312:00130000
#0251b:13000013
#02512:00130013
#02515:0000001300130000
#02518:0013
#02514:000000000000000000000000000000000000000000000014
#02510:41
#02618:14141413
#02612:001300001300000000000000
#0261b:0013001300000000
#02614:000000000014000000000014000000000000000000000000
#02615:0000000000130013
#02715:00130013
#02718:0000001300130000
#0271b:2313
#02712:2300000000000013
#02717:0000000000000013
#02814:1313
#0281b:0023001300000000
#02819:1313
#02815:0000000000000013
#02816:0023001300000000
#02817:0000000000230000
#02812:0000000000230000
#02918:1300000000130000
#0291b:0013000013000000
#02917:0000001300000000
#02915:00000013
#02912:0000001300000013
#0301b:1300000013000013
#03012:0000001300000013
#03018:0000000000130000
#03015:00000013
#03016:13
#0311b:0013000013000000
#03117:00130000
#03118:0000000000130000
#03115:00000013
#03116:0013000000000000
#03112:0000130000000023
#03318:0000130000130000
#03315:0000130013000013
#03312:23000013
#0331b:2300001300000000
#03310:41
#03418:13130000
#0341b:0013001313000000
#03415:0013001300000013
#03412:13133300
#03518:13
#0351b:0000130000130000
#03517:0000001300000013
#03515:00131300
#03512:1300000000130013
#0361b:0013000000001300
#03612:0000001300130000
#03618:0000000000000013
#03616:0013000000000000
#0371b:23131300
#03718:0000000000130013
#03715:23000013
#03712:0000001300000000
#03716:00130000
#0381b:1300001300000000
#03819:0013000000000013
#03817:00131313
#03816:1300001300000000
#03814:0013000000000000
#03812:00133300
#0391b:13000013
#03918:0000130013000013
#03915:00130000
#03912:1313
#04015:1300000000000023
#04018:0013000000002300
#0401b:00130000
#04012:0000130000230000
#0411b:1313
#04112:23000000130000000000001300000000
#04117:00000000000000000000001300000000
#04116:0000000000000013
#04217:00130000
#04219:0000001300000000
#04216:0013
#04212:00000000000000000000001300000000
#04218:00000000000000000000000000130000
#04215:0000000000000013
#04412:0000001300000013
#04415:00000000000000001300001300000000
#04418:00000000000000130000000013000013
#0441b:0000000000130000
#04416:00130000
#04515:1300000000000013
#04512:00000000130000000000001300000000
#0451b:00000000130000000000001300000000
#04518:0013
#04612:00130000000000000000130000000000
#0461b:0000001300000013
#04618:00000000130000001300001300000000
#04615:00000000000000130000000013000013
#04814:0000000000120000
#04816:00000012
#04818:0000000000000012
#0481b:00130000000000000000000000000000
#04815:00130000
#0491a:1212
#04918:0000120000120000
#04916:00001212
#04914:1200000000000012
#0491f:11
#05016:12000012
#05018:0012000000000000
#0501a:00120000
#05014:0000001200000000
#05013:0000000000120000
#05019:0000000000000012
#05112:0000120000000012
#0511c:1200000012120000
#05118:0000120000000012
#05116:0032
#0521a:0012000000000000
#0521c:0000001200001200
#05214:0012000000000000
#05216:0000001200000000
#05212:0000000000120000
#05218:0000000000120012
#05316:0000120000120000
#0531a:00000012
#05314:1200000000000012
#0531c:00120000
#05312:0012
#05418:1200001200001200
#0541c:0012000000000000
#05416:0000000000000012
#05412:0000222200000000
#05512:00120000
#05514:1212
#05518:00120012
#0551a:1200000012000012
#05516:0000000000120000
#05617:0012120022000000
#05612:0012000000000000
#0561c:0022
#05615:00000023
#05618:0000000000000023
#0651b:1300000000000013
#06512:23000000130000000000001300000000
#06517:00000000130000000000001300000000
#06516:0000000000000013
#06617:00130000
#0661b:0013
#06618:0000000000130013
#06615:00000013
#06616:0013
#06716:1300000000000013
#06712:00000000130000000000001300000000
#0671b:1300000000000013
#06717:00000000130000000000001300000000
#06812:00131300
#06816:0000000000131300
#0681b:0000001300001300
#06817:0000000013000013
#07312:00130013
#07318:000000000000000000130000000000000000001300000000
#07315:0013
#0731b:130000000000000000000000001300000000000000000000
#07316:13
#0741b:13000013
#07418:00131300
#07415:0000001300000000
#07412:000000000000000000000000001300000000000000000000
#07416:13000013
#07517:13
#0751b:00130013
#07515:000000000000000000130000000000000000001300000000
#07518:0013
#07512:000000000000000000000000001300000000000000000000
#07712:00131300
#0771b:0000001300001300
#07717:000000000000130000000000001300000000000000000000
#07716:130000000000000000130000000000000000001300000000
#07817:1300001300001300
#0781b:00131300
#07816:000000000000000000000000001300000000000000000000
#07812:1300001300001300
#0081b:1300000000230000
#00816:13
#00819:0013000000000000
#00814:0013000000000000
#00812:00130000
#00817:00130000
#00818:00000023
#00815:0000000000000023
#01317:00000000130000000000001300000000
#0131b:1300000013000013
#01312:13000000130000000000001300000000
#01316:0013
#01412:00130000
#0141b:0013
#01418:0000000000130013
#01415:00001313
#0151b:1300000013000013
#01517:00130000
#01512:13000000000000000000001300000000
#01516:0000000000000013
#01612:00130013
#0161b:0013
#01614:0000000000130000
#01617:00000013
#01619:0000000000000013
#01616:0013
#02412:13
#04312:1313
#0431b:13000000130000000000001300000000
#04316:00000000000000000000001300000000
#04317:0000000000000013
#04310:41
#04718:1300000000000013
#0471b:00000000130000000000001300000000
#04712:00000000130000000000001300000000
#04715:0013
#06912:1300000000000013
#0691b:13000000130000000000001300000000
#06916:00000000130000000000001300000000
#06917:0000000000000013
#07016:00130000
#07012:0013
#07015:0000000000130013
#07018:00000013
#07017:0013
#07612:13000013
#07615:00131300
#07618:0000001300000000
#0761b:000000000000000000000000001300000000000000000000
#07617:13000013
#0791b:00131300
#07912:0000001300001300
#07916:000000000000130000000000001300000000000000000000
#07917:000000000000000000130000000000000000001300000000
#08016:1300001300000000
#08012:00130000
#0801b:1300001300002200
#08014:0000000000220000
#08018:0022
#07117:1300000000000013
#0711b:00000000130000000000001300000000
#07112:1300000000000013
#07116:00000000130000000000001300000000
#07110:41
#0721b:00131300
#07217:0000000000131300
#07212:0000001300001300
#07216:0000000013000013
#05715:0000130000130000
#05718:0000130013000013
#0571b:23000013
#05712:2300001300000000
#0571f:21
#05815:13130000
#05812:0013001313000000
#05818:0013001300000013
#0581b:13133300
#05810:41
#05915:13
#05912:0000130000130000
#05916:0000001300000013
#05918:00131300
#0591b:1300000000130013
#06012:0013000000001300
#0601b:0000001300130000
#06015:0000000000000013
#06017:0013000000000000
#06112:23131300
#06115:0000000000130013
#06118:23000013
#0611b:0000001300000000
#06117:00130000
#06212:1300001300000000
#06214:0013000000000013
#06216:00131313
#06217:1300001300000000
#06219:0013000000000000
#0621b:00133300
#06312:13000013
#06315:0000130013000013
#06318:00130000
#0631b:1313
#06418:1300000000000023
#06415:0013000000002300
#06412:00130000
#0641b:0000130000230000
#03215:2300000000000023
#03218:00230023
#0321b:0023
#03212:0023
#00156:0000000000000053
#00357:00000053
#0055b:0000000000000053
#00857:00530000
#00852:00530000
#00957:0053
#0095b:13000000000000000000005300000000
#00952:1300000000000053
#01152:1300000053000053
#01156:00000000000000000000001300000000
#01252:0013
#0125b:00000013
#0135b:0000000000000063
#01352:13000000000000000000006300000000
#01356:0063
#0155b:1300000063000063
#01557:00000000000000000000001300000000
#0165b:0013
#01652:00000013
#0175b:0000000000000053
#01857:0023000000000000
#01957:00000053
#01952:00000053
#02058:0000000000000053
#02155:0000000000000053
#0255b:53
#0305b:53
#03352:13
#0335b:1300002300000000
#03358:00530000
#03455:0000005300000000
#0345b:0053
#03552:0000000000000013
#03558:13
#0355b:00530000
#03557:0000002300000000
#0365b:0013000000000000
#03652:0000001300000000
#03756:00530000
#03752:0000002300000000
#03755:13
#03856:0000005300000000
#03955:00530000
#03952:1353
#0395b:13
#02252:0023000000000000
#0405b:00530000
#0415b:5353
#04152:00530000
#04157:00000000000000000000005300000000
#04156:0000000000000053
#04352:6363
#0435b:00630000
#04356:00000000000000000000006300000000
#04357:0000000000000063
#04555:5300000000000053
#04552:00530000
#04558:0053
#0455b:00000000000000000000005300000000
#04652:00230000000000000000000000000000
#04758:6300000000000063
#0475b:00630000
#04755:0063
#04752:00000000000000000000006300000000
#0485b:00230000000000000000000000000000
#05152:00520000
#0535c:00520000
#0655b:53
#06557:00530000
#06552:13530000
#06556:0000000000000053
#06756:53
#06757:00530000
#06752:00000000530000000000001300000000
#0675b:1300000000000053
#06952:63
#0695b:13630000
#06957:0000000000000063
#06956:00630000
#07456:00000053
#07657:00000063
#07852:53000053
#07857:00000053
#0805b:63
#06857:0013
#06856:00000013
#07157:63
#0715b:00000000630000000000001300000000
#07152:1300000000000063
#07156:00630000
#07256:0013
#07257:00000013
#03152:00530000
#05755:00630000
#05752:1300002300000000
#0575b:13
#05858:0000006300000000
#05852:0063
#05955:13
#05952:00630000
#05956:0000002300000000
#0595b:0000000000000013
#06052:0013000000000000
#0605b:0000001300000000
#06358:00630000
#0635b:1363
#06352:13
#06452:00630000
#0615b:0000002300000000
#06157:00630000
#06158:13
#06257:0000006300000000
#0665b:0013
#06655:00000013
#07052:0013
#07058:00000013
#001360:0000000000000013
#003320:23
#003370:00000013
#0053b0:23
#0053b0:0000000000000013
#007370:23
#008370:00130000
#0083b0:0023
#008321:00130000
#008361:0023
#009371:0000000013000023
#0093b1:00000000000000000000003300000000
#009320:0000000000000013
#010360:00230000
#0113b0:00132300
#011321:0013
#011361:00000000000000000000002300000000
#011321:0000000000000013
#012361:00230000
#013361:0000000013000023
#013321:00000000000000000000003300000000
#0133b0:0000000000000013
#014370:00230000
#015320:00132300
#0153b1:0013
#015371:00000000000000000000002300000000
#0153b1:0000000000000013
#016371:00230000
#0173b1:0000000000000013
#018371:0053000000000000
#0183b1:0000002300000000
#019371:00000013
#0203b1:00230000
#019320:00000013
#020360:00230000
#020380:0000000000000013
#0213b0:3323000000000000
#021350:0000000000000013
#022320:0033000000000000
#022350:0000332300000000
#0223b0:0000000000130000
#022370:0000000000000033
#0233b0:0023000000000000
#0243b0:13
#0243a0:003300000000000000000000
#024390:003300000000
#024380:00230000
#024351:00130000
#024341:003300
#024331:000000000033000000000000
#024321:0023
#0243b0:0013
#0243a0:000000000000003300000000
#024390:000033
#024380:00000023
#024351:00000013
#024341:000000000033
#024331:000000000000000000000033
#025321:23
#0253b0:13
#025370:00230000
#0303b0:13
#030370:0000002300000000
#031320:00130000
#031360:0023
#033380:00132300
#0333b0:0000005300000000
#034350:0000001300000000
#034320:00003323
#0343b1:0013
#034371:00000023
#0353b1:00132300
#035371:0000005300000000
#036371:0000001300230000
#037361:00132300
#037321:0000005300000000
#038361:0000001300000000
#038321:00003323
#039351:00130023
#039321:0033
#0403b1:00130000
#040371:0000000000230000
#0413b1:13
#041371:00230000
#041320:00130000
#041360:0023
#0413b1:0000000013000023
#041371:00000000000000000000003300000000
#041360:0000000000000013
#042320:00230000
#0423b0:00000000000000001300002300000000
#043320:13
#043360:00230000
#0433b1:00130000
#043371:0023
#043320:0000000013000023
#043360:00000000000000000000003300000000
#043371:0000000000000013
#0443b1:00230000
#045351:1323
#045321:00330000
#045380:0000000013000023
#0453b0:00000000000000000000003300000000
#045351:0000000000000013
#046321:00530000000000000000000000000000
#046351:00230000
#047381:1323
#0473b1:00330000
#047350:0000000013000023
#047320:00000000000000000000003300000000
#047381:0000000000000013
#0483b1:00530000000000000000000000000000
#048381:00230000
#051321:00120000
#051361:0000000032220000
#0533c1:00120000
#053381:0022
#057351:00132300
#057321:0000005300000000
#058381:0000001300000000
#0583b1:00003323
#058320:0013
#058360:00000023
#059320:00132300
#059360:0000005300000000
#060360:0000001300230000
#061370:00132300
#0613b0:0000005300000000
#062370:0000001300000000
#0623b0:00003323
#063380:00130023
#0633b0:0033
#064320:00130000
#064360:0000000000230000
#0653b0:1323
#065370:00330000
#065321:00130000
#065361:0023
#065361:0000000000000013
#066321:00230000
#067361:1323
#067321:00330000
#067370:00130000
#0673b0:0023
#0673b0:0000000000000013
#068370:00230000
#069320:1323
#069360:00330000
#0693b1:00130000
#069371:0023
#069371:0000000000000013
#0703b1:00230000
#071371:1323
#0713b1:00330000
#071360:00130000
#071320:0023
#071320:0000000000000013
#072360:00230000
#074360:00000013
#075320:23
#076370:00000013
#0773b0:23
#078320:13
#078360:00230000
#078320:00000013
#079360:23
#078371:00000013
#0793b1:23
#0803b1:13
#080371:00230000
