This file was generated by Ched 2.7.0.0.
#TITLE ""
#ARTIST ""
#DESIGNER ""
#DIFFICULTY 0
#PLAYLEVEL
#SONGID ""
#WAVE ""
#WAVEOFFSET 0
#JACKET ""
#REQUEST "ticks_per_beat 480"
#00002: 4
#BPM01: 126
#00008: 01
#TIL00: ""
#HISPEED 00
#MEASUREHS 00
#0101b:0013
#01015:0000000000130013
#01018:00000013
#0111b:13
#01115:0000000000000013
#01112:00130000
#01118:0013
#01218:00000013
#01215:0000000000130013
#0121b:0013
#01715:0000001300001300
#01718:0000000000130013
#01712:13
#0171b:00130000
#01710:41
#01815:0013
#01818:0000000000130000
#01812:00000013
#0181b:0000000000000013
#02012:0000000000130000
#02018:00000013
#02015:0000000000000013
#0211b:0000000000130000
#02115:00000013
#02118:0000000000000013
#02112:33
#02318:0000000000130013
#02315:00000013
#02515:1313
#0251b:0000001300000000
#02518:0000000000130000
#02510:41
#02618:0000000000130013
#02615:00130013
#02612:1333003300000000
#0271b:23130013
#02718:0000001300130000
#02715:0013
#02712:2300000000000014
#02816:1414
#02815:0000000000000013
#0281a:0024001400000000
#02812:0000000000240000
#02918:13000013
#0291b:0013000013000000
#02912:0000001300000013
#02915:0000000000130000
#0301b:1300000000000013
#03015:00001313
#03018:0000000000130000
#03012:0000000000000013
#03118:0013000000130000
#03115:00000013
#03112:00130000
#0311b:0000000000000023
#03318:0000000000130000
#03315:00130013
#0331b:2300000000000013
#03310:41
#03418:1300001300000000
#03415:0013000000000013
#03412:00130000
#0341b:0033
#03518:13
#03512:0000130000000014
#0351b:0000000000130000
#03618:0014000000000013
#0361b:0000000000130000
#03615:00000013
#03614:0000001400000000
#0401b:00130000
#04018:13000023
#04012:0013000000230000
#04015:0000000000000023
#04915:00130013
#0491b:1313
#04918:0000000000130000
#04912:0000000000000013
#0491f:11
#05015:1300001300000013
#05018:0013000000001300
#0501b:0000130000130000
#06518:00130000
#06515:0000000000000013
#06512:23
#0651b:00000000000000003300003300000000
#0661b:0013
#06615:0000000000130013
#06618:00000013
#06718:0000000000000013
#06715:00130000
#0671b:13
#06712:00000000000000003300003300000000
#06812:0013
#0681b:0000000000130000
#06818:00000013
#06815:0000000000000013
#07315:00000013
#0731b:00000013
#07318:0000000000000013
#0081b:1300000000230000
#00818:0013000000000023
#00815:00130023
#00918:00130000
#00912:2300000000000013
#01915:1300000000130000
#0191b:0000001300000000
#01918:00000013
#00018:00000013
#00015:0000000000000013
#00115:0000000000130000
#00118:00000013
#00112:0000000000000013
#00218:13000013
#00215:0013000000000013
#0021b:00130000
#0031b:1300000000000013
#00415:0013000000000013
#00412:00000013
#00518:1300000000000013
#0051b:0000000000130000
#00515:00000013
#00612:13000013
#00618:0013000000000013
#00615:00130000
#00715:1300000000000013
#01412:0013
#01418:0000000000130013
#01415:00000013
#01512:13
#01518:0000000000000013
#0151b:00130000
#01515:0013
#01615:00000013
#01618:0000000000130013
#01612:0013
#01315:00130000
#0131b:1300000000000013
#02418:00000013
#03715:0000000000130000
#03718:00130013
#03712:2300000000000013
#03815:1300001300000000
#03818:0013000000000013
#0381b:00130000
#03812:0033
#03915:1300000000000013
#0391b:00130000
#03918:0013
#04212:0013
#04218:0013
#0411b:0000000013000013
#04118:00000000000000000000001300000000
#04312:0000000013000013
#04315:00000000000000000000001300000000
#04310:41
#0441b:0013
#04415:0000000000130000
#04418:00000013
#04412:0000000000000013
#04518:0000000013000013
#0451b:00000000000000000000001300000000
#04612:0013
#04618:0000000000130000
#04615:00000013
#0461b:0000000000000013
#04715:0000000013000013
#04712:00000000000000000000001300000000
#04812:0000000000130000
#04815:00000013
#04818:0000000000000013
#05112:1300000000000013
#05118:00130000
#0511b:0033
#05218:0013000000000000
#05215:0000001300000013
#0521b:0000000000130000
#05212:00000013
#05318:13000013
#0531b:00130000
#05312:0000000000130000
#05315:0000000000000013
#0541b:13
#05412:0013000000000000
#05415:00000013
#05418:0000232300000013
#0551b:1313
#05512:1300000000000013
#05515:0000130000130000
#05518:00000013
#0561b:0013000000000000
#05615:00130023
#05618:0000000023000023
#05715:0000000000130000
#05718:00130013
#05712:2300000000000013
#0571f:21
#05815:1300001300000000
#05818:0013000000000013
#0581b:00130000
#05812:0033
#05810:41
#05915:13
#0591b:00130000
#05912:0000000000130000
#0591a:0000000000000014
#06014:0014000000000000
#06012:0000000000130000
#06018:0000001400001300
#06015:0000000000000013
#06412:00130000
#06415:13000023
#0641b:0013000000230000
#06418:0000000000000023
#06118:0000000000130000
#06115:00130013
#0611b:2300000000000013
#06218:1300001300000000
#06215:0013000000000013
#06212:00130000
#0621b:0033
#06318:1300000000000013
#06312:00130000
#06315:0013
#06915:00130000
#06918:0000000000000013
#0691b:13
#06912:00000000000000003300003300000000
#07012:0013
#07018:0000000000130013
#07015:00000013
#07115:0000000000000013
#07118:00130000
#07112:13
#0711b:00000000000000003300003300000000
#07110:41
#0721b:0013
#07212:0000000000130000
#07215:00000013
#07218:0000000000000013
#0741b:00000013
#07415:00000013
#07518:00000013
#07512:00000013
#07515:0000000000000013
#07612:00000013
#07618:00000013
#07715:0000001300001300
#0771b:00000013
#07718:0000000013000013
#0781b:00000013
#07815:00001313
#07818:0000001300000000
#07918:0000001300001300
#07912:00000013
#07915:0000000013000013
#08015:0000001300230000
#08018:0023
#0801b:00000023
#03215:2300000000000023
#03218:00230023
#03212:0023
#0221b:0033330000000000
#00855:00530000
#01155:0000000000000053
#0115b:13000000000000000000001300000000
#01158:0053
#01758:0000000000000053
#01958:00000053
#02055:0000000000000063
#02158:0000000000000063
#02555:53
#0305b:53
#0335b:13
#03355:00530000
#03458:0000006300000000
#03552:0000530000000014
#03558:13
#03658:0014000000000000
#03654:0000001400000000
#0405b:00530000
#06558:00530000
#06552:13
#06555:0000000000000053
#06755:00530000
#06758:0000000000000053
#0675b:13
#00952:1300000000000053
#03152:00530000
#01552:13000000000000000000001300000000
#01558:0000000000000063
#01555:0063
#0135b:1300000000000063
#02652:53
#02655:00230000
#03855:0000005300000000
#03955:13
#0395b:00630000
#03958:0053
#03758:00630000
#03752:13
#04252:0053
#04258:0053
#04158:00000000000000000000005300000000
#0415b:0000000053000053
#04352:0000000063000063
#04355:00000000000000000000006300000000
#04558:0000000063000063
#0455b:00000000000000000000006300000000
#04755:0000000053000053
#04752:00000000000000000000005300000000
#05158:00530000
#0535b:00530000
#05855:0000005300000000
#05955:13
#0595b:00630000
#0595a:0000000000000014
#06054:0014000000000000
#06058:0000001400000000
#06452:00630000
#05758:00630000
#05752:13
#06258:0000006300000000
#06358:13
#06352:00530000
#06355:0063
#06155:00530000
#0615b:13
#06955:00630000
#06958:0000000000000063
#0695b:13
#07155:0000000000000063
#07158:00630000
#07152:13
#001380:13
#0013b0:00332300
#002320:0000001323000000
#003320:00130000
#003350:0000000033230000
#004380:0000001300000000
#0043b0:0000000000230000
#005320:00130000
#005350:0023
#0063b0:0000001323000000
#0073b0:00130023
#007380:0033
#008350:00130000
#008320:0023
#009320:0000000013000033
#009350:00000000000000000000003300000000
#010350:00230000
#011380:0013
#0113b0:00000000000000000000002300000000
#011350:0000000000000013
#012320:00230000
#0133b0:0000000013000033
#013380:00000000000000000000003300000000
#014380:00230000
#015350:0013
#015320:00000000000000000000002300000000
#015380:0000000000000013
#0163b0:00230000
#017380:0000000000000013
#0183b0:0000002300000000
#019380:00000013
#0203b0:00230000
#020350:0000000000000013
#021320:3323000000000000
#021380:0000000000000013
#0223b0:0033332300000000
#022350:0000000000130000
#022320:0000000000000033
#023350:0033230000000000
#024320:1323
#024330:003300000033000000000000
#024340:003333000000
#024350:00330000
#025350:13
#025320:00230000
#025320:00000013
#026320:3333003323000000
#026350:00330000
#0303b0:13
#030380:0000002300000000
#031320:00130000
#031350:0023
#033350:00130000
#033320:0023
#034380:0000001300000000
#0343b0:00003323
#035320:00130000
#035350:0023
#037380:00130000
#0373b0:0023
#038350:0000001300000000
#038320:00003323
#0393b0:00130023
#039380:0033
#0403b0:00130000
#040380:0023
#0413b0:1300000033000033
#041380:00000000330000000000003300000000
#042380:00230000
#042320:0013
#042350:00000000000000000000002300000000
#042381:0013
#0423b1:00000000000000000000002300000000
#043321:1300000033000033
#043351:00000000330000000000003300000000
#044351:00230000
#045381:1300000033000033
#0453b1:00000000330000000000003300000000
#0463b1:00230000
#047351:1300000033000033
#047321:00000000330000000000003300000000
#048321:00230000
#051381:00130000
#0513b1:0000000033230000
#0533b1:00130000
#053381:0023
#057381:00130000
#0573b1:0023
#058351:0000001300000000
#058321:00003323
#0593b1:00130000
#059381:0023
#061351:00130000
#061321:0023
#062381:0000001300000000
#0623b1:00003323
#063321:00130023
#063351:0033
#064321:00130000
#064351:0023
#065381:00130000
#0653b1:00000000000000003300003300002300
#065350:0000000000000013
#066320:00230000
#067350:00130000
#067320:00000000000000003300003300002300
#067381:0000000000000013
#0683b1:00230000
#069351:00130000
#069321:00000000000000003300003300002300
#069380:0000000000000013
#0703b0:00230000
#071380:00130000
#0713b0:00000000000000003300003300002300
#071351:0000000000000013
#072321:00230000
#0733b1:13
#073381:0000333323000000
#074351:13
#074321:0000333323000000
#075321:13
#075351:0000333323000000
#076381:13
#0763b1:0000333323000000
#0773b1:13
#077381:00230000
#078351:13
#078321:00230000
#079321:13
#079351:00230000
#080381:13
#0803b1:00230000
