This file was generated by Ched 2.7.0.0.
#TITLE ""
#ARTIST ""
#DESIGNER ""
#DIFFICULTY 0
#PLAYLEVEL
#SONGID ""
#WAVE ""
#WAVEOFFSET 0
#JACKET ""
#REQUEST "ticks_per_beat 480"
#00002: 4
#BPM01: 126
#00008: 01
#TIL00: ""
#HISPEED 00
#MEASUREHS 00
#00318:0000001200000000
#00312:0000000000121c00
#0031c:0000001200000000
#00316:12
#00514:00130000
#00516:0013000013000000
#00518:0000001300001300
#00512:13000013
#0051b:0000130013130000
#00515:0000000000000013
#00612:1313
#00616:00130013
#00614:0013001300130013
#00617:1313
#0061b:00130013
#00718:00000000130000130000000013000013
#00715:00000013000000001300001300000000
#00712:1300001300130000
#0071b:0013000000000013
#00916:00001400130014000000001300000000
#00912:2400000013000013
#0091b:00130000
#00917:00000000000000001300000000130000
#0091a:24
#0101b:13001300130000001300001300130000
#01012:0013
#01015:0000000000130013
#01017:00000013
#01016:0000001400000000
#01112:1300001313000013
#01115:00130000
#0111b:13000000000000000000001300000000
#01117:0000000000000013
#01118:0013000000000000
#01116:0000000000000000000000000000000000000013000000000000000000000000
#0121b:1313130000001300
#01212:00001313
#01218:0000001313130013
#01215:00000000000000130000000000130013
#01712:1300130000130013
#01716:00000013
#01717:0000001300130013
#0171b:13000013
#01710:41
#01817:0013001300130013
#0181b:0013000013001300
#01812:0000000000130013
#01819:00130000
#0191b:13
#01912:13000012
#0191c:0000001200000000
#01918:0000001200000000
#01916:0000000000121200
#02012:0000000000130000
#02014:00000013
#02018:0000000000120000
#0201a:00000012
#0201c:0000000000000012
#02212:0000000000120000
#02216:0012000000120000
#02218:0012000000000012
#0221b:00120000
#02213:00120000
#02217:00000012
#0221c:0000000000000012
#02312:0013000000120000
#0231b:00130000
#0231c:00000012
#02314:0000000000000012
#02318:00120000
#02317:1200000000121200
#02316:0012000000000000
#0231a:0000000000000012
#0251b:1313
#02515:00130000
#02516:000000000000000000140000140000000000140000000014
#02514:0000000000130000
#02512:13000013000000000000000013000000
#02517:0013000000000000
#02519:0000000000130000
#02510:41
#0261a:14141400
#02612:000014000000000014000000000000000000000000000013
#02616:0013001300001400
#02617:000000000013000000000013000000000000000000000000
#02618:000000000000000000000000000000130000000013000000
#02615:000000000000000000000000000013000000000000130000
#0261b:000000000000000000000000000000000013000000000000
#02712:0000130000001313
#02715:0000001300130000
#0271b:00000000000000001300000000000013
#02717:0000130000001313
#02719:0000001300130000
#02718:0013
#02716:24
#02815:13
#02817:00130000000000000000000000001300
#02819:13
#0281b:0000001300230000
#02818:0013
#02816:00000000140013000013000014000000
#02812:00002300000000130000000000001300
#02814:0013
#02919:13
#0291b:0013000013000000
#02916:00001300000000140000000000001400
#02915:00000013
#02912:0000001300000013
#02914:13
#0301b:1300000013001313
#03012:0013001300130013
#03017:0000000000130000
#03016:14000013
#0311b:0013001313001300
#03117:00130000
#03112:0000130000130023
#03116:00001300000000130000000013002400
#0331b:0000130000000013
#03312:2400000013001313
#03316:0014001400140000
#0331a:24
#03310:41
#03419:13
#03417:0013001300000000
#03415:00130000
#03416:0000000000000014
#03412:00000014000013001300000000000000
#03414:00140000000000000000000000000000
#0341b:0033
#0351b:1300130013130000
#03517:00000000000000140000000000001300
#03512:1300130013130013
#03516:0014000000001400
#03515:0000001400000000
#0361b:0013000000001300
#03612:00000000000013000000130000000013
#03618:0000000000000013
#03616:1413140013000000
#03617:0000001300000000
#03615:00000000000000000000000000130000
#0371b:00130013
#03717:0013001300000000
#03718:0000000000130013
#03712:0013001300130000
#03716:00131300
#03715:26
#0381b:13130000
#03817:0013000013000000
#03819:0000001300000013
#03814:0013000000000013
#03812:13133300
#03816:0000001300000000
#0391b:13000013
#03918:00001300130000130000130000001300
#03915:00000013000013001300001300000000
#03912:13000013
#04012:1600160000230000
#04018:0013000000000000
#0401b:00130000
#04015:0013000000000000
#0401a:00000024
#04016:0000000000000024
#0411b:1333333333000000000000001300000013000000000000000000000013000000
#04112:24001300130000000000001300000000
#04116:00000000000000000000000000140000
#04219:0000001300000000
#04216:0013
#04212:00330033000000000000001300000000
#04218:00000000000000000000000000130000
#04215:0000000000000013
#04214:0000001300000000
#0421b:0013
#04416:0000001400001400
#04412:0000000013000013
#0441b:13001300000000130000001300001300
#04418:00000000000000000013000000000013
#04415:0000000000130000
#04417:00130000130000000000000000000000
#04615:00130000130000001300001300000013
#0461b:0000001300000000
#04612:0000000000001313
#04618:00000000000000130000130000000000
#04812:0000000000120000
#04815:00000012
#04818:00130000130000000000000000001200
#0491b:12
#0491c:00120000
#04916:0012
#04918:0000120000120000
#04915:00000012
#04912:12000000000000121200000000001200
#0491f:11
#05018:0012000000000000
#05013:0000000000120000
#05016:00000012
#05019:0000000000000012
#05112:0000120000120012
#0511c:1212
#05116:12120000
#05118:0000000000120012
#05316:0000000000120000
#0531a:00000012
#05314:0000000000000012
#05312:1200000012121200
#0531c:00120000
#05317:12120000
#05418:1200000000001212
#0541c:0012220000000000
#05417:0000121200000000
#05414:1212000000000000
#05412:0000002200000000
#05512:00120000
#05514:00001212
#05518:00120012
#0551a:00000000000000121200000000001200
#05516:1200000000120012
#0551c:12
#05616:0012120000002424
#05618:0022
#0561c:0022
#0561b:00000023
#05612:0000000000000023
#0651b:00001300000013000000001300000000
#06517:00000000000000000000001300001300
#06512:13000000130000000000000000131300
#06516:0013001300000000
#0651a:24
#06616:00000000130000001300000000000013
#0661b:0013
#06619:0000000000130013
#06612:1300001300001300
#06614:0013000000000000
#06617:0000001300001300
#0671b:13000000000000000000001300001300
#06717:0013130000000013
#06716:1300001313000000
#06715:00000013000000000000000000000000
#06718:00000000000000130000000000000000
#0681b:0000001300130013
#06817:00001313
#07312:0000121200001500
#07317:120000000000000000120000120000000000001200000000
#07319:000000000000000000000000001500000000000000000000
#07417:0000121212001200
#07412:000000000000000000000000001500000000000000000000
#0741c:1200001200001200
#07712:00141200
#0771a:0000001400000000
#07717:0000121212001200
#0771c:12000012
#07715:000000000000000000000000000000000000001200000000
#07714:000000000000000000000000001200000000000000000000
#07817:120000000000000000120000171200000000120000000000
#0781c:00120000
#07812:1200001400001200
#01312:13130000
#0131b:1300000013000013
#01317:00000000130000000000001300000000
#01316:00001400000014001300000000130000
#04312:1300001313000013
#04317:13
#0431b:00001300130000000000001300000000
#04316:00000000000000000000000000140000
#04310:41
#05216:0012000000000000
#05212:0000001200000000
#05218:0012000000120000
#0521c:12120012
#05217:0000000000000012
#0011c:12
#00112:000000000012001c
#00116:0000000000120000
#00118:12
#00812:1300000000000023
#0081b:00130000000000000000230000000000
#00813:0013000000000000
#0081a:00000013000000000000000000000000
#00814:00130023
#00819:00000000001300000000000023000000
#00815:0000001300000000
#00818:00000000000000130000000000000000
#00816:0000000014230000
#00817:0000000000000023
#01412:13001300130000001300001300130000
#0141b:0013
#01418:0000000000130013
#01416:0000001400001300
#0151b:1300001313000013
#01518:00130000
#01512:13000000000000000000001300000000
#01516:0000000000000013
#01515:0013000000000000
#01517:0000000000000000000000000000000000000013000000000000000000000000
#01612:1313130000001300
#0161b:00001313
#01615:0000001313130000
#01618:00000000000000130000000000000000
#01616:0000000000000014
#02118:12
#0211c:0012000000000000
#02112:0000000000120000
#02119:0000000000120000
#02117:00000012
#0241b:13000013
#02418:001300000014140000001300
#02415:000013001300001300000013
#02412:000000130000000013000000
#02414:000000000000000000000014000000000000000000000000
#03216:2312240024002424
#03218:0000001200000000
#0321b:0000000023000023
#03212:00230023
#04515:1313
#0451b:00001300130000000000001300000000
#04518:00000000000000000000001300001300
#04512:0000001300000000
#04718:1313
#04712:00001300130000000000001300000000
#04715:00000000000000000000001300001300
#0471b:0000001300000000
#06112:00130013
#06116:0013001300000000
#06115:2600000000130013
#0611b:0013001300130000
#06117:00131300
#06212:13130000
#06216:0013000013000000
#06214:0000001300000013
#06219:0013000000000013
#0621b:13133300
#06217:0000001300000000
#06312:13000013
#06315:00001300130000130000130000001300
#06318:00000013000013001300001300000000
#0631b:13000013
#06418:1613160000000000
#06415:0013000000000000
#06412:00130024
#0641b:0000000000230000
#06416:0000000000000024
#06912:00001300000013000000001300000000
#06916:13000000000000000000001300001300
#0691b:13000000130000000000000000131300
#06917:0013001300000000
#07017:00000000130000001300000000000013
#07012:0013
#07014:0000000000130013
#0701b:1300001300001300
#07019:0013000000000000
#07016:0000001300001300
#07112:13000000000000000000001300001300
#07116:0013130000000013
#07117:1300001313000000
#07118:00000013000000000000000000000000
#07115:00000000000000130000000000000000
#07110:41
#07212:0000001300130013
#07216:00001313
#0751c:0000121200000000
#07517:000000000000000000120000120000000000001200000000
#07512:000000000000000000000000001500000000000000000000
#07519:00000015
#07617:0000121212001200
#07619:000000000000000000000000001500000000000000000000
#07612:1200001200001200
#0791a:000000000000140000000000001200000000000000000000
#07912:0000001400001200
#0791c:0012
#07917:0000121212001200
#07919:000000000000000000000000000000000000001200000000
#08017:1200001200000000
#08012:00120000
#0801a:0000001400002100
#0801c:12
#08018:0021
#08015:0000000000210000
#05712:2400130000000013
#0571b:0000000013001313
#05716:0014001400140000
#0571a:24
#0571f:21
#05814:13
#05816:0013001300000014
#05818:00140000130000000000000000000000
#0581b:0000001313000000
#0581a:00000014000000000000000000000000
#05812:0033
#05810:41
#05912:1300130013130000
#05916:0014000000001413
#0591b:1300130013130013
#05917:0000001400000000
#05915:00000000000000140000000000000000
#06012:0013000000001300
#0601b:00000000000013000000130000000013
#06015:0000000000000013
#06017:0013000013000000
#06016:1400141300000000
#06018:00000000000000000000000000130000
#01152:33000000000000005300003300005300
#0115b:43
#01156:0000000000000000000000000000000000000023000000000000000000000000
#01752:0000000000000063
#01857:0023000000000000
#01956:00000052
#01952:00000052
#0195b:13
#0255b:53
#02557:0023000000000000
#02556:00000054
#0305b:5300000000000013
#03457:0000006300000000
#03452:0063
#03756:00535300
#03752:0000002300230000
#03755:16
#0375b:00530000
#03757:0000002300000000
#03856:0000005300000000
#03857:0053
#0405b:00530000
#0415b:5300000053000053
#04152:00530000
#04352:6300000063000063
#0435b:00630000
#04655:00230000000000000000000000000000
#05152:00520000
#05158:0000000000000052
#0535c:00520000
#06557:0000000000000063
#06552:53530000
#06556:0023002300000000
#0655b:0000002300000000
#0655a:14
#0675b:1300000000000053
#06756:5353
#06757:0000530000000053
#06752:00000000000000000000001300000000
#0745c:00000052
#07852:52000052
#07857:00000052
#06857:00001313
#03152:00530000
#0315b:0053
#00152:000000000000005c
#00352:0000005c
#00657:5353
#0065b:00230023
#00957:0053
#00952:3400000000000053
#0095a:44
#01352:33
#01356:0063
#0135b:0000000000000063
#01252:0033
#0125b:00000043
#0155b:43000000000000006300004300006300
#01552:33
#01557:0000000000000000000000000000000000000023000000000000000000000000
#0165b:0043
#01652:00000033
#02258:0052000000000000
#02256:0052000000000000
#02253:00220000
#0225b:00220000
#02757:0000000000000053
#0275b:00000000000000000000000000000023
#02859:53
#02857:00230000000000000000000000000000
#02856:00000000000063000023000000000000
#02852:00000000000000230000000000000000
#02854:0063
#0295b:0053000000000000
#0335a:44
#03352:34
#03552:1300000000000033
#0365b:0043000000000000
#03652:0000003300000000
#03657:0000005300000000
#03958:00530000
#03955:0053
#03952:13
#0395b:13
#0425b:0053
#04457:00230000000000000000000000000000
#04555:5353
#0455b:00530000
#04558:00000000000000000000005300005300
#04552:00130000
#04858:00230000000000000000000000000000
#04758:6363
#04752:00630000
#04755:00000000000000000000006300006300
#05258:0052000000000000
#0525c:22220000
#05252:0000005200000000
#06152:00630000
#06156:0000002300000000
#0615b:0000002300230000
#06157:00636300
#06155:16
#06355:00630000
#06358:0063
#0635b:13
#06352:13
#06452:00630000
#06257:0000006300000000
#06256:0063
#0665b:0013
#06652:00000013
#06956:1300000000000053
#0695b:63630000
#06957:0023002300000000
#06952:0000002300000000
#07052:0013
#0705b:00000013
#07152:1300000000000063
#07156:0000630000000063
#07157:6363
#0715b:00000000000000000000001300000000
#07256:00001313
#0805c:62
#05856:0000005300000000
#0585b:0053
#06052:0033000000000000
#0605b:0000004300000000
#06056:0000006300000000
#0595b:1300000000000043
#0575a:44
#05752:34
#07652:00000062
#001320:000000000000001c
#003320:22
#003320:0000001c
#0053c0:22
#006370:1333
#0063b0:00530053
#007370:23
#009370:0013
#0093b0:00000000000000000000002300000000
#009320:0000000000000013
#010360:00230000
#0113b0:00130000
#011370:0023
#011321:00000000000000001300002300000000
#011361:0000000000000000000000000000000000000053000000000000000000000000
#011321:0000000000000013
#012371:00230000
#013361:0013
#013321:00000000000000000000002300000000
#0133b1:0000000000000013
#014371:00230000
#015321:00130000
#015361:0023
#0153b0:00000000000000001300002300000000
#015370:0000000000000000000000000000000000000053000000000000000000000000
#0153b0:0000000000000013
#016360:00230000
#0173b0:0000132300000000
#017320:0000000000000013
#018370:0053000000000000
#018320:0000002300000000
#019360:00000012
#0203c0:00220000
#019321:00000012
#020381:00220000
#020361:0000000000000013
#021321:33
#021361:0023000000000000
#0213c1:0000000000000012
#022381:0032002200000000
#0223b1:00320000
#021350:0000000000000012
#022360:0032002200000000
#022330:00320000
#0253b0:13230000
#025370:0053000000000000
#025360:00000014
#0253a0:000000000000000000000000000000000000000000000024
#027370:0000000000000013
#0273b0:00000000000000000000000000000053
#028390:33
#028370:00530000000000000000000000000000
#0283b0:0023000000000000
#028360:00000000000013000053000000000000
#028320:00000000000000530000230000000000
#028340:0033
#0293b0:0013000000000000
#029370:0000002300000000
#029380:0000000000132300
#0303b0:13
#030360:0000002300000000
#031320:00130000
#031360:0000002300000000
#0313b0:0013
#031370:0000000000230000
#031360:0000000000000014
#0323a0:24
#033320:0000132300000000
#0333b0:0000000000132300
#034370:0000001300000000
#0343b0:00003323
#034321:0013
#034371:00000023
#036371:0000001300000000
#0363b1:0000000000230000
#037361:00133323
#037321:0000005300530000
#0373b0:00132300
#037370:0000005300000000
#038361:0000001300000000
#038321:00003323
#038370:0013
#0383b0:00000023
#039380:00130000
#0393b0:0000002300000000
#039350:0013
#039320:0000000000230000
#0403b0:00130000
#040360:0000000000230000
#0413b0:1333333333000000000000000000000000000000000000000000000000000000
#041370:00230000
#041321:00130000
#041361:0023
#0413b0:0013
#041370:00000000000000000000002300000000
#0413b0:0000000000000013
#042370:00230000
#042321:13330033230000000000000000000000
#042341:0033000000000000
#0423b1:0013
#042371:00000000000000000000002300000000
#043321:13
#043361:00230000
#0433b0:00130000
#043370:0023
#043321:0013
#043361:00000000000000000000002300000000
#043321:0000000000000013
#044371:00530000000000000000000000000000
#044321:00230000
#045351:13
#045321:00230000
#0453b0:00130000
#045380:0023
#045351:0000000013000023
#045381:00000000000000000000003300000000
#045380:0000000000000013
#046350:00530000000000000000000000000000
#046380:00230000
#047380:13
#0473b0:00230000
#047321:00130000
#047351:0023
#047380:0000000013000023
#047350:00000000000000000000003300000000
#047351:0000000000000013
#048381:00530000000000000000000000000000
#048351:00230000
#050351:1200002200000000
#0503b0:0000122200000000
#051320:00120000
#051380:0022
#051380:0000000000000012
#0523c0:52520000
#052380:0032002200000000
#052321:0000001200000000
#052361:0000000000220000
#0533c1:00120000
#053371:0022
#056321:0012220000000000
#0573b1:0000132300000000
#057321:0000000000132300
#058361:0000001300000000
#058321:00003323
#0583b0:0013
#058360:00000023
#060360:0000001300000000
#060320:0000000000230000
#061370:00133323
#0613b0:0000005300530000
#061321:00132300
#061361:0000005300000000
#062370:0000001300000000
#0623b0:00003323
#062361:0013
#062321:00000023
#063351:00130000
#063321:0000002300000000
#063381:0013
#0633b1:0000000000230000
#064321:00130000
#064371:0000000000230000
#065321:13332300
#065361:0053005300000000
#0653b0:0000135300000000
#065370:0023
#065370:0000000000000013
#0663b0:00230000
#067360:13
#067320:0023000000000000
#067370:00130000
#0673b0:0000002300000000
#067360:0013
#067320:00000000000000000000002300000000
#0673b0:0000000000000013
#068360:00230000
#067371:0000000000000013
#068321:00230000
#068321:0013
#068371:0000000000230000
#068321:00000013
#068371:0000000000000023
#0693b1:13332300
#069371:0053005300000000
#069320:0000135300000000
#069360:0023
#069360:0000000000000013
#070320:00230000
#071370:13
#0713b0:0023000000000000
#071360:00130000
#071320:0000002300000000
#071370:0013
#0713b0:00000000000000000000002300000000
#071320:0000000000000013
#072370:00230000
#071361:0000000000000013
#0723b1:00230000
#0723b1:0013
#072361:0000000000230000
#0723b1:00000013
#072361:0000000000000023
#0733c1:12
#073371:00220000
#074371:12
#074321:00220000
#0743c1:00000012
#075371:22
#075320:12
#075370:00220000
#076370:12
#0763c0:00220000
#076320:00000012
#077370:22
#078320:12
#078370:00220000
#078320:00000012
#079370:22
#078371:00000012
#0793c1:22
#0803c1:12
#080371:00220000
