This file was generated by Ched 2.7.0.0.
#TITLE ""
#ARTIST ""
#DESIGNER ""
#DIFFICULTY 0
#PLAYLEVEL
#SONGID ""
#WAVE ""
#WAVEOFFSET 0
#JACKET ""
#REQUEST "ticks_per_beat 480"
#00002: 4
#BPM01: 126
#00008: 01
#TIL00: ""
#HISPEED 00
#MEASUREHS 00
#0011a:14
#00114:00140000
#00118:0014
#00112:00000014
#00218:14
#00214:00140000
#0021a:0014
#00312:14
#00318:00140000
#00514:00140000
#0051a:0014
#00512:00000014
#00518:24
#00618:14
#00614:00140000
#0061a:0014
#00612:00000014
#00914:00140000
#00918:0014
#00912:00000014
#01018:14
#01014:00140000
#01118:00140000
#01114:0014
#0111a:00000014
#01112:14
#01214:14
#01218:00140000
#01314:00140000
#01318:0014
#01312:00000014
#0131a:14
#01418:14
#01414:00140000
#01518:00140000
#01514:0014
#0151a:00000014
#01512:14
#01614:14
#01618:00140000
#01714:00140000
#01718:0000001400000000
#0171a:24
#01710:41
#01818:0014
#01814:00000014
#0191a:14
#02112:14343434
#02116:0000000000000014
#0231a:14343434
#02316:0000000000000014
#02512:1414
#02518:00140014
#02510:41
#02614:1414
#0261a:00140014
#02912:14
#02918:00140000
#02914:0014
#0291a:00000014
#0311a:14
#03114:00140000
#03118:0014
#03112:00000014
#03318:00140014
#03314:0014
#03312:24
#03310:41
#03412:14
#03418:00140000
#03414:0014
#0341a:00000014
#03512:14
#03518:00140000
#03714:00140014
#03718:0014
#0371a:24
#0381a:14
#03814:00140000
#03818:0014
#03812:00000014
#0391a:14
#03914:00140000
#03918:0014
#03912:00000014
#04112:1414
#04118:00140014
#0431a:1414
#04314:00140014
#04310:41
#04514:1414
#0451a:00140014
#04718:1414
#04712:00140014
#04912:14
#04918:0014
#0491f:11
#05014:14
#0501a:0014
#05112:14
#05118:0014
#05214:14
#0521a:0014
#05613:1414
#05619:1414
#05714:00140014
#05718:2614
#0571f:21
#0581a:14
#05814:00140000
#05818:0014
#05812:00000014
#05810:41
#0591a:14
#05914:00140000
#06118:00140014
#06114:0014
#06112:26
#06212:14
#06218:00140000
#06214:0014
#0621a:00000014
#06312:14
#06318:00140000
#06314:0014
#0631a:00000014
#0651a:1414
#06514:00140014
#06618:0000001400000000
#0661a:14343400
#06712:1414
#06718:00140014
#06814:0000001400000000
#06812:14343400
#06918:1414
#06912:00140014
#0701a:0000001400000000
#07018:14343400
#07114:1414
#0711a:00140014
#07110:41
#07212:0000001400000000
#07214:14343400
#0731a:14
#07314:0014
#07312:14
#07416:14
#07418:0014
#0751a:14
#07518:0014
#07512:14
#07616:14
#07614:0014
#0771a:14
#07718:0014
#07712:14
#07816:14
#07814:0014
#07912:14
#07914:0014
#0791a:14
#08016:14
#08018:0024
#08014:0000000000240000
#0801a:00000024
#02212:34343400
#0241a:34343400
#03012:00343400
#0321a:00343400
#05312:00343400
#0541a:00343400
#05512:00343400
#0195a:14
#02152:54
#02156:0000000000000024
#0235a:64
#02356:0000000000000024
#05758:16
#06152:16
#03352:14
#0375a:14
#0665a:64
#06658:0000002400000000
#06854:0000002400000000
#06852:54
#0705a:0000002400000000
#07058:54
#07252:0000002400000000
#07254:64
#003340:0000000014340034
#004320:0034000000000000
#004340:0000003400002400
#0073a0:14
#007390:00340000
#007380:0034
#007370:00000034
#008360:34
#008370:00340000
#008380:0034
#008390:00000034
#0093a0:24
#0103a0:00001424
#012320:00001424
#0143a0:00001424
#016320:00001424
#017340:0000000000140000
#017330:00000034
#017320:0000000000000024
#021320:14343434
#021360:0000000000000054
#022320:34343424
#0233a0:14343434
#023360:0000000000000054
#0243a0:34343424
#027320:14
#027340:00240000
#0273a0:0014
#027380:00000024
#028340:14
#028320:00240000
#028380:0014
#0283a0:00000024
#030320:14343400
#030340:00000024
#0323a0:14343400
#032380:00000024
#035320:0000000014340034
#036340:0034000000000000
#036320:0000003400002400
#0403a0:1434340000000000
#040380:00000024
#042320:1434
#042340:00340024
#0443a0:1434
#044380:00340024
#046340:1434
#046320:00340024
#048380:1434
#0483a0:00340024
#053320:14343400
#053340:00000024
#0543a0:14343400
#054380:00000024
#055320:14343400
#055340:00000024
#0593a0:0000000014340034
#060380:0034000000000000
#0603a0:0000003400002400
#064320:1434340000000000
#064340:00000024
#0663a0:14343424
#066380:0000005400000000
#068320:14343424
#068340:0000005400000000
#070380:14343424
#0703a0:0000005400000000
#072340:14343424
#072320:0000005400000000
