This file was generated by Ched 2.6.4.0.
#TITLE ""
#ARTIST ""
#DESIGNER ""
#DIFFICULTY 0
#PLAYLEVEL
#SONGID ""
#WAVE ""
#WAVEOFFSET 0
#JACKET ""
#REQUEST "ticks_per_beat 480"
#00002: 4
#BPM01: 165
#00008: 01
#TIL00: ""
#HISPEED 00
#MEASUREHS 00
#0061a:14
#00712:14
#00818:14
#00814:0014
#00918:14
#01012:14
#01010:41
#01112:14
#0121a:14
#0131a:14
#01414:14
#01518:14
#01614:14
#01718:14
#02418:14
#02514:14
#02618:2616
#02712:1616
#02818:16
#02812:0016
#02918:16
#03018:0016
#03012:16
#03218:16
#03212:0016
#03318:16
#03412:2616
#03518:1616
#03612:16
#03618:0016
#03712:16
#03812:0016
#03818:16
#04012:16
#04018:0016
#04112:16
#05214:14
#05218:0014
#05118:0014
#05618:14
#05614:0014
#05514:0014
#05518:14
#05510:41
#05914:14
#0591f:11
#0601a:14
#06114:14
#0621a:14
#06312:14
#06418:14
#06512:14
#06618:14
#07912:00140000
#0801a:00140000
#08114:00140000
#08118:00000014
#07418:00240000
#07414:00000024
#07718:00260000
#08214:0000240000340000
#0671f:21
#08314:3400003400003400
#04210:41
#06810:41
#02010:41
#03110:41
#002390:14
#003390:24
#004330:14
#005330:24
#018320:14
#019320:24
#0203a0:14
#0213a0:24
#022340:14
#023340:24
#031320:16362600
#039380:16362600
#0423a0:14
#0433a0:24
#044320:14
#045320:24
#046380:14
#047380:24
#048340:14
#049340:34
#050340:3434
#051340:24
#053340:14
#054340:24
#057380:14
#058380:0024
#067320:14
#068320:24
#0693a0:14
#0703a0:24
#071340:14
#072340:3400003400000000
#073320:00580000
#073330:00000026
#075380:00140024
#076330:00150025
#077380:00160036
#078380:00260000
#082340:0000140000340000
#083340:3400003400003400
#084320:28
