This file was generated by Ched 2.6.4.0.
#TITLE ""
#ARTIST ""
#DESIGNER ""
#DIFFICULTY 0
#PLAYLEVEL
#SONGID ""
#WAVE ""
#WAVEOFFSET 0
#JACKET ""
#REQUEST "ticks_per_beat 480"
#00002: 4
#BPM01: 165
#00008: 01
#TIL00: ""
#HISPEED 00
#MEASUREHS 00
#0121b:0013000000001300
#01218:00130000
#01215:0000001300000000
#01216:0000000000000013
#01212:23
#01018:0013130000000000
#01015:00000013000000000000000013000000
#01012:2300001300000000
#01014:0000000000130000
#01019:00000000000000000000001300000000
#0101b:2300000023000013
#01010:41
#0111a:00001300000000000000001300000000
#01114:00000013000000000000000000000000
#01118:00130000
#01112:2300001300000000
#01113:0000000000130000
#01116:00000013
#0111b:0000000023000013
#01316:141414000000
#01318:001400140014000000000000
#0131a:241400
#01314:001400140014000000000000
#01312:001400000000
#01317:0034000000001200
#01313:0034000000000000
#0191b:1313000013130000
#01915:00130013000000000013001300000013
#01918:0000131300001313
#01912:00000000001300130000000000000000
#02115:0013
#0211b:00000000000000000013000000000000
#02114:0013000000130000
#0211a:00000013000000000000001300000000
#02113:00000013
#02119:00000000000000000000000000130000
#02112:1300000000000013
#02118:00130000000000000000000000000013
#02318:1300000000000013
#02312:00130000000000000000000000000013
#02319:0013000000001300
#0231a:0000130000130000
#02314:00000000001300000000001300000000
#0231b:0000001313000000
#02315:00000000000000130013000000000000
#02313:00000013000000000000000000130000
#02516:0000001300000000
#0251b:00000000000000130000000023000000
#02514:0013
#02519:00000000000000000013000000000000
#0251a:0024000000000000
#02512:00000023
#02618:0013000000131300
#02615:00000000130000002300001300000000
#02612:2300001300000013
#0261b:2300000023000013
#02715:0000000000130000
#02712:0013000000000013
#02717:13
#02716:00130000
#0271b:0000001300000000
#02815:00001300000013000000001300000000
#02818:0000230000130000
#0281b:23002313
#02812:2300000023000023
#02918:0000000000000013
#02912:0000000000130000
#02915:00000013
#02916:0013000000000000
#0291b:0023000000000000
#03018:0013001300130000
#03015:00130013
#03012:2300000023000013
#0301b:2323
#03215:00001300000000000000001300000000
#03218:0000130000130000
#0321b:1300001300001300
#03212:1300000013000013
#0331b:0013000013000013
#03315:00000013000013000000000000130000
#03318:00130013
#03312:0000000000130000
#03418:00000000130000001300001300000000
#0341b:0000001300000013
#03412:0000000013000013
#03415:0023000000131300
#03618:00001300000013000000001300000000
#03615:0000230000130000
#03612:23002313
#0361b:2300000023000023
#03715:0000000000000013
#0371b:0000000000130000
#03718:00000013
#03717:0013000000000000
#03712:0023000000000000
#03815:0013001300130000
#03818:00130013
#0381b:2300000023000013
#03812:2323
#0401b:1300000013000022
#04018:00001300000000000000001300000000
#04012:1300001300001300
#04015:0000130000130000
#04013:0000000000000022
#03512:0000001300130000
#03515:00000013
#03518:0000000000000013
#0351b:0013000000130000
#03516:13
#03517:00130000
#05918:1212
#05916:0000120000001212
#0591a:00000000000000000000000000120012
#0591f:11
#06016:1212
#06018:0000120000001212
#06014:00000000000000000000000000120012
#06118:1200000000001212
#06116:0000121212000000
#0611a:00000000001200120000000000000000
#06114:00000000000000000000000000120012
#06218:12000000000000000000000000000012
#06216:00120012
#0621a:0012
#06219:00000000000000000000000000120000
#06215:0000000000000012
#06314:1212
#06318:00120012
#06315:00000000000000000000000000120000
#06319:0000000000000012
#06316:00000000000000000000000000000012
#0641a:1212
#06416:0000120000002222
#06418:00000000000000000000000000220022
#04212:00131313
#04218:00000000000000000000000000130013
#04215:0000000000000013
#0421b:23
#04210:41
#04512:00131313
#04518:23000000000000000000000000130013
#04515:0000000000000013
#04415:00000000130013000000000000130013
#04418:00000000001300130000000013001300
#0441b:23
#04412:0023
#0431b:00131313
#04315:00000000000000000000000000130013
#04318:0000000000000013
#04312:23
#0461b:00131313
#04615:00000000000000000000000000130013
#04618:0000000000000013
#04612:23
#04818:00000000130013000000000000130013
#04815:00000000001300130000000013001300
#04812:23
#0481b:0023
#04712:00131313
#04718:00000000000000000000000000130013
#04715:0000000000000013
#0471b:23
#0531b:0013
#05318:0000000000130000
#05315:00000013
#05312:0000000000000013
#05412:1300000000130000
#05416:00130013
#0541b:1300001300000013
#05415:0013
#05418:00000000000000000013000000000000
#05417:0013000000000000
#07417:0012
#0741a:00240024
#07412:00240024
#07517:12
#07513:00242424
#07519:00242424
#00616:0000001200000000
#00618:00000012
#00614:00000012000000000000000000000000
#0061c:1222
#00612:2212
#00715:0000001300000000
#00718:00000013
#00714:00000013000000000000000000000000
#0071b:1323
#00712:2313
#0161b:1300130000130000
#01619:0000001300000000
#01612:0013000013001300
#01614:0000000000000013
#01616:13
#01617:0013
#01719:0013000000000000
#01714:0000001300002800
#0171b:2323
#01716:2323
#01712:00230000
#01717:00230000
#01418:0000130000130000
#0141b:0013
#01412:0013
#01415:00000000000000000000001300000000
#03115:0000000000000013
#03118:00000013
#0311a:24
#03116:00240000
#03112:0024
#03110:41
#03918:0000000000000013
#03915:00000013
#03912:24
#03916:00240000
#0391a:0024
#01515:1300001300230000
#01512:00130023
#0151b:0000130000230000
#01518:00000000000000130000000023000000
#04118:0000000000001313
#04115:00000000000000000000000000130013
#04112:0000001300130000
#0411b:0013
#04917:0000001300000000
#04916:0013000000000000
#04912:2323
#0491b:00230000
#05016:13000024
#0501a:24
#05019:00250000
#05018:0026
#00814:0000001400000000
#00818:0000000000000014
#00813:00000014000000000000000000000000
#00819:00000000000000000000001400000000
#0081a:1424
#00812:2414
#02414:0014000000000000
#02412:0000000014000024
#02416:00000014
#0241a:0000000000240000
#02418:00240000
#07317:000000001600000000000000160000000000000016000000000000160000000000160000000000160000000000160000000000001600000000000000160000000000000016000000000000001600000000000000160000000000000016000000000000000000000016000000000000000000000000000000160000000000000000000000000000001600000000000000000000000000000000000000000000000000000000000000000000000000000000000000000000000000000000000000
#07316:160000000000000016000000000000160000000000160000000000001600000000000000160000000000000016000000000000000000000016000000000000000000000000000000000000000000000000000000000000000000000000000000
#07318:000016000000160000160000160000001600000016000000160000000000000016000000000000000000000000000000
#07217:0000000000000000000000000000160000001600000016000016001600160016
#07218:00000000000026000000160000160016
#07216:0000000016001616
#07212:26
#07918:0000000000120000
#0791a:00000000000000120000000000000000
#07912:00120022
#0791c:00220012
#08016:12
#08018:0000000000130000
#08019:00000000000000130000000000000000
#08012:00130023
#0801b:00230013
#08115:13
#08118:0000000000140000
#08119:00000000000000140000000000000000
#08113:00000000000000000000000000000014
#08112:00140024
#0811a:00240014
#08214:0014000000000000
#08212:0000000000260000
#0821a:00240000
#0671a:00130000
#06719:0013
#06718:0000000000001313
#06715:23000000000000000000000000130013
#0671b:23
#0671f:21
#06813:00130000
#06814:0013
#06815:0000000000001313
#06818:23000000000000000000000000130013
#06810:41
#06918:0000131323000000
#06912:00000000001300130000000000000000
#06915:2300000000001313
#0691b:00000000000000000000000000130013
#07019:00130000
#0701a:0013
#0701b:00000013
#07015:23000000000000000000000000130000
#07018:0000000000000013
#07012:00000000000000000000000000000013
#07113:00130000
#07114:0013
#07115:0000000000001313
#07118:23000000000000000000000000130013
#05716:12001212
#0571a:0012000000000000
#0571b:0000000000000012
#05718:0000001200120000
#05714:00120000
#05819:12
#05817:0012000000000000
#05815:00120000
#00918:0000000000240000
#00914:00000024
#00919:25
#00912:25
#06612:00000023
#0661b:00000023
#07613:00242424
#07719:00242424
#08316:28
#08312:0000002a00000026
#08318:00000026
#08412:2c
#05118:0000002300000000
#05115:0000000023000023
#0511b:0023
#05218:2323000023000000
#05212:2323
#05215:0000232300000000
#0521b:00230000
#05515:2300002300000000
#0551b:23
#05518:0000000023000023
#05512:0023
#05510:41
#01815:2300000023000023
#01818:00000000230000000023002300230000
#02018:2300000023000023
#02015:00000000230000000023002300230000
#02010:41
#02212:2300000023000023
#02218:00000000000000000023002300230000
#0221b:00230000
#05615:2323000023000000
#0561b:2323
#05618:0000232300000000
#05612:00230000
#07814:00280000
#0021a:000000000000000000000000000000000032000000000000
#00219:000032
#00414:000000000000000000000000000000000032000000000000
#00415:000032
#00958:0000000000440000
#00954:00000034
#01358:006400640064000000000000
#01356:242424140000
#0135a:242400
#01354:006400640064000000000000
#01352:002400140000
#01357:00000012
#02552:00000013
#0255b:00000013
#0255a:0014000000000000
#02452:0000000000000014
#0245a:0000000000140000
#02458:00140000
#03252:0000000000000013
#07356:260000000000000026000000000000260000000000260000000000002600000000000000260000000000000026000000000000000000000026000000000000000000000000000000160000000000000000000000000000000000000000000000
#07357:000000005600000000000000560000000000000056000000000000560000000000560000000000560000000000560000000000005600000000000000560000000000000056000000000000005600000000000000560000000000000056000000000000000000000056000000000000000000000000000000560000000000000000000000000000005600000000000000000000000000000000000000000000000000000000000000000000000000000000000000000000000000000000000000
#07358:000026000000260000260000260000002600000026000000260000000000000026000000000000000000000000000000
#05152:1c
#0515b:0013
#05056:23000024
#07852:16
#07858:16
#07854:00180000
#08356:48
#08352:0000003a00000036
#08452:4c
#08252:0000000000360000
#0825a:00440000
#01656:63
#01652:0023000000000000
#01657:0053
#0165b:0000000000230000
#02956:0063000000000000
#0295b:0063000000000000
#04957:0000002300000000
#04956:0023000000000000
#04952:5353
#0495b:00630000
#0545b:63
#05457:0023000000000000
#05452:0000000000530000
#05456:00000023
#07559:00000024
#07653:00000024
#0335b:0000000000000023
#07252:16
#07257:0000000000000000000000000000560000005600000056000056005600560056
#07258:00000000000026000000260000260026
#07256:0000000026002626
#01754:00000018
#00554:00000012
#0035a:00000012
#0065c:62
#00652:0052
#0075b:63
#00752:0053
#0085a:64
#00852:0054
#07952:00520000
#0795c:00000062
#08052:00530000
#0805b:00000063
#08152:00540000
#0815a:00000064
#0315a:14
#03156:00140000
#03152:0014
#03952:14
#03956:00140000
#0395a:0014
#02852:0000000000000053
#03757:0053000000000000
#03752:0053000000000000
#0365b:0000000000000063
#03455:0013000000000000
#0345b:0000000000000043
#03452:0000000000000053
#02652:0000000000000033
#0265b:0000000000000063
#02757:23
#0275b:0043000000000000
#02756:00230000
#02752:0053003300000000
#03556:23
#03557:00230000
#0355b:0063004300000000
#03552:0033000000000000
#05252:1313
#0525b:00130000
#0565b:1313
#05652:00130000
#0555b:13
#05552:0013
#05853:00000012
#0665b:00000013
#06652:00000013
#0023a0:120000320000000000320000000000000032320000000000
#002390:000000000000000000320000000000000000000000000000000000000000000032000000000000000000000000000000
#002380:0000320032320032
#0033a0:3232003200322200
#003390:00000032000000000000000000000000
#003380:00323200
#004340:120000320000000000320000000000000032320000000000
#004350:000000000000000000320000000000000000000000000000000000000000000032000000000000000000000000000000
#004360:0000320032320032
#005340:3232003200322200
#005350:00000032000000000000000000000000
#005360:00323200
#0063c0:12
#006380:0000002200000000
#006320:0012
#006360:00000022
#0073b0:13
#007380:0000002300000000
#007320:0013
#007350:00000023
#0083a0:14
#008380:0000002400000000
#008320:0014
#008340:0000000000000024
#012320:0013
#012360:00000023
#013360:145400
#013340:005400340054000000000000
#013330:0034000000000000
#013320:005400240000
#0133a1:145400
#013381:005400340054000000000000
#013371:0034000000000000
#013361:005400240000
#014351:00130000230000000000000000000000
#014381:00000000000000000000000000130000
#015381:23
#016361:13230000
#016321:0053000000000000
#016371:00001323
#0163b1:0000000000530000
#018351:13230000
#018380:00132300
#020380:13230000
#020351:00132300
#021361:0000132300000000
#0213b0:0000001323000000
#022320:13
#022350:00230000
#0223b1:00130000
#022381:0023
#025321:0000000000132300
#0263b1:0000000000000013
#027371:53
#0273b1:0023000000000000
#027320:0013002300000000
#027360:00530000
#027380:0000000000130000
#0273b0:0000000000000023
#028320:0000000000000013
#029360:0033000000000000
#029320:0023
#0293b1:0013000000000000
#029371:0023
#0333b1:0000000000000013
#034381:0023000000000000
#034321:0000000000000013
#035361:53
#035321:0023000000000000
#0353b0:0013002300000000
#035370:00530000
#0363b0:0000000000000013
#037370:0033000000000000
#0373b0:0023
#037321:0013000000000000
#037361:0023
#0403b1:0000000000000012
#040381:000000000000000000000000000000000000000000000000000000000000000000000000000000000000000000000000000000000000000000000000000000000000000000000000000000000000000000000000000000000054000000005300
#041381:000000000000000000000000000000000000000000000000000000000000000000000000000000000000000000000000000000000000000000000000000000000000000000000000000000000000000056530000000000000000000000000000000000000000000000000000000000000000000000000000000000000000000000000000000000000000000000000000000000000000000000000000000000000000000000000000000000000000000000000000000000000000000000000000000000000000000000000000000000000000000000000000000000000000000000000000000000000000000000000000220000000000000000000000000000000000000000000000000000000000000000000000000000000000000000000000000000000000000000000000000000000000000000000000000000000000000000000000000000000000000000000000000000000000000000000000000000000000000000000000000000000000000000000000000000000000000000000000000000000000000000000000000000000000000000000000000000000000000000000000000000000000000000000000000000000000000000000000000000000000000000000000000000000000000000000000000000000000000000000000000000000000000000000000000000000000000000000000000000000000000000000000000000000000000000000000000000000000000000000000000000000000000000000000000000000000000000000000000000000000000000000000000000000000000000000000000000000000000000000000000000000000000000000000000000000000000000000000000000000000000000000000000000000000000000000000000000000000000000000000000000000000000000000000000000000000000000000000000000000000000000000000000000000000000000000000000000000000000000000000000000000000000000000000000000000000000000000000000000000000000000000000000000000000000000000000000000000000000000000000000000000000000000000000000000000000000000000000000000000000000000000000000000000000000000000000000000000000000000000000000000000000000000000000000000000000000000000000000000000000000000000000000000000000000000000000000000000000000000000000000000000000000000000000000000000000000000000000000000000000000000000000000000000000000000000000000000000000000000000000000000000000000000000000000000000000000000000000000000000000000000000000000000000000000000000000000000000000000000000000000000000000000000000000000000000000000000000000000000000000000000000000000000000000000000000000000000000000000000000000000000000000000000000000000000000000000000000000000000000000000000000000000000000000000000000000000000000000000000000000000000000000000000000000000000000000000000000000000000000000000000000000000000000000000000000000000000000000000000000000000000000000000000000000000000000000000000000000000000000000000000000000000000000000000000000000000000000000000000000000000000000000000000000000000000000000000000000000000000000000000000000000000000000000000000000000000000000000000000000000000000000000000000000000000000000000000000000000000000000000000000000000000000000000000000000000000000000000000000000000000000000000000000000000000000000000000000000000000000000000000000000000000000000000000000000000000000000000000000000000000000000000000000000000000000000000000000000000000000000000000000000000000000000000000000000000000000000000000000000000000000000000000000000000000000000000000000000000000000000000000000000000000000000000000000000000000000000000000000000000000000000000000000000000000000000000000000000000000000000000000000000000000000000000000000000000000000000000000000000000000000000000000000000000000000000000000000000000000000000000000000000000000000000000000000000000000000000000000000000000000000000000000000000000000000000000000000000000000000000000000000000000000000000000000000000000000000000000000000000000000000000000000000000000000000000000000000000000000000000000000000000000000000000000000000000000000000000000000000000000000000000000000000000000000000000000000000000000000000000000000000000000000000000000000000000000000000000000000000000000000000000000000000000000000000000000000000000000000000000000000000000000000000000000000000000000000000000000000000000000
#040330:0000000000000012
#040340:000000000000000000000000000000000000000000000000000000000000000000000000000000000000000000000000000000000000000000000000000000000000000000000000000000000000000000000000000000000054000000000000
#040350:000000000000000000000000000000000000000000000000000000000000000000000000000000000000000000000053
#041320:005600000000000000000000000000000000000000000000
#041350:00000000000000000000000000000000000000000000000000000053000000000000000000000000000000000000000000000000000000000000000000000000000000000000000000000000000000000000000000000000000000000000000000000000000000000000000000000000000000000000000000000000000000000000000000000000000000000000000000000000000000000000000000000000000000000000000000000000000000000000000000000000000000000000000000000000000000000000000000000000000000000000000000000000000000000000000000000000000000000000000000000000000000000000000000000000000000000000000000000000000000000000000000000000000000000000000000000000000000000000000000000000000000000000000000000000000000000000000000000000000000000000000000000000000000000000000000000000000000000000000000000000000000000000000000000000000000000000000000000000000000000000000000000000000000000000000000000000000000000000000000000000000000000000000000000000000000000000000000000000000000000000000000000000000000000000000000000000000000000000000000000000000000000000000000000000000000000000000000000000000000000000000000000000000000000000000000000000000000000000000000000000000000000000000000000000000000000000000000000000000000000000000000000000000000000000000000000000000000000000000000000000000000000000000000000000000000000000000000000000000000000000000000000000
#041360:0022000000000000
#0423b0:13000023
#043320:13000023
#0443b0:13230000
#044320:00001323
#045380:13000023
#046320:13000023
#0473b0:13000023
#048320:13230000
#0483b0:00001323
#049320:13230000
#049360:0053000000000000
#0493b1:00132300
#049371:0000005300000000
#049320:0013
#050360:53
#050320:0023
#050360:00000014
#051320:2c
#0533b0:13532300000000000000000000000000
#0533a0:0053005300000000000000000000000000000000000000000000000000000000
#053321:00001353230000000000000000000000
#053331:0000000000530053000000000000000000000000000000000000000000000000
#053380:00000000135323000000000000000000
#053390:0000000000000000005300530000000000000000000000000000000000000000
#053351:00000000000013532300000000000000
#053341:0000000000000000000000000053005300000000000000000000000000000000
#0543b1:13230000
#054371:0053000000000000
#054321:0000000000130023
#054361:00000053
#058331:0000001200002200
#067351:13
#067321:00000023
#068381:13
#0683b1:00000023
#069351:13
#069321:00230000
#069381:0013
#0693b1:00000023
#070351:13
#070321:00000023
#071381:13
#0713b1:00000023
#072381:00000000000016000000560000560056
#072371:0000000000000000000000000000560000005600000056000056005600560056
#072361:0000000056005656
#073361:560000000000000056000000000000560000000000560000000000003600000000000000360000000000000036000000000000000000000036000000000000000000000000000000260000000000000000000000000000000000000000000000
#073371:000000005600000000000000560000000000000056000000000000560000000000560000000000560000000000560000000000005600000000000000560000000000000056000000000000005600000000000000560000000000000056000000000000000000000056000000000000000000000000000000560000000000000000000000000000005600000000000000000000000000000000000000000000000000000000000000000000000000000000000000000000000000000000000000
#073381:000056000000560000560000360000003600000036000000360000000000000036000000000000000000000000000000
#075391:00000014
#076381:00000026
#076330:00000014
#078320:26
#077391:00000014
#078381:26
#079321:00120000
#079361:0000000000220000
#0793c1:00000012
#080381:22
#080321:00130000
#080351:0000000000230000
#0803b1:00000013
#081381:23
#081321:00140000
#081341:0000000000240000
#0813a1:00000014
#082381:0024000000000000
