This file was generated by Ched 2.6.4.0.
#TITLE ""
#ARTIST ""
#DESIGNER ""
#DIFFICULTY 0
#PLAYLEVEL
#SONGID ""
#WAVE ""
#WAVEOFFSET 0
#JACKET ""
#REQUEST "ticks_per_beat 480"
#00002: 4
#BPM01: 165
#00008: 01
#TIL00: ""
#HISPEED 00
#MEASUREHS 00
#01912:1300000000000013
#01918:0013000000130000
#0191b:0000001300000000
#01915:00131313
#02612:0000001300000000
#02615:0013000000130013
#02618:00132313
#0261b:2300000000000013
#02815:0013000023000000
#02818:2300001300130000
#0281b:00000013
#02812:0000230000000023
#02915:0013000000000013
#02918:0000000000130000
#02912:00000013
#0301b:0013001300000000
#03015:0000130000130000
#03012:00000013
#03018:2300000023000013
#0321b:0013
#03215:0013001300130000
#03218:13130013
#03212:0000000000000013
#03415:00131300
#03418:0023001300000013
#03412:0000000000000013
#05415:0000001300000000
#05418:13
#0541b:0013
#0541a:00000000000000000033000000000000
#05419:0000000000330000
#01712:0013000000000000
#01715:0000001300000000
#01719:23
#01718:00230000
#0171b:0023
#01614:0000000000130000
#0161b:1313
#0161a:00000013
#01615:0000001300000000
#01613:0000000000000013
#02414:0014000000240000
#0241a:0014
#02412:0000001400000024
#02418:00240014
#0131a:14
#01312:24
#01319:0034000000000000
#01313:0034000000000000
#0181b:00000000000000000000001300000000
#01815:23
#01818:0023
#01819:00000000000000000033000000330000
#02218:00000000000000000000001300000000
#02215:23
#0221b:0023
#0221a:00000000000000000033000000330000
#02312:1313
#0231b:0013000000130000
#02318:0000001300000013
#02315:00130013
#02718:0013000000000000
#02712:0013000000000000
#02715:0000001300000000
#0271b:0000001300000000
#0331b:0013000000000000
#03312:0000000000130000
#03515:0013000000000000
#0351b:0013000000130000
#03518:0000001300000013
#03512:0000001300001300
#04112:00000013
#04118:0000001300130000
#04115:0013
#0411b:00000013
#0531b:1313
#05312:0013000000000013
#05315:0000001300130000
#05318:00130013
#0581b:13
#05815:0013000000000000
#05818:00130000
#0591b:13
#05918:00130000
#05915:00000000000000001300000000000033
#05912:13
#0591f:11
#05913:00000000000000000000000000330000
#05914:0000000000000033
#06015:00130000
#06018:00000000000000001300000000000033
#0601a:00000000000000000000000000330000
#06019:0000000000000033
#06215:00131300
#06214:00000000000000000000000000330000
#06213:0000000000000033
#06212:00000000000000000000000000000033
#06318:00131300
#06319:00000000000000000000000000330000
#0631a:0000000000000033
#0631b:00000000000000000000000000000033
#06415:00130000
#06418:00000000000000001300000000240024
#06414:0000000000002424
#07213:000000000000000000000016000000160000001600001600
#07214:000000000000000000000000001600000000000000160000
#07212:000000000000000000260000000000000016000000000016
#07218:26
#07313:160000001600000016000000001600000000001600000000001600000000000016000000000000000000000000000000
#07314:001600000016000000000016000000000000000000000000
#07312:000000160000000016000000000016000000000000000000
#07012:13000013
#0701b:13000013
#07015:00130000
#0671b:13
#06717:0013
#0671f:21
#07112:13
#05712:0000001300000013
#05715:0013000000130000
#0571b:00130000
#05718:13001313
#01015:0000001300000000
#01018:0000000000000013
#01012:23
#0101b:0023
#01010:41
#01218:0013001300000013
#01215:00130000
#01115:0000001300000000
#01112:23
#0111b:0023
#01119:00000033000000000000000000000000
#01114:00000000000000000000003300000000
#0211b:1300000000000013
#02115:0013000000130000
#02112:0000001300000000
#02118:00131313
#02012:00000000000000000000001300000000
#02018:23
#02015:0023
#02014:00000000000000000033000000330000
#02010:41
#03618:0013000023000000
#03615:2300001300130000
#03612:00000013
#0361b:0000230000000023
#03718:0013000000000013
#03715:0000000000130000
#0371b:00000013
#0311b:00000013
#03112:2400000000000013
#0311a:00240000
#03114:0024
#03110:41
#03812:0013001300000000
#03818:0000130000130000
#0381b:00000013
#03815:2300000023000013
#04012:0000000013000023
#04018:0013001300130000
#04015:13130013
#0401b:0000000000000023
#03912:00240013
#0391b:0000000000000013
#0391a:24
#03918:0024
#0151b:00130000
#01512:00130000
#01515:1300000000230000
#01518:00001323
#01412:0013
#0141b:0013
#01418:00000013
#01416:00140000
#04512:13000013
#0451b:13000013
#04518:00130000
#0421b:0013
#04218:13
#04210:41
#04315:00130000
#04318:00000013
#04412:13
#04415:00130013
#04418:0013
#0441b:13
#04612:0013
#04615:13
#04718:00130000
#04715:00000013
#0481b:13
#04818:00130013
#04815:0013
#04812:13
#04912:00130000
#04915:2313
#06815:00130000
#06818:00000013
#06810:41
#0691b:1313
#06912:1313
#06915:00130000
#06918:00000013
#02515:0000001300130000
#02518:00001323
#02512:0000000000000013
#0251a:0024000000000000
#06612:00000023
#0661b:00000023
#0741a:00240024
#07412:00240024
#07518:00243434
#08312:25000026
#08319:0000002500000000
#08318:0000000000000026
#08412:26
#0821a:0000000000240000
#08212:00240000
#0091a:24
#00918:00000024
#00914:0000000000240000
#05118:0000002300000023
#05115:0023
#05512:23
#05515:0000002300000023
#05518:2323
#05510:41
#0501b:00000023
#05012:00000023
#05215:0023000000000000
#05212:00230000
#0521b:2323
#05218:0000002300000000
#05618:0023000000000000
#0561b:00230000
#05612:2323
#05615:0000002300000000
#07614:00243434
#07719:00243434
#07713:00243434
#0021a:000033
#0021b:000000000000000000000000000000000033000000000000
#00413:000033
#00412:000000000000000000000000000000000033000000000000
#0611a:00000000000000000000000000330000
#06119:0000000000000033
#06118:00000000000000000000000000000033
#06113:00000000003300000000000000000000
#06114:0000003300000000
#06115:00000000000000330000000000000000
#03252:0000000000000013
#0165b:63
#02955:0063000000000000
#07558:00240000
#01358:0014
#01354:0014
#0135a:64
#01352:54
#00552:00000013
#0185b:00000000000000000000002300000000
#01858:0053
#02258:00000000000000000000002300000000
#0225b:0063
#0335b:0063000000000000
#03352:0000000000530000
#03455:0063
#05158:13
#05155:13
#0505b:00000063
#05052:00000053
#05458:53
#0545b:0063
#07253:000000000000000000000066000000660000006600006600
#07254:000000000000000000000000002600000000000000260000
#07252:000000000000000000260000000000000026000000000026
#07353:660000006600000066000000006600000000006600000000006600000000000066000000000000000000000000000000
#07354:002600000026000000000026000000000000160000000000
#07352:000000260000000026000000000026000000000000000000
#0675b:63
#06757:0053
#07152:53
#0035b:00000013
#0175b:00000013
#02052:00000000000000000000002300000000
#02055:0063
#02852:0000000000000053
#03758:0053000000000000
#0365b:0000000000000063
#03152:14
#0315a:00140000
#03154:0014
#0395a:14
#03952:00140000
#03958:0014
#07654:00240000
#07759:00240000
#07753:00240000
#07858:00160000
#07852:00160000
#08452:16
#0425b:0063
#04258:53
#04652:0053
#04655:63
#04952:00530000
#04955:6363
#0255a:0014000000000000
#02452:0000000000000014
#05855:00000013
#0023b0:130000330000000000000000000000000033330000330000
#0023a0:000000000000000000330000000000000000000000000000000000000000000033000000000000000000000000000000
#002390:0000333333330000
#0033b0:3333000000002300
#0033a0:00000033000000000000000000000000
#003390:0000333333330000
#004320:130000330000000000000000000000000033330000330000
#004330:000000000000000000330000000000000000000000000000000000000000000033000000000000000000000000000000
#004340:0000333333330000
#005320:3333000000002300
#005330:00000033000000000000000000000000
#005340:0000333333330000
#0063b0:13
#006380:0000002300000000
#006320:0013
#006350:00000023
#0073a0:14
#007380:0000002400000000
#007320:0014
#007340:00000024
#008390:15
#008370:0000002500000000
#008320:0015
#008340:0000000000000025
#0103a0:0013000000000000
#010390:00000033000000000000000000000000
#010380:00230000
#010330:0000000000130000
#010340:00000000000000000000003300000000
#010350:00000023
#0113b0:0013000000000000
#011390:00000033000000000000000000000000
#011380:00230000
#011320:0000000000130000
#011340:00000000000000000000003300000000
#011350:00000023
#012320:0013
#012350:00000023
#0133a0:14
#013390:0034000000000000
#013380:00342400
#013321:14
#013331:0034000000000000
#013341:00342400
#0163b1:13
#016381:00230000
#0173b1:00001323
#018351:13230000
#018381:0000000013000023
#018391:00000000000000000033000000330000
#0183b1:00000000000000000000003300000000
#020381:13230000
#020351:0000000013000023
#020341:00000000000000000033000000330000
#020321:00000000000000000000003300000000
#022351:13
#022321:00230000
#0223b1:0000000013000023
#0223a1:00000000000000000033000000330000
#022381:00000000000000000000003300000000
#027321:0000000000130000
#027351:0000000000000023
#028321:0000000000000013
#029351:0033000000000000
#029321:0023
#0333b1:0013000000000000
#033381:0000002300000000
#033321:0000000000130000
#033351:0000000000000023
#034351:0013
#034321:00000023
#0363b1:0000000000000013
#037381:0033000000000000
#0373b1:0023
#0403b1:0000000000000013
#0413b1:0023000000000000
#040320:0000000000000013
#041320:0023000000000000
#042380:13
#0423b0:0033
#043380:23
#046350:13
#046320:0033
#047350:23
#049350:1333
#049320:00330000
#050320:0023
#0503b0:00000013
#051380:23
#050321:00000013
#051351:23
#054381:13
#0543b1:00230000
#0543b1:0013
#0543a1:00000000000000000033000000000000
#054391:0000000000330000
#054381:0000000000000023
#058351:0000001300002300
#059321:00000013
#059331:00000000000000000000000000330000
#059341:0000000000000033
#059351:00000000000000000000000000000033
#060351:23
#0603b1:00000013
#0603a1:00000000000000000000000000330000
#060391:0000000000000033
#060381:00000000000000000000000000000033
#061381:23
#061321:00130000
#061331:00000000003300000000000000000000
#061341:0000003300000000
#061351:00000000000000332300000000000000
#0613b1:00000013
#0613a1:00000000000000000000000000330000
#061391:0000000000000033
#061381:00000000000000000000000000000033
#062381:23
#062351:00000013
#062341:00000000000000000000000000330000
#062331:0000000000000033
#062321:00000000000000000000000000000033
#063321:23
#063381:00000013
#063391:00000000000000000000000000330000
#0633a1:0000000000000033
#0633b1:00000000000000000000000000000033
#0643b1:23
#0673b1:13
#067371:0033
#0683b1:23
#071321:13
#071361:0023
#072321:000000000000000000160000000000000056000000000056
#072331:000000000000000000000056000000560000005600005600
#072341:000000000000000000000000005600000000000000560000
#073331:560000005600000056000000005600000000005600000000005600000000000056000000000000000000000000000000
#073341:005600000056000000000056000000000000260000000000
#073321:000000560000000056000000000056000000000000000000
#075381:00143434
#076361:28
#076341:00143434
#077321:28
#077391:00143434
#078381:00260000
#077330:00143434
#078320:00260000
#079320:00130000
#079350:0000000000230000
#0793b0:00000013
#080380:23
#080320:00140000
#080340:0000000000240000
#0803a0:00000014
#081380:24
#081320:00150000
#081340:0000000000250000
#081390:00000015
#082370:0025000000000000
