This file was generated by Ched 2.6.4.0.
#TITLE ""
#ARTIST ""
#DESIGNER ""
#DIFFICULTY 0
#PLAYLEVEL
#SONGID ""
#WAVE ""
#WAVEOFFSET 0
#JACKET ""
#REQUEST "ticks_per_beat 480"
#00002: 4
#BPM01: 165
#00008: 01
#TIL00: ""
#HISPEED 00
#MEASUREHS 00
#01216:0013000000130000
#01218:00130000
#01215:0000001300000000
#0121b:23001313
#01214:0000000000000013
#01212:23131300
#01018:0013000000000000
#01015:00000013000000000000000000001300
#01017:0000000000130000
#01014:00000000000000000000001300000000
#01016:0000001300000000
#0101b:2323
#01012:23
#01010:41
#01118:0013000000000000
#01115:00000013000000000000000000000000
#01114:0000001300000000
#01119:0000000000130000
#01116:00000000000000000000001300000000
#01113:0000000000000013
#0111b:2323
#0191b:13131313
#01912:13000013000000130000001300000000
#01915:00130000001300000000130000001300
#01918:00001300000013000013000000000013
#0231b:13001313
#02318:00130013000013000000130000130000
#02315:00001300001300130013000000001300
#02312:13000000130000000000001300000013
#0211b:13000000130000000013000000130000
#02115:00130000000000000000130000001300
#02118:00001300000000000000001300000013
#02112:13000013000013001300000013000000
#02117:0000001300000000
#02116:00130000
#02516:0000001212120000
#02518:00002600000000120012120026000000
#02512:0026000000002600
#02619:0013000000000000
#02612:2300130000001314
#02614:0000001300000000
#0261b:2300000023130000
#02618:00000013
#02615:00000000000000000000001300000000
#02617:00130000
#02616:0023
#02712:0018001c00130000
#02715:0000000000001313
#02718:00000000000000001300000000130013
#0271b:0000000000130000
#02716:14
#0271a:00140000
#03018:0000001400140000
#03016:00140014
#03014:0014000000000014
#0301a:0014
#03012:14002313
#0301b:23130000
#03212:1300000013001316
#0321b:1313001313001300
#03218:0000130000130000
#03215:00000000000000000000001300000000
#03315:00000013000000000000000000001300
#03318:00001600130000000000000000130000
#03316:0000001300000000
#03314:0013
#03312:0013000000131300
#0331b:00001313
#02918:00002600000000000000130000130013
#02915:0000130013001313
#02912:0000001300000000
#0291b:00131300
#02916:24
#05917:1200120012001212
#05919:00000000000000000000000000120012
#0591f:11
#06017:1200120012001212
#06015:00000000000000000000000000120012
#06117:12
#06118:0000121212000000
#0611a:00000000001200120000000000000000
#06116:0000000000001212
#06114:00000000000000000000000000120012
#06216:12121200
#06218:0000000000001212
#0621a:00000000000000000000000000120012
#06318:12121200
#06316:0000000000001212
#06314:00000000000000000000000000120012
#06416:12121200
#06412:000000000000000000000000000000000000000000000000000000000000000000000000000000000000000000000000000000000000000000000000000000000000000000000000000000000000000000000000000000000000000000000000000000000000000000000000000000000000000000000000000000000000000000000000000000000000000000000000000000000000000000000000000000000000000000000000000000000000000000000000000000000000000000000000000000000000000000000000000000000000000000000000000000000000000000000000000000000000000000000000000000000000000000000000000000000000000000000000000000000000000000000000000000000000000000000000000000000000000000000000000000000000000000000000000000000000000000000000000000000000000000000000000000000000000000000000000000000000000000000000000000000000000000000000000000000000000000000000000000000000000000000000000000000000000000000000000000000000000000000000000000000000000000000000000000000000000000000000000000000000000000000000000000000000000000000000000000000000000000000000000000000000000000000000000000000000000000000000000000000000000000000000000000000000000000000000000000000000000000000000000000000000000000000000000000000000000000000000000000000000000000000000000000000000000000000000000000000000000000000000000000000000000000000000000000000000000000000000000000000000000000000000000000000000000000000000000000000000000000000000000000000000000000000000000000000000000000000000000000000000000000000000000000000000000000000000000000000000000000000000000000000000000000000000000000000000000000000000000000000000000000000000000000000000000000000000000000000000000000000000000000000000000000000000000000000000000000000000000000000000000000000000000000000000000000000000000000000000000000000000000000000000000000000000000000000000000000000000000000000000000000000000000000000000000000000000000000000000000000000000000000000000000000000000000000000000000000000000000000000000000000000000000000000000000000000000000000000000000000000000000000000000000000000000000000000000000000000000000000000000000000000000000000000000000000000000000000000000000000000000000000000000000000000000000000000000000000000000000000000000000000000000000000000000000000000000000000000000000000000000000000000000000000000000000000000000000000000000000000000000000000000000000000000000000000000000000000000000000000000000000000000000000000000000000000000000000000000000000000000000000000000000000000000000000000000000000000000000000000000000000000000000000000000000000000000000000000000000000000000000000000000000000000000000000000000000000000000000000000000000000000000000000000000000000000000000000000000000000000000000000000000000000000000000000000000000000000000000000000000000000000000000000000000000000000000000000000000000000000000000000000000000000000000000000000000000000000000000000000000000000000000000000000000000000000000000000000000000000000000000000000000000000000000000000000000000000000000000000000000000000000000000000000000000000000000000000000000000000000000000000000000000000000000000000000000000000000000000000000000000000000000000000000000000000000000000000000000000000000000000000000000000000000000000000000000000000000000000000000000000000000000000000000000000000000000000000000000000000000000000000000000000000000000000000000000000000000000000000000000000000000000000000000000000000000000000000000000000000000000000000000000000000000000000000000000000000000000000000000000000000000000000000000000000000000000000000000000000000000000000000000000000000000000000000000000000000000000000000000000000000000000000000000000000000000000000000000000000000000000000000000000000000000000000000000000000000000000000000000000000260000000000000000000000000000000000000000000000000000000000000000000000000000000000000000000000000000000000000000000000000000000000000000000000000000000000000000000000000000000000000000000000000000000000000000000000000000000000000000000017
#06419:000000000000000000000000000000000000000000000000000000000000000000000000000000000000000000000000000000000000000000000000000000000000000000000000000000000000000000000000000000000000000000000000000000000000000000000000000000000000000000000000000000000000000000000000000000000000000000000000000000000000000000000000000000000000000000000000000000000000000000000000000000000000000000000000000000000000000000000000000000000000000000000000000000000000000000000000000000000000000000000000000000000000000000000000000000000000000000000000000000000000000000000000000000000000000000000000000000000000000000000000000000000000000000000000000000000000000000000000000000000000000000000000000000000000000000000000000000000000000000000000000000000000000000000000000000000000000000000000000000000000000000000000000000000000000000000000000000000000000000000000000000000000000000000000000000000000000000000000000000000000000000000000000000000000000000000000000000000000000000000000000000000000000000000000000000000000000000000000000000000000000000000000000000000000000000000000000000000000000000000000000000000000000000000000000000000000000000000000000000000000000000000000000000000000000000000000000000000000000000000000000000000000000000000000000000000000000000000000000000000000000000000000000000000000000000000000000000000000000000000000000000000000000000000000000000000000000000000000000000000000000000000000000000000000000000000000000000000000000000000000000000000000000000000000000000000000000000000000000000000000000000000000000000000000000000000000000000000000000000000000000000000000000000000000000000000000000000000000000000000000000000000000000000000000000000000000000000000000000000000000000000000000000000000000000000000000000000000000000000000000000000000000000000000000000000000000000000000000000000000000000000000000000000000000000000000000000000000000000000000000000000000000000000000000000000000000000000000000000000000000000000000000000000000000000000000000000000000000000000000000000000000000000000000000000000000000000000000000000000000000000000000000000000000000000000000000000000000000000000000000000000000000000000000000000000000000000000000000000000000000000000000000000000000000000000000000000000000000000000000000000000000000000000000000000000000000000000000000000000000000000000000000000000000000000000000000000000000000000000000000000000000000000000000000000000000000000000000000000000000000000000000000000000000000000000000000000000000000000000000000000000000000000000000000000000000000000000000000000000000000000000000000000000000000000000000000000000000000000000000000000000000000000000000000000000000000000000000000000000000000000000000000000000000000000000000000000000000000000000000000000000000000000000000000000000000000000000000000000000000000000000000000000000000000000000000000000000000000000000000000000000000000000000000000000000000000000000000000000000000000000000000000000000000000000000000000000000000000000000000000000000000000000000000000000000000000000000000000000000000000000000000000000000000000000000000000000000000000000000000000000000000000000000000000000000000000000000000000000000000000000000000000000000000000000000000000000000000000000000000000000000000000000000000000000000000000000000000000000000000000000000000000000000000000000000000000000000000000000000000000000000000000000000000000000000000000000000000000000000000000000000000000000000000000000000000000000000000000000000000000000000000000000000000000000000000000000000000000000000000000000000000000000000000000000000000000000000000000000000000000000000000000000000000000000000000000000000000000000000000000000000000000000000000000000000000000000000000000000000000000000000000000000000000000000000000000000000000000000000000000000000000000000000000000000000000000000000000000000000000000000000000000000000000000000000000000000000000000000000000015
#06417:00000000000000000000000022222200
#06418:00000000000000000000000000000026
#05315:13001313
#05312:0013000000130013
#05318:0000130000130013
#0531b:0000001313001300
#05415:1300001300001313
#05418:00000000000000000013000000130013
#07018:00000000000000000000000000130000
#07014:0000000000000013
#07017:00000000000000000000000000000013
#07016:0013000013000000
#07012:2313
#0701b:13230000
#07015:00000013
#06918:00000000130000132300000000001300
#06912:00000000001300001300000000000000
#06915:23000000000013000000000013000013
#0691b:13000000000000000000000000130000
#06916:0000000000130000
#06917:0013000000000000
#07417:0012
#07418:00260026
#07412:00260026
#07519:1212000000000000
#07515:00120012000000000000000000000000
#07517:0000001200120000
#07512:00222324
#0751c:00220000
#0751b:0023
#0751a:00000024
#00717:0000131300000000
#0071b:13002313
#00714:00000013000000000000000000000000
#00713:00000000000000000000000000130000
#00719:0000000000000013
#00716:00000000000000000000000000000013
#00712:2313
#00816:0000141400001414
#0081a:14000000000000002400001400000000
#00812:24000014000000001400000000000000
#01617:0000001313000000
#0161b:1300001300001300
#01612:0000130013000013
#01618:00001300000000000000001300000000
#01616:1300000000000013
#01615:00000013000000000000130000000000
#01719:0013001300000000
#01714:0013001300000000
#01712:00232700
#0171a:0024
#0171b:23
#01716:23
#01717:00230000
#03115:00000000000013000000001300001300
#0311b:00000013
#03118:0000000000130013
#03112:14000000000000132800000013000000
#03117:0013000000000000
#03114:00000013280000000000000000000000
#03116:28
#03110:41
#0141b:0013000013000000
#01412:00000000001300001300000000001300
#01418:00130000130000000013001300000013
#01415:00000013000013000000130000130000
#01512:00130000
#0151b:00130000130000000000000000000000
#01515:13000000001300130000000000000000
#01518:0013001300000000
#0151a:0000000000220000
#01514:0000000000220000
#0021c:12
#00219:0012000000120000
#00215:00120012
#00216:000012
#00218:000000000000000000120000000000000012000000000000
#0021a:0000000012000012
#00217:00000012000000000000000000000000
#00212:1200001200000000
#00214:0000000012000012
#0031c:1200001200120000
#00315:0012000000000000
#00317:00000012000000000000000000000000
#00319:00120000
#00316:1200000000000000000000001200000000000000120000000012000000000000
#00312:0012
#00318:00000000000000001200000012120000
#00412:12
#00415:0012000000120000
#00419:00120012
#00418:000012
#00416:000000000000000000120000000000000012000000000000
#00414:0000000012000012
#00417:00000012000000000000000000000000
#0041c:1200001200000000
#0041a:0000000012000012
#00512:1200001200120000
#00519:0012000000000000
#00517:00000012000000000000000000000000
#00515:00120000
#00518:1200001200120000
#00516:00001212
#0051c:00001212
#07718:1414000000002600
#07714:00140014000000000000000000000000
#07716:0000001400140000
#07715:0000000000000016
#07719:0025
#0771a:00240000
#07712:00242526
#07818:00140000000000000000000000000000
#07816:00000014000000000000000000000000
#07814:0014000000000000
#07812:262c0000
#07615:1313000000000000
#07618:00130013000000000000000000000000
#07617:0000001200120000
#07612:00232425
#0761b:00230000
#0761a:0024
#07619:00000025
#02817:00001313000000000000000000000000
#02819:00000000000013130000000000000000
#0281b:13000000000000000000131300000000
#02818:00000013
#02812:2300000000000026
#02814:00230000
#02816:0023
#0341b:00130013
#03419:0000001300000000
#03412:0024000013130000
#03415:001300000000000000000000000000000000130000000000
#03418:000013000000000000000000000000000000000000000000000000000000000000130000000000000000000000000000
#03417:0013
#0341a:0024000000000014
#03416:00130000
#0351b:0000000000130000
#03518:0000000000001313
#03515:00000000000000001300000000130013
#03512:0000141c00130000
#03516:1418000000000000
#03814:0000001400140000
#03816:00140014
#03818:0014000000000014
#03812:23131400
#0381b:00002313
#0381a:14
#0401b:1300002200220022
#04012:13
#04018:0013000000000000
#04015:00130000
#04013:0000002200220022
#03715:00000000000000000000130000130013
#03718:0000130013001313
#0371b:0000001300000000
#03712:0026130013000000
#03716:24
#03918:00000000000013000000001300001300
#03912:28000013
#03915:0000000000130013
#0391b:00000000000000130000000013000000
#03916:0013000028000000
#03919:00000013000000000000000000000000
#0391a:14
#03914:00280000
#08312:0000000000000000000000002c000015
#08319:00000000000000000000000000000015
#08314:2800000000000021
#0831b:0000000000000021
#08313:0000002a00000000
#07916:1400000012120000
#0791a:00000000000000120000000000000000
#07912:00120022
#0791c:00220012
#01316:000018000000000000000000000000000000000000001800000000000000000000000000120000120000000000000000
#01318:160000000000000016000000000000001600000000000000160000000000000016000000000000001600000000000000000000000000000000000000000000000000000000000000000000120000000000000000000000000000000000000000
#01312:261700000000000000000000000000000000000000000000000000000000000000000000000000000000000000000000000000000000000000000000000000000000000000000000000000000000001600000000000000000000000000000000000000000000000000000000000000000000000000000000000000000000000000000000000000000000000000000000000000000000000000000000000000190000000000000000000000000000000000000000000000000000000000000000000000000000000000000000000000000000000000000000000000000000000000000000000000000000000000000016000000000000000000000000000000000000000000000000000000000000000000000000000000000000000000000000000000000000000000000000000000000000000000000000000000000000001b00000000000000000000000000000000000000000000000000000000000000000000000000000000000000000000000000000000000000000000000000000000000000000000000000000000000000161c0000000000000000000000000000000000000000000000000000000000000000000000000000000000000000000000000000000000000000000000000000000000000000000000000000000000001c00000000000000000000000000000000000000000000000000000000000000000000000000000000000000000000000000000000000000000000000000000000000000000000000000000000000000161c0000000000000000000000000000000000000000000000000000000000000000000000000000000000000000000000000000000000000000000000000000000000000000000000000000000000001b0000000000000000000000000000000000000000000000000000000000000000000000000000000000000000000000000000000000000000000000000000000000000000000000000000000000000016000000000000000000000000000000000000000000000000000000000000000000000000000000000000000000000000000000000000000000000000000000000000000000000000000000000000001900000000000000000000000000000000000000000000000000000000000000000000000000000000000000000000000000000000000000000000000000000000000000000000000000000000000000160000000000000000000000000000000000000000000000000000000000000000000000000000000000000000000000000000000000000000000000000000000000000000000000000000000000000000000000000000000000000000000000000000000000000000000000000000000000000000000000000000000000000000000000000000000000000000000000000000000000000000000000000000000000000000000000000000000000000000000000000000000000000000000000000000000000000000000000000000000000000000000000000000000000000000000000000000000000000000000000000000000000000000000000000000000000000000000000000000000000000000000000000000000000000000000000000000000000000000000000000000000000000000000000000000000000000000000000000000000000000000000000000000000000000000000000000000000000000000000000000000000000000000000000000000000000000000000000000000000000000000000000000000000000000000000000000000000000000000000000000000000000000000000000000000000000000000000000000000000000000000000000000000000000000000000000000000000000000000000000000000000000000000000000000000000000000000000000000000000000000000000000000000000000000000000000000000000000000000000000000000000000000000000000000000000000000000000000000000000000000000000000000000000000000000000000000000000000000000000000000000000000000000000000000000000000000000000000000000000000000000000000000000000000000000000000000000000000000000000000000000000000000000000000000000000000000000000000000000000000000000000000000000000000000000000000000000000000000000000000000000000000000000000000000000000000000000000000000000000000000000000000000000000000000000000000000000000000000000000000000000000000000000000000000000000000000000000000000000000000000000000000000000000000000000000000000000000000000000000000000000000000000000000000000000000000000000000000000000000000000000000000000000000000000000000000000000000000000000000000000000000000000000000000000000000000000000000000000000000000000000000000000000000000000000000000000000000000000000000000000000000000000000000000000000000000000000000000000000000000000000000000000000000000000000000000000000000000000000000000000000000000000000000000000000000000000000
#01314:001a001a00000000
#0241a:0014000000000000
#02416:00001414
#02418:0000000000000026
#02415:00260000
#02412:0000000000260000
#05016:000000000000000000000000000000000000000000000000000000000000000000000000000000000000000000000000000000000000000000000000000000000000000000000000000000000000000000000000000000000000000000000000000000000000000000000000000000000000000000000000000000000000000000000000000000000000000000000000000000000000000000000000000000000000000000000000000000000000000000000000000000000000000000000000000000000000000000000000000000000000000000000000000000000000000000000000000000000000000000000000000000000000000000000000000000000000000000000000000000000000000000000000000000000000000000000000000000000000000000000000000000000000000000000000000000000000000000000000000000000000000000000000000000000000000000000000000000000000000000000000000000000000000000000000000000000000000000000000000000000000000000000000000000000000000000000000000000000000000000000000000000000000000000000000000000000000000000000000000000000000000000000000000000000000000000000000000000000000000000000000000000000000000000000000000000000000000000000000000000000000000000000000000000000000000000000000000000000000000000000000000000000000000000000000000000000000000000000000000000000000000000000000000000000000000000000000000000000000000000000000000000000000000000000000000000000000000000000000000000000000000000000000000000000000000000000000000000000000000000000000000000000000000000000000000000000000000000000000000000000000000000000000000000000000000000000000000000000000000000000000000000000000000000000000000000000000000000000000000000000000000000000000000000000000000000000000000000000000000000000000000000000000000000000000000000000000000000000000000000000000000000000000000000000000000000000000000000000000000000000000000000000000000000000000000000000000000000000000000000000000000000000000000000000000000000000000000000000000000000000000000000000000000000000000000000000000000000000000000000000000000000000000000000000000000000000000000000000000000000000000000000000000000000000000000000000000000000000000000000000000000000000000000000000000000000000000000000000000000000000000000000000000000000000000000000000000000000000000000000000000000000000000000000000000000000000000000000000000000000000000000000000000000000000000000000000000000000000000000000000000000000000000000000000000000000000000000000000000000000000000000000000000000000000000000000000000000000000000000000000000000000000000000000000000000000000000000000000000000000000000000000000000000000000000000000000000000000000000000000000000000000000000000000000000000000000000000000000000000000000000000000000000000000000000000000000000000000000000000000000000000000000000000000000000000000000000000000000000000000000000000000000000000000000000000000000000000000000000000000000000000000000000000000000000000000000000000000000000000000000000000000000000000000000000000000000000000000000000000000000000000000000000000000000000000000000000000000000000000000000000000000000000000000000000000000000000000000000000000000000000000000000000000000000000000000000000000000000000000000000000000000000000000000000000000000000000000000000000000000000000000000000000000000000000000000000000000000000000000000000000000000000000000000000000000000000000000000000000000000000000000000000000000000000000000000000000000000000000000000000000000000000000000000000000000000000000000000000000000000000000000000000000000000000000000000000000000000000000000000000014140000000000000000000000000000000000000000000000000000000000000000000000000000000000000000000000000000000000000000000000000000000000000000000000000000000000000000000000000000000000000000000000000000000000000000000000000000000000000000000000000000000000000000000000000000000000000000000000000000000000000000000000000000000000000000000000000000000000000000000000000000000000000000000000000000000000000000000000000000000000000000000000000000000000000000000000000000000000000000000000
#05019:0025
#0501a:00240000
#05012:23242526
#05018:00000026
#0501b:23
#05218:26000013000023002600000000130013
#05215:00002300000000130000130000001300
#0521b:00230013
#05212:23262313
#05115:00001300000023000000000013000013
#05118:00000000130000130000130000002300
#0511b:0023
#05112:0026
#05615:26002300260000132600000000130013
#05618:00000013000023000000130000001300
#05612:00230013
#0561b:23002313
#05518:00001300000000130000000013002300
#05515:26000000130023002600130000000013
#05512:0023
#0551b:23
#05510:41
#07214:0000000000000000000000000000000000002a00000000001a00000000001a0000001a00001a001a001a001a001a001a
#07213:0000000000000000000000000000000000000000000000000000000000000000000000000000001a00000000001a00000000001a00000000001a000000001a0000001a0000001a00001a001a001a001a001a001a001a001a001a001a001a001a
#07212:2c00000000000000000000000000000000000000001a00000000001a000000001a0000001a001a001a001a001a001a00
#07313:0000000000000000000000000000001a00000000000000000000000000000000000000000000000000000000001a00000000000000000000000000000000000000000000000000000000001a00000000000000000000000000000000000000000000000000000000001a00000000000000000000000000000000000000000000000000000000001a00000000000000000000000000000000000000000000000000000000001a00000000000000000000000000000000000000000000000000000000001a00000000000000000000000000000000000000000000000000000000001a00000000000000000000000000000000000000000000000000000000001a00000000000000000000000000000000000000000000000000000000001a00000000000000000000000000000000000000000000000000000000001a00000000000000000000000000000000000000000000000000000000001a00000000000000000000000000000000000000000000000000000000001a00000000000000000000000000000000000000000000000000000000001a00000000000000000000000000000000000000000000000000000000001a00000000000000000000000000000000000000000000000000000000001a0000000000000000000000000000000000000000000000000000000000001a000000000000000000000000000000000000000000000000000000000000001a000000000000000000000000000000000000000000000000000000000000001a000000000000000000000000000000000000000000000000000000000000001a000000000000000000000000000000000000000000000000000000000000001a000000000000000000000000000000000000000000000000000000000000001a000000000000000000000000000000000000000000000000000000000000001a000000000000000000000000000000000000000000000000000000000000001a000000000000000000000000000000000000000000000000000000000000001a000000000000000000000000000000000000000000000000000000000000001a000000000000000000000000000000000000000000000000000000000000001a000000000000000000000000000000000000000000000000000000000000001a000000000000000000000000000000000000000000000000000000000000001a000000000000000000000000000000000000000000000000000000000000001a000000000000000000000000000000000000000000000000000000000000001a00000000000000000000000000000000000000000000000000000000000000000000000000000000000000000000001a0000000000000000000000000000000000000000000000000000000000000000000000000000000000000000000000000000000000000000000000000000001a0000000000000000000000000000000000000000000000000000000000000000000000000000000000000000000000000000000000000000000000000000001a0000000000000000000000000000000000000000000000000000000000000000000000000000000000000000000000000000000000000000000000000000001a00000000000000000000000000000000000000000000000000000000000000000000000000000000000000000000000000000000000000000000000000000000000000000000000000000000000000000000000000000000000000000000001a000000000000000000000000000000000000000000000000000000000000000000000000000000000000000000000000000000000000000000000000000000000000000000000000000000000000000000000000000000000000000000000000000000000000000000000000000000000000000000000000000000000000000000000000000000000000000000000000000000000000000000000000000000000000000000000000000000000000000000000000000000000000000000000000000000000000000000000000000000000000000000000000000000000000000000000000000000000000000000000000000000000000000000000000000000000000000000000000000000000000000000000000000000000000000000000000000000000000000000000000000000000000000000000000000000000000000000000000000000000000000000000000000000000000000000000000000000000000000000000000000000000000000000000000000000000000000000000000000000000000000000000000000000000000000000000000000000000000000000000000000000000000000000000000000000000000000000000000000000000000000000000000000000000000000000000000000000000000000000000000000000000000000000000000000000000000000000000000000000000000000000000000000000000000000000000000000000000000000000000000000000000000000000000000000000000000000000000000000000000000000000000000000000000000000000000000000000000000000000000000000000000000000000000000000000000000000000000000000000000000000000000000000000
#07314:0000000000000000000000000000001a00000000000000000000000000000000000000000000000000000000001a00000000000000000000000000000000000000000000000000000000001a00000000000000000000000000000000000000000000000000000000001a00000000000000000000000000000000000000000000000000000000001a00000000000000000000000000000000000000000000000000000000001a00000000000000000000000000000000000000000000000000000000001a00000000000000000000000000000000000000000000000000000000001a0000000000000000000000000000000000000000000000000000000000001a000000000000000000000000000000000000000000000000000000000000001a000000000000000000000000000000000000000000000000000000000000001a000000000000000000000000000000000000000000000000000000000000001a000000000000000000000000000000000000000000000000000000000000001a000000000000000000000000000000000000000000000000000000000000001a000000000000000000000000000000000000000000000000000000000000001a000000000000000000000000000000000000000000000000000000000000001a0000000000000000000000000000000000000000000000000000000000000000000000000000000000000000000000000000000000000000000000000000001a0000000000000000000000000000000000000000000000000000000000000000000000000000000000000000000000000000000000000000000000000000001a000000000000000000000000000000000000000000000000000000000000000000000000000000000000000000000000000000000000000000000000000000000000000000000000000000000000000000000000000000000000000000000000000000000000000000000000000000000000000000000000000000000000000000000000000000000000000000000000000000000000000000000000000000000000000000000000000000000000000000000000000000000000000000000000000000000000000000000000000000000000000000000000000000000000000000000000000000000000000000000000000000000000000000000000000000000000000000000000000000000000000000000000000000000000000000000000000000000000000000000000000000000000000000000000000000000000000000000000000000000000000000000000000000000000000000000000000000
#07312:1a00000000000000000000000000001a00000000000000000000000000001a00000000000000000000000000001a00000000000000000000000000001a00000000000000000000000000001a00000000000000000000000000001a00000000000000000000000000001a00000000000000000000000000001a0000000000000000000000000000001a0000000000000000000000000000001a0000000000000000000000000000001a0000000000000000000000000000001a0000000000000000000000000000001a0000000000000000000000000000001a0000000000000000000000000000001a00000000000000000000000000000000000000000000001a000000000000000000000000000000000000000000000000000000000000001a0000000000000000000000000000000000000000000000000000000000000000000000000000000000000000000000000000001a00000000000000000000000000000000000000000000000000000000000000000000000000000000000000000000000000000000000000000000000000000000000000000000000000000000000000000000000000000000000000000000000000000000000000000000000000000000000000000000000000000000000000000000000000000000000000
#03616:00001313000000000000000000000000
#03614:00000000000013130000000000000000
#03612:13000000000000000000131300000000
#03615:00000013
#03618:0000000000000026
#0361b:23
#03619:00230000
#03617:0023
#0571b:13
#05712:1300000000000013
#05719:0012000000000000
#05715:0000001200120000
#05717:0000120000001212
#05713:0012
#0411a:0000001414140000
#04112:0000001414140000
#04118:0000000000001313
#04115:00000000000000000000000000130013
#0421b:00000000000000001300000000130000
#04215:0000000000000013
#04218:00000000000000000000000000000013
#04212:13130013
#04216:0000000013130000
#04219:23330000
#04210:41
#04412:1300001300000000
#04415:00000000130000002300000000130013
#04418:23000000001300130000000013000000
#0441b:0000000013000013
#04518:0000000000001313
#04515:00000000000000000000000000130013
#04512:1300230000130000
#0451b:2300000013130000
#04812:13132300
#04818:00000000001300130000000000001300
#04815:00000000000013000000000000130013
#0481b:23001313
#04912:13230000
#04917:0013000000130000
#04916:0000001300000000
#04915:0000000000001313
#04918:00000000000000000000000000130013
#0491b:2323
#06512:0015000000001513000000001816000000001412000000001917000000001311
#0651b:0013000000000000000000000000000000000000000000001300000000000000
#06517:0000000000001700000000000000000000000000000000000000000000000017
#06519:0000000000000015000000000000000000000000000000000000000000000000
#0651a:0000001400000000
#0651c:0000000000000000000000000012000000000000000000000000000000000000
#06516:00000000000000000018000000000000
#06518:0000000000000000000000000000000000000016000000000000000000000000
#0651d:0000000000000000000000000000000000000000000000000011000000000000
#06515:00000000000000000000000000000019
#06612:0000000018160000000014120000000016140000000000000000000000000000
#0661a:0000000014000000000000000000000000140000000000000000000000000000
#0661c:0000000000120000000000000000000000000000000000000000000000000000
#06616:00000000001800000000000000000000
#06618:0000000000000000000000160000000016000000000000000000000000000000
#04312:00000000000000001300000000130000
#04318:0000000000000013
#04315:00000000000000000000000000000013
#0431b:13130013
#04317:0000000013130000
#04314:23330000
#0461b:00000000000000000000130000130000
#04612:13131313
#04616:0013
#04615:00000000000000000000000000000013
#04618:2300330000000013
#04712:00000000000000000000130000130000
#04715:2300330000000013
#04718:00000000000000000000000000000013
#0471b:13131313
#04717:0013
#05817:1212120000000000
#05812:0000001300000000
#0581b:0013000000000000
#0711b:00001300000000000000130000130000
#07112:23230013
#07115:0000000000000013
#07118:00000000000000000000000000000013
#07116:0000001300000000
#07117:2323
#00614:00000012000000000000000000120000
#0061c:1222
#0061a:00000012
#00618:0000121200000012
#00616:00000000000000000000000000000012
#00612:2212
#08016:0012000013130000
#08012:00130023
#08019:00000000000000130000000000000000
#08014:12
#0801a:00120000000000000000000000000000
#08018:00000012000000000000000000000000
#0801b:00230013
#08112:13000000140000000000000024000014
#08116:0000000014140000
#0811a:00130000240000140000000014000000
#08114:0013000000000000
#08117:00000013000000000000000000000000
#08216:1414240000000000
#08215:0000000000260000
#06818:00000000000000000000000000000013
#06814:0000000000000013
#06817:00001300000000000000130000130000
#06812:23230013
#06816:0000001300000000
#0681b:2323
#06810:41
#06715:00000000000000000000000000000013
#06719:0000000000000013
#06716:00001300000000000000130000130000
#0671b:23230013
#06717:0000001300000000
#06712:2323
#0671f:21
#00912:26000000002c2c00
#00918:26
#01815:23
#01818:23
#02212:23
#0221c:22
#0201c:22
#02012:22
#02010:41
#00952:36000000004c3c00
#00958:46
#02458:0000000000000016
#02455:00160000
#02452:0000000000160000
#02558:0016000000224600
#02552:0016000000003600
#02556:0000000000220000
#02652:0000000000000034
#03252:0000000000000016
#07353:0000000000000000000000000000006a00000000000000000000000000000000000000000000000000000000006a00000000000000000000000000000000000000000000000000000000006a00000000000000000000000000000000000000000000000000000000006a00000000000000000000000000000000000000000000000000000000006a00000000000000000000000000000000000000000000000000000000006a00000000000000000000000000000000000000000000000000000000006a00000000000000000000000000000000000000000000000000000000006a00000000000000000000000000000000000000000000000000000000006a00000000000000000000000000000000000000000000000000000000006a00000000000000000000000000000000000000000000000000000000006a00000000000000000000000000000000000000000000000000000000006a00000000000000000000000000000000000000000000000000000000006a00000000000000000000000000000000000000000000000000000000006a00000000000000000000000000000000000000000000000000000000006a00000000000000000000000000000000000000000000000000000000006a0000000000000000000000000000000000000000000000000000000000006a000000000000000000000000000000000000000000000000000000000000006a000000000000000000000000000000000000000000000000000000000000006a000000000000000000000000000000000000000000000000000000000000006a000000000000000000000000000000000000000000000000000000000000006a000000000000000000000000000000000000000000000000000000000000006a000000000000000000000000000000000000000000000000000000000000006a000000000000000000000000000000000000000000000000000000000000006a000000000000000000000000000000000000000000000000000000000000006a000000000000000000000000000000000000000000000000000000000000006a000000000000000000000000000000000000000000000000000000000000006a000000000000000000000000000000000000000000000000000000000000006a000000000000000000000000000000000000000000000000000000000000006a000000000000000000000000000000000000000000000000000000000000006a000000000000000000000000000000000000000000000000000000000000006a00000000000000000000000000000000000000000000000000000000000000000000000000000000000000000000006a0000000000000000000000000000000000000000000000000000000000000000000000000000000000000000000000000000000000000000000000000000006a0000000000000000000000000000000000000000000000000000000000000000000000000000000000000000000000000000000000000000000000000000006a0000000000000000000000000000000000000000000000000000000000000000000000000000000000000000000000000000000000000000000000000000006a00000000000000000000000000000000000000000000000000000000000000000000000000000000000000000000000000000000000000000000000000000000000000000000000000000000000000000000000000000000000000000000006a0000000000000000000000000000000000000000000000000000000000000000000000000000000000000000000000000000000000000000000000000000000000000000000000000000000000000000000000000000000000000000000000000000000000000000000000000000000000000000000000000000000000000000000000000000000000000000000000000000000000000000000000000000001a0000000000000000000000000000000000000000000000000000000000000000000000000000000000000000000000000000000000000000000000000000000000000000000000000000000000000000000000000000000000000000000000000000000000000000000000000000000000000000000000000000000000000000000000000000000000000000000000000000000000000000000000000000000000000000000000000000000000000000000000000000000000000000000000000000000000000000000000000000000000000000000000000000000000000000000000000000000000000000000000000000000000000000000000000000000000000000000000000000000000000000000000000000000000000000000000000000000000000000000000000000000000000000000000000000000000000000000000000000000000000000000000000000000000000000000000000000000000000000000000000000000000000000000000000000000000000000000000000000000000000000000000000000000000000000000000000000000000000000000000000000000000000000000000000000000000000000000000000000000000000000000000000000000000000000000000000000000000000000000000
#07354:0000000000000000000000000000002a00000000000000000000000000000000000000000000000000000000002a00000000000000000000000000000000000000000000000000000000002a00000000000000000000000000000000000000000000000000000000002a00000000000000000000000000000000000000000000000000000000002a00000000000000000000000000000000000000000000000000000000002a00000000000000000000000000000000000000000000000000000000002a00000000000000000000000000000000000000000000000000000000002a0000000000000000000000000000000000000000000000000000000000002a000000000000000000000000000000000000000000000000000000000000002a000000000000000000000000000000000000000000000000000000000000002a000000000000000000000000000000000000000000000000000000000000002a000000000000000000000000000000000000000000000000000000000000002a000000000000000000000000000000000000000000000000000000000000002a000000000000000000000000000000000000000000000000000000000000002a000000000000000000000000000000000000000000000000000000000000002a0000000000000000000000000000000000000000000000000000000000000000000000000000000000000000000000000000000000000000000000000000002a0000000000000000000000000000000000000000000000000000000000000000000000000000000000000000000000000000000000000000000000000000002a000000000000000000000000000000000000000000000000000000000000000000000000000000000000000000000000000000000000000000000000000000000000000000000000000000000000000000000000000000000000000000000000000000000000000000000000000000000000000000000000000000000000000000000000000000000000000000000000000000000000000000000000000000000000000000000000000000000000000000000000000000000000000000000000000000000000000000000000000000000000000000000000000000000000000000000000000000000000000000000000000000000000000000000000000000000000000000000000000000000000000000000000000000000000000000000000000000000000000000000000000000000000000000000000000000000000000000000000000000000000000000000000000000000000000000000000000000
#07352:2a00000000000000000000000000002a00000000000000000000000000002a00000000000000000000000000002a00000000000000000000000000002a00000000000000000000000000002a00000000000000000000000000002a00000000000000000000000000002a00000000000000000000000000002a0000000000000000000000000000002a0000000000000000000000000000002a0000000000000000000000000000002a0000000000000000000000000000002a0000000000000000000000000000002a0000000000000000000000000000002a0000000000000000000000000000002a00000000000000000000000000000000000000000000002a000000000000000000000000000000000000000000000000000000000000002a0000000000000000000000000000000000000000000000000000000000000000000000000000000000000000000000000000002a00000000000000000000000000000000000000000000000000000000000000000000000000000000000000000000000000000000000000000000000000000000000000000000000000000000000000000000000000000000000000000000000000000000000000000000000000000000000000000000000000000000000000000000000000000000000000
#07252:1c00000000000000000000000000000000000000002a00000000002a000000002a0000002a002a002a002a002a002a00
#07254:0000000000000000000000000000000000002a00000000002a00000000002a0000002a00002a002a002a002a002a002a
#07253:0000000000000000000000000000000000000000000000000000000000000000000000000000006a00000000006a00000000006a00000000006a000000006a0000006a0000006a00006a006a006a006a006a006a006a006a006a006a006a006a
#0055c:00000012
#00556:00000012
#01757:00000017
#01752:00000014
#0075b:6343
#00752:3353
#0085a:6444
#00852:3454
#08454:11
#0845b:11
#08354:4800000000000021
#0835b:0000000000000021
#08352:0000000000000000000000004c000065
#08359:00000000000000000000000000000055
#08353:0000003a00000000
#07852:161c0000
#02352:00000000000000000000000000000013
#02852:0000000000000036
#02958:0046000000000000
#02752:0038003c00000000
#03358:0016000000000000
#0345a:0044000000000044
#03458:002300000000000000000000000000000000000000000000
#03452:0034000000000000
#03455:002300000000000000000000000000000000000000000000
#03556:0048000000000000
#03552:0000004c00000000
#03658:0000000000000046
#03752:0036000000000000
#07755:0000000000000026
#07758:00000066
#0755a:00000064
#07652:00000055
#07956:14
#07952:00520032
#0795c:00420062
#01858:0000000000000013
#01855:0000000000000013
#0205b:0000000000000012
#02053:0000000000000012
#05152:3636
#05158:46
#05056:000000000000000000000000000000000000000000000000000000000000000000000000000000000000000000000000000000000000000000000000000000000000000000000000000000000000000000000000000000000000000000000000000000000000000000000000000000000000000000000000000000000000000000000000000000000000000000000000000000000000000000000000000000000000000000000000000000000000000000000000000000000000000000000000000000000000000000000000000000000000000000000000000000000000000000000000000000000000000000000000000000000000000000000000000000000000000000000000000000000000000000000000000000000000000000000000000000000000000000000000000000000000000000000000000000000000000000000000000000000000000000000000000000000000000000000000000000000000000000000000000000000000000000000000000000000000000000000000000000000000000000000000000000000000000000000000000000000000000000000000000000000000000000000000000000000000000000000000000000000000000000000000000000000000000000000000000000000000000000000000000000000000000000000000000000000000000000000000000000000000000000000000000000000000000000000000000000000000000000000000000000000000000000000000000000000000000000000000000000000000000000000000000000000000000000000000000000000000000000000000000000000000000000000000000000000000000000000000000000000000000000000000000000000000000000000000000000000000000000000000000000000000000000000000000000000000000000000000000000000000000000000000000000000000000000000000000000000000000000000000000000000000000000000000000000000000000000000000000000000000000000000000000000000000000000000000000000000000000000000000000000000000000000000000000000000000000000000000000000000000000000000000000000000000000000000000000000000000000000000000000000000000000000000000000000000000000000000000000000000000000000000000000000000000000000000000000000000000000000000000000000000000000000000000000000000000000000000000000000000000000000000000000000000000000000000000000000000000000000000000000000000000000000000000000000000000000000000000000000000000000000000000000000000000000000000000000000000000000000000000000000000000000000000000000000000000000000000000000000000000000000000000000000000000000000000000000000000000000000000000000000000000000000000000000000000000000000000000000000000000000000000000000000000000000000000000000000000000000000000000000000000000000000000000000000000000000000000000000000000000000000000000000000000000000000000000000000000000000000000000000000000000000000000000000000000000000000000000000000000000000000000000000000000000000000000000000000000000000000000000000000000000000000000000000000000000000000000000000000000000000000000000000000000000000000000000000000000000000000000000000000000000000000000000000000000000000000000000000000000000000000000000000000000000000000000000000000000000000000000000000000000000000000000000000000000000000000000000000000000000000000000000000000000000000000000000000000000000000000000000000000000000000000000000000000000000000000000000000000000000000000000000000000000000000000000000000000000000000000000000000000000000000000000000000000000000000000000000000000000000000000000000000000000000000000000000000000000000000000000000000000000000000000000000000000000000000000000000000000000000000000000000000000000000000000000000000000000000000000000000000000000000000000000000000000000000000000000000000000000000000000000000000000000000000000000000000000000000000000000024240000000000000000000000000000000000000000000000000000000000000000000000000000000000000000000000000000000000000000000000000000000000000000000000000000000000000000000000000000000000000000000000000000000000000000000000000000000000000000000000000000000000000000000000000000000000000000000000000000000000000000000000000000000000000000000000000000000000000000000000000000000000000000000000000000000000000000000000000000000000000000000000000000000000000000000000000000000000000000000000
#05058:00000066
#05052:00000056
#06956:0000000000230000
#06957:0023000000000000
#06952:0013
#06958:0063
#06955:53
#0695b:13
#01256:0000000000230000
#01252:0053
#02252:0000000000000013
#0225b:0000000000000012
#03156:18
#03154:00180000
#03152:0018
#03952:18
#03954:00180000
#03956:0018
#01352:006700000000000000000000000000000000000000000000000000000000000000000000000000000000000000000000000000000000000000000000000000000000000000000000000000000000006600000000000000000000000000000000000000000000000000000000000000000000000000000000000000000000000000000000000000000000000000000000000000000000000000000000000000290000000000000000000000000000000000000000000000000000000000000000000000000000000000000000000000000000000000000000000000000000000000000000000000000000000000000066000000000000000000000000000000000000000000000000000000000000000000000000000000000000000000000000000000000000000000000000000000000000000000000000000000000000002b00000000000000000000000000000000000000000000000000000000000000000000000000000000000000000000000000000000000000000000000000000000000000000000000000000000000000662c0000000000000000000000000000000000000000000000000000000000000000000000000000000000000000000000000000000000000000000000000000000000000000000000000000000000002c00000000000000000000000000000000000000000000000000000000000000000000000000000000000000000000000000000000000000000000000000000000000000000000000000000000000000662c0000000000000000000000000000000000000000000000000000000000000000000000000000000000000000000000000000000000000000000000000000000000000000000000000000000000002b0000000000000000000000000000000000000000000000000000000000000000000000000000000000000000000000000000000000000000000000000000000000000000000000000000000000000066000000000000000000000000000000000000000000000000000000000000000000000000000000000000000000000000000000000000000000000000000000000000000000000000000000000000002900000000000000000000000000000000000000000000000000000000000000000000000000000000000000000000000000000000000000000000000000000000000000000000000000000000000000660000000000000000000000000000000000000000000000000000000000000000000000000000000000000000000000000000000000000000000000000000000000000000000000000000000000000000160000000000000000000000000000000000000000000000000000000000000000000000000000000000000000000000000000000000000000000000000000000000000000000000000000000000000000000000000000000000000000000000000000000000000000000000000000000000000000000000000000000000000000000000000000000000000000000000000000000000000000000000000000000000000000000000000000000000000000000000000000000000000000000000000000000000000000000000000000000000000000000000000000000000000000000000000000000000000000000000000000000000000000000000000000000000000000000000000000000000000000000000000000000000000000000000000000000000000000000000000000000000000000000000000000000000000000000000000000000000000000000000000000000000000000000000000000000000000000000000000000000000000000000000000000000000000000000000000000000000000000000000000000000000000000000000000000000000000000000000000000000000000000000000000000000000000000000000000000000000000000000000000000000000000000000000000000000000000000000000000000000000000000000000000000000000000000000000000000000000000000000000000000000000000000000000000000000000000000000000000000000000000000000000000000000000000000000000000000000000000000000000000000000000000000000000000000000000000000000000000000000000000000000000000000000000000000000000000000000000000000000000000000000000000000000000000000000000000000000000000000000000000000000000000000000000000000000000000000000000000000000000000000000000000000000000000000000000000000000000000000000000000000000000000000000000000000000000000000000000000000000000000000000000000000000000000000000000000000000000000000000000000000000000000000000000000000000000000000000000000000000000000000000000000000000000000000000000000000000000000000000000000000000000000000000000000000000000000000000000000000000000000000000000000000000000000000000000000000000000000000000000000000000000000000000000000000000000000000000000000000000000000000000000000000000000000000000000000000000000
#01356:002800000000000000000028000000000000000000000000
#01354:002a002a00000000
#01358:666666666666160000000000
#01455:0000001300000000
#01458:00000000000000000000001300000000
#01558:0013000000000000
#01555:00000000000000130000000000000000
#05258:4646
#05252:00360000
#05655:36463600
#05555:3646
#04158:0012000000000000
#04156:0012000000000000
#04252:13
#0425b:0063
#04256:0000000000230000
#04452:13
#0445b:0013
#04852:13
#0485b:0013
#04552:13
#04952:13530000
#04957:0023000000230000
#04956:0000002300000000
#0495b:6363
#06452:000000000000000000000000000000000000000000000000000000000000000000000000000000000000000000000000000000000000000000000000000000000000000000000000000000000000000000000000000000000000000000000000000000000000000000000000000000000000000000000000000000000000000000000000000000000000000000000000000000000000000000000000000000000000000000000000000000000000000000000000000000000000000000000000000000000000000000000000000000000000000000000000000000000000000000000000000000000000000000000000000000000000000000000000000000000000000000000000000000000000000000000000000000000000000000000000000000000000000000000000000000000000000000000000000000000000000000000000000000000000000000000000000000000000000000000000000000000000000000000000000000000000000000000000000000000000000000000000000000000000000000000000000000000000000000000000000000000000000000000000000000000000000000000000000000000000000000000000000000000000000000000000000000000000000000000000000000000000000000000000000000000000000000000000000000000000000000000000000000000000000000000000000000000000000000000000000000000000000000000000000000000000000000000000000000000000000000000000000000000000000000000000000000000000000000000000000000000000000000000000000000000000000000000000000000000000000000000000000000000000000000000000000000000000000000000000000000000000000000000000000000000000000000000000000000000000000000000000000000000000000000000000000000000000000000000000000000000000000000000000000000000000000000000000000000000000000000000000000000000000000000000000000000000000000000000000000000000000000000000000000000000000000000000000000000000000000000000000000000000000000000000000000000000000000000000000000000000000000000000000000000000000000000000000000000000000000000000000000000000000000000000000000000000000000000000000000000000000000000000000000000000000000000000000000000000000000000000000000000000000000000000000000000000000000000000000000000000000000000000000000000000000000000000000000000000000000000000000000000000000000000000000000000000000000000000000000000000000000000000000000000000000000000000000000000000000000000000000000000000000000000000000000000000000000000000000000000000000000000000000000000000000000000000000000000000000000000000000000000000000000000000000000000000000000000000000000000000000000000000000000000000000000000000000000000000000000000000000000000000000000000000000000000000000000000000000000000000000000000000000000000000000000000000000000000000000000000000000000000000000000000000000000000000000000000000000000000000000000000000000000000000000000000000000000000000000000000000000000000000000000000000000000000000000000000000000000000000000000000000000000000000000000000000000000000000000000000000000000000000000000000000000000000000000000000000000000000000000000000000000000000000000000000000000000000000000000000000000000000000000000000000000000000000000000000000000000000000000000000000000000000000000000000000000000000000000000000000000000000000000000000000000000000000000000000000000000000000000000000000000000000000000000000000000000000000000000000000000000000000000000000000000000000000000000000000000000000000000000000000000000000000000000000000000000000000000000000000000000000000000000000000000000000000000000000000000000000000000000000000000000000000000000000000000000000000000000000000000000000000000000000000000000000000000000000000000000000000000000000000000000000000000000000000000000000000000000000000000000000000000000000000000000000000000000000000000000000000000000000000000000000000000000000000000000000000000000000000000000000000000000000000000000000000000000000000000000000000000000000000000000000000000000000000000000000000000000000000000000000000000000000000000000000000000000000000000000000000000000000000000000000000000000000000000000000000000000000000000000000000000000000000000000000000000000000000000000000000000000000000027
#06459:000000000000000000000000000000000000000000000000000000000000000000000000000000000000000000000000000000000000000000000000000000000000000000000000000000000000000000000000000000000000000000000000000000000000000000000000000000000000000000000000000000000000000000000000000000000000000000000000000000000000000000000000000000000000000000000000000000000000000000000000000000000000000000000000000000000000000000000000000000000000000000000000000000000000000000000000000000000000000000000000000000000000000000000000000000000000000000000000000000000000000000000000000000000000000000000000000000000000000000000000000000000000000000000000000000000000000000000000000000000000000000000000000000000000000000000000000000000000000000000000000000000000000000000000000000000000000000000000000000000000000000000000000000000000000000000000000000000000000000000000000000000000000000000000000000000000000000000000000000000000000000000000000000000000000000000000000000000000000000000000000000000000000000000000000000000000000000000000000000000000000000000000000000000000000000000000000000000000000000000000000000000000000000000000000000000000000000000000000000000000000000000000000000000000000000000000000000000000000000000000000000000000000000000000000000000000000000000000000000000000000000000000000000000000000000000000000000000000000000000000000000000000000000000000000000000000000000000000000000000000000000000000000000000000000000000000000000000000000000000000000000000000000000000000000000000000000000000000000000000000000000000000000000000000000000000000000000000000000000000000000000000000000000000000000000000000000000000000000000000000000000000000000000000000000000000000000000000000000000000000000000000000000000000000000000000000000000000000000000000000000000000000000000000000000000000000000000000000000000000000000000000000000000000000000000000000000000000000000000000000000000000000000000000000000000000000000000000000000000000000000000000000000000000000000000000000000000000000000000000000000000000000000000000000000000000000000000000000000000000000000000000000000000000000000000000000000000000000000000000000000000000000000000000000000000000000000000000000000000000000000000000000000000000000000000000000000000000000000000000000000000000000000000000000000000000000000000000000000000000000000000000000000000000000000000000000000000000000000000000000000000000000000000000000000000000000000000000000000000000000000000000000000000000000000000000000000000000000000000000000000000000000000000000000000000000000000000000000000000000000000000000000000000000000000000000000000000000000000000000000000000000000000000000000000000000000000000000000000000000000000000000000000000000000000000000000000000000000000000000000000000000000000000000000000000000000000000000000000000000000000000000000000000000000000000000000000000000000000000000000000000000000000000000000000000000000000000000000000000000000000000000000000000000000000000000000000000000000000000000000000000000000000000000000000000000000000000000000000000000000000000000000000000000000000000000000000000000000000000000000000000000000000000000000000000000000000000000000000000000000000000000000000000000000000000000000000000000000000000000000000000000000000000000000000000000000000000000000000000000000000000000000000000000000000000000000000000000000000000000000000000000000000000000000000000000000000000000000000000000000000000000000000000000000000000000000000000000000000000000000000000000000000000000000000000000000000000000000000000000000000000000000000000000000000000000000000000000000000000000000000000000000000000000000000000000000000000000000000000000000000000000000000000000000000000000000000000000000000000000000000000000000000000000000000000000000000000000000000000000000000000000000000000000000000000000000000000000000000000000000000000000000000000000000000000000000000000000000000000000025
#06456:12
#06552:0055000000002563000000002856000000002462000000002957000000002361
#0655b:0053000000000000000000000000000000000000000000002300000000000000
#06557:0000000000002700000000000000000000000000000000000000000000000067
#06559:0000000000000065000000000000000000000000000000000000000000000000
#0655a:0000002400000000
#0655c:0000000000000000000000000052000000000000000000000000000000000000
#06556:00000000000000000028000000000000
#06558:0000000000000000000000000000000000000066000000000000000000000000
#0655d:0000000000000000000000000000000000000000000000000051000000000000
#06555:00000000000000000000000000000029
#06652:0000000028560000000024620000000026540000000000001600000000000000
#0665a:0000000024000000000000000000000000540000000000000000000000000000
#0665c:0000000000520000000000000000000000000000000000000000000000000000
#06656:00000000002800000000000000000000
#06658:0000000000000000000000660000000026000000000000001600000000000000
#0435b:13
#04352:0053
#04357:0000000000230000
#04652:13
#04656:0053
#0465b:0000000000230000
#0475b:13
#04757:0063
#04752:0000000000230000
#03852:13
#0385b:0013
#0305b:13
#03052:0013
#06057:12
#06157:12
#06158:0012
#06256:12
#06358:12
#0675b:13630000
#06757:0000002300000000
#06756:0023000000230000
#06752:53335300
#05857:00000012
#0715b:0023000000230000
#07156:0000002300000000
#07152:13533300
#07157:5353
#07056:0023000023000000
#0705b:13630000
#07052:53330000
#0065c:6242
#00652:3252
#08052:00530033
#0805b:00430063
#08152:00540034
#0815a:00440064
#08256:00440000
#08255:0000000000360000
#0685b:63436300
#06852:13530000
#06856:0000002300000000
#06857:0023000000230000
#0063c0:12
#006380:00000022000000000000000000000000
#006320:0012
#006360:00000022
#0073b0:13
#007370:00000023000000000000000000000000
#007320:0013
#007360:00000023
#0083a0:14
#008360:00000024000000000000000000000000
#008320:0014
#008360:00000000000000000000002400000000
#0103b0:00130000
#010390:0000002300000000
#010320:0013
#010340:0000000000230000
#0103b0:00000013
#010380:0000000000000023
#011320:13
#011350:0023000000000000
#0113b0:00130000
#011370:0000002300000000
#011320:0013
#011360:0000000000230000
#0113b0:00000013
#011360:0000000000000023
#012320:00001323
#012360:0000000000530000
#013380:165656365656260000000000
#013360:005800000000000000000058000000000000000000000000
#013340:003a005a00000000
#013320:00000000005c005c00000000000000000000000000000000
#013321:165700000000000000000000000000000000000000000000000000000000000000000000000000000000000000000000000000000000000000000000000000000000000000000000000000000000005600000000000000000000000000000000000000000000000000000000000000000000000000000000000000000000000000000000000000000000000000000000000000000000000000000000000000590000000000000000000000000000000000000000000000000000000000000000000000000000000000000000000000000000000000000000000000000000000000000000000000000000000000000036000000000000000000000000000000000000000000000000000000000000000000000000000000000000000000000000000000000000000000000000000000000000000000000000000000000000005b0000000000000000000000000000000000000000000000000000000000000000000000000000000000000000000000000000000000000000000000000000000000000000000000000000000000000056000000000000000000000000000000000000000000000000000000000000000000000000000000000000000000000000000000000000000000000000000000000000000000000000000000000000003c0000000000000000000000000000000000000000000000000000000000000000000000000000000000000000000000000000000000000000000000000000000000000000000000000000000000000056000000000000000000000000000000000000000000000000000000000000000000000000000000000000000000000000000000000000000000000000000000000000000000000000000000000000005b0000000000000000000000000000000000000000000000000000000000000000000000000000000000000000000000000000000000000000000000000000000000000000000000000000000000000056000000000000000000000000000000000000000000000000000000000000000000000000000000000000000000000000000000000000000000000000000000000000000000000000000000000000005900000000000000000000000000000000000000000000000000000000000000000000000000000000000000000000000000000000000000000000000000000000000000000000000000000000000000560000000000000000000000000000000000000000000000000000000000000000000000000000000000000000000000000000000000000000000000000000000000000000000000000000000000000057260000000000000000000000000000000000000000000000000000000000000000000000000000000000000000000000000000000000000000000000000000000000000000000000000000000000000000000000000000000000000000000000000000000000000000000000000000000000000000000000000000000000000000000000000000000000000000000000000000000000000000000000000000000000000000000000000000000000000000000000000000000000000000000000000000000000000000000000000000000000000000000000000000000000000000000000000000000000000000000000000000000000000000000000000000000000000000000000000000000000000000000000000000000000000000000000000000000000000000000000000000000000000000000000000000000000000000000000000000000000000000000000000000000000000000000000000000000000000000000000000000000000000000000000000000000000000000000000000000000000000000000000000000000000000000000000000000000000000000000000000000000000000000000000000000000000000000000000000000000000000000000000000000000000000000000000000000000000000000000000000000000000000000000000000000000000000000000000000000000000000000000000000000000000000000000000000000000000000000000000000000000000000000000000000000000000000000000000000000000000000000000000000000000000000000000000000000000000000000000000000000000000000000000000000000000000000000000000000000000000000000000000000000000000000000000000000000000000000000000000000000000000000000000000000000000000000000000000000000000000000000000000000000000000000000000000000000000000000000000000000000000000000000000000000000000000000000000000000000000000000000000000000000000000000000000000000000000000000000000000000000000000000000000000000000000000000000000000000000000000000000000000000000000000000000000000000000000000000000000000000000000000000000000000000000000000000000000000000000000000000000000000000000000000000000000000000000000000000000000000000000000000000000000000000000000000000000000000000000000000000000000000000000000000000000000000000000000000000000000000
#0153a1:00000000000000000000125200000000
#015381:00000026
#015340:00000000000000000000000000000000000000000000000000000000000000000000000000000000000000000000000000000000000000000000000000000000000000000000000000000000000000000000000000000000000000000000000000000000000000000000000000000000000000000000000000000000000000000000000000000000000000000000000000000000000000000000000000000000000000000000000000000000000000000000000000000000000000000000000000000000000000000000000000000000000000000000000000000000000000000000000000000000000000000000000000000000000000000000000000000000000000000000000000000000000000000000000000000000000000000000000000000000000000000000000000000000000000000000000000000000000000000000000000000000000000000000000000000000000000000000000000000000000000000000000000000000000000000000000000000000000000000000000000000000000000000000000000000000120000000000000000000000000000000000000000000000000000000000000000000000000000000000000000000000000000000052000000000000000000000000000000000000000000000000000000000000000000000000000000000000000000000000000000000000000000000000000000000000000000000000000000000000000000000000000000000000000000000000000000000000000000000000000000000000000000000000000000000000000000000000000000000000000000000000000000000000000000000000000000000000000000000000000000000000000000000000000000000000
#015320:000000000000000000000000000000000056260000000000
#0173a0:000000000000000000000000000000000000000000000000000000000000000000000000000000000000000000000000000000000000000000000000000000000000000000000000000000000000000000000000000000000000000000000000000000000000000000000000000000000000000000000000000000000000000000000000000000000000000000000000000000000000000000000000000000000000000000000000000000000000000000000000000000000000000000000000000000000000000000000000000000000000000000000000000000000000000000000000000000000000000000000000000000000000000000000000000000000000000000000000000000000000000000000000000000000000000000000000000000000000000000000000000000000000000000000000000000000000000000000000000000000000000000000000000000000000000000000000000000000000000000000000000000000000000000000000000000000000000000000000000000000000000000000000000000000000000000000000000000000000000000000000000000000000000000000000000000000000000000000000000000000000000000000000000000000000000000000000000000000000000000000000000000000000000000000000000000000000000000000000000000000000000000000000000000000000000000000000000000000000000000000000000000000000000000000000000000000000000000000000000000000000000000000000000000000000000000000000000000000000000000000000000000000000000000000000000000000000000000000000000000000000000000000000000000000000000000000000000000000000000000000000000000000000000000000000000000000000000000000000000000000000000000000000000000000000000000000000000000000000000000000000000000000000000000000000000000000000000000000000000000000000000000000000000000000000000000000000000000000000000000000000000000000000000000000000000000000000000000000000000000000000000000000000000000000000000000000000000000000000000000000000000000000000000000000000000000000000000000000000000000000000000000000000000000000000000000000000000000000000000000000000000000000000000000000000000000000000000000000000000000000000000000000000000000000000000000000000000000000000000000000000140000000000000000000000000000000000000000000000000000000000000000000000000000000000000000000000000000000000000000000000000000000000000000000000000000000000000000000000000000000000000000000000000000000000000000000000000000000000000000000000000000000000000000000000000000000000000000000000000000000000000000000000000000000000000000000000000000000000000000000000000000000000000000000000000000000000000000000000000000000000000000000000000000000000000000000000000000000000000000000000000000000000000000000000000000000000000000000000000000000000000000000000000000000000000000000000000000000000000000000000000000000000000000000000000000000000000000000000000000000000000000000000000000000000000000000000000000000000000000000054000000000000000000000000000000000000000000000000000000000000000000000000000000000000000000000000000000000000000000000000000000000000000000000000000000000000000000000000000000000000000000000000000000000000000000000000000000000000000000000000000000000000000000000000000000000000000000000000000000000000000000000000000000000000000000000000000000000000000000000000000000000000000000000000000000000000000000000000000000000000000000000000000000000000000000000000000000000000000000000000000000000000000000000000000000000000000000000000000000000000000000000000000000000000000000000000000000000000000000000000000000000000000000000000000000000000000000000000000000000000000000000000000000000000000000000000000000000000000000000000000000000000000000000000000000000000000000000000000000000000000000000000000000000000000000000000000000000000000000000000000000000000000000000000000000000000000000000000000000000000000000000000000000000000000000000000000000000000000000000000000000000000000000000000000000000000000000000000000000000000000000000000000000000000000000000000000000000000000000000000000000000000000000000000000000000000000000000000000000000000000000000000000000000000000000000000000000000000000000000000
#017370:00000000000000000000005727000000
#017321:000000000000000000000000000000000000000000000000000000000000000000000000000000000000000000000000000000000000000000000000000000000000000000000000000000000000000000000000000000000000000000000000000000000000000000000000000000000000000000000000000000000000000000000000000000000000000000000000000000000000000000000000000000000000000000000000000000000000000000000000000000000000000000000000000000000000000000000000000000000000000000000000000000000000000000000000000000000000000000000000000000000000000000000000000000000000000000000000000000000000000000000000000000000000000000000000000000000000000000000000000000000000000000000000000000000000000000000000000000000000000000000000000000000000000000000000000000000000000000000000000000000000000000000000000000000000000000000000000000000000000000000000000000000000000000000000000000000000000000000000000000000000000000000000000000000000000000000000000000000000000000000000000000000000000000000000000000000000000000000000000000000000000000000000000000000000000000000000000000000000000000000000000000000000000000000000000000000000000000000000000000000000000000000000000000000000000000000000000000000000000000000000000000000000000000000000000000000000000000000000000000000000000000000000000000000000000000000000000000000000000000000000000000000000000000000000000000000000000000000000000000000000000000000000000000000000000000000000000000000000000000000000000000000000000000000000000000000000000000000000000000000000000000000000000000000000000000000000000000000000000000000000000000000000000000000000000000000000000000000000000000000000000000000000000000000000000000000000000000000000000000000000000000000000000000000000000000000000000000000000000000000000000000000000000000000000000000000000000000000000000000000000000000000000000000000000000000000000000000000000000000000000000000000000000000000000000000000000000000000000000000000000000000000000000000000000000000000000000000000000170000000000000000000000000000000000000000000000000000000000000000000000000000000000000000000000000000000000000000000000000000000000000000000000000000000000000000000000000000000000000000000000000000000000000000000000000000000000000000000000575400000000000000000000000000000000000000000000000000000000000000000000000000000000000000000000000000000000000000000000000000000000000000000000000000000000000000000000000000000000000000000000000000000000000000000000000000000000000000000000000000000000000000000000000000000000000000000000000000000000000000000000000000000000000000000000000000000000000000000000000000000000000000000000000000000000000000000000000000000000000000000000000000000000000000000000000000000000000000000000000000000000000000000000000000000000000000000000000000000000000000000000000000000000000000000000000000000000000000000000000000000000000000000000000000000000000000000000000000000000000000000000000000000000000000000000000000000000000000000000240000000000000000000000000000000000000000000000000000000000000000000000000000000000000000000000000000000000000000000000000000000000000000000000000000000000000000000000000000000000000000000000000000000000000000000000000000000000000000000000000000000000000000000000000000000000000000000000000000000000000000000000000000000000000000000000000000000000000000000000000000000000000000000000000000000000000000000000000000000000000000000000000000000000000000000000000000000000000000000000000000000000000000000000000000000000000000000000000000000000000000000000000000000000000000000000000000000000000000000000000000000000000000000000000000000000000000000000000000000000000000000000000000000000000000000000000000000000000000000000000000000000000000000000000000000000000000000000000000000000000000000000000000000000000000000000000000000000000000000000000000000000000000000000000000000000000000000000000000000000000000000000000000000000000000000000000000000000000000000000
#018381:130000000000000000000000000000000000000000000000000000005300000000000000000000000000000000000000330000000000000000005300000000000000330000000000000000000000000000530000230000000000000000000000
#0183b1:000000005300000000000000000000000000000000000000330000000000000000000000000000000000000000000000000000530000330000000000000000000000000000005300000000000000330000000000000000000000000000000000
#018350:130000000000000000000000000000000000000000000000000000005300000000000000000000000000000000000000330000000000000000005300000000000000330000000000000000000000000000530000230000000000000000000000
#018320:000000005300000000000000000000000000000000000000330000000000000000000000000000000000000000000000000000530000330000000000000000000000000000005300000000000000330000000000000000000000000000000000
#0203c0:120000000000005200000000320000000000000000000000
#020380:005200000000320000000000000000000000000000000000
#020390:000000000000000000000000000000000000000000000000000000000000000000000000000000000000000000000000000000520000320000000000000000000000000000005200000000000000320000000000000000000000000000000000
#0203b0:000000000000000000000000000000000000000000000000000000000000000000000000000000000000000000000000000000000000000000005200000000000000320000000000000000000000000000520000220000000000000000000000
#020321:120000000000005200000000320000000000000000000000
#020361:005200000000320000000000000000000000000000000000
#020351:000000000000000000000000000000000000000000000000000000000000000000000000000000000000000000000000000000520000320000000000000000000000000000005200000000000000320000000000000000000000000000000000
#020331:000000000000000000000000000000000000000000000000000000000000000000000000000000000000000000000000000000000000000000005200000000000000320000000000000000000000000000520000220000000000000000000000
#022321:130000000000000000000000000000000000000000000000000000005300000000000000000000000000000000000000330000000000000000005300000000000000330000000000000000000000000000530000230000000000000000000000
#022351:000000005300000000000000000000000000000000000000330000000000000000000000000000000000000000000000000000530000330000000000000000000000000000000000530000000000330000000000000000000000000000000000
#0223c0:120000000000005200000000320000000000000000000000
#022380:005200000000320000000000000000000000000000000000
#022390:000000000000000000000000000000000000000000000000000000000000000000000000000000000000000000000000000000520000320000000000000000000000000000005200000000000000320000000000000000000000000000000000
#0223b0:000000000000000000000000000000000000000000000000000000000000000000000000000000000000000000000000000000000000000000005200000000000000320000000000000000000000000000520000220000000000000000000000
#025360:0000000000120000
#025320:00000026
#025381:0000000000122600
#028321:1323000000000000
#028341:0000132300000000
#028361:0000000013230000
#032361:0013002300000000
#032321:00330000
#034381:135300000000000000000000000000000000000000000000
#0343a1:0024000000000000
#034350:135300000000000000000000000000000000000000000000
#034320:0024000000000000
#0363b0:1323000000000000
#036390:0000132300000000
#036370:0000000013230000
#0403b0:0000001200000000
#040380:000000000000000000000000000000000000000000000000000000000000000000000000000000000000000000000000000000000000000000000000000000000000000000000000000000000000000000000000000000000000000000000000000000000000000000000000000000000000000000000000000000000000000000000000000000000000000000000000000000000000000000000000000000000000000000000000000000000000000000000000000000000000000000000000000000000000000000000000000000000000000000000000000000000000000000000000000000000000000000000000000000000000000000000000000000000000000000000000000000000000000000000000000000000000000000000000000000000000000000000000000000000000000000000000000000000000000000000000000000000000000000000000000000000000000000000000000000000000000000000000000000000000000000000000000000000000000000000000000000000000000000000000000000000000000000000000000000000000000000000000000000000000000000000000000000000000000000000000000000000000000000000000000000000000000000000000000000000000000000000000000000000000000000000000000000000000000000000000000000000000000000000000000000000000000000000000000000000000000000000000000000000000000000000000000000000000000000000000000000000000000000000000000000000000000000000000000000000000000000000000000000000000000000000000000000000000000000000000000000000000000000000000000000000000000000000000000000000000000000000000000000000000000000000000000000000000000000000000000000000000000000000000000000000000000000000000000000000000000000000000000000000000000000000000000000000000000000000000000000000000000000000000000000000000000000000000000054000000000000000000000000000000000000000000000000000000000000000000000000000000000000000000000000005300000000000000000000000000000000000000000000000000000000000000000000000000000000000000000000000000000000000000000000005653000000000000000000000000000000000000000000000000000000000000000000000000000000000000000000000000000000000000000000000000000000000000000000000000000000000000220000000000000000000000000000000000000000000000000000000000000000000000000000000000000000000000000000000000000000000000000000000000000000000000000000000000000000000000000000000000000000000000000000000000000000000000000000000000000000000000000000000000000000000000000000000000000000000000000000000000000000000000000000000000000000000000000000000000000000000000000000000000000000000000000000000000000000000000000000000000000000000000000000000000000000000000000000000000000000000000000000000000000000000000000000000000000000000000000000000000000000000000000000000000000000000000000000000000000000000000000000000000000000000000000000000000000000000000000000000000000000000000000000000000000000000000000000000000000000000000000000000000000000000000000000000000000000000000000000000000000000000000000000000000000000000000000000000000000000000000000000000000000000000000000000000000000000000000000000000000000000000000000000000000000000000000000000000000000000000000000000000000000000000000000000000000000000000000000000000000000000000000000000000000000000000000000000000000000000000000000000000000000000000000000000000000000000000000000000000000000000000000000000000000000000000000000000000000000000000000000000000000000000000000000000000000000000000000000000000000000000000000000000000000000000000000000000000000000000000000000000000000000000000000000000000000000000000000000000000000000000000000000000000000000000000000000000000000000000000000000000000000000000000000000000000000000000000000000000000000000000000000000000000000000000000000000000000000000000000000000000000000000000000000000000000000000000000000000000000000000000000000000000000000000000000000000000000000000000000000000000000000000000000000000000000000000000000000000000000000000000000000000000000000000000000000000000000000000000000000000000000000000000000000000000000000000000000000000000000000000000000000000000000000000000000000000000000000000000000000
#040331:0000001200000000
#040341:000000000000000000000000000000000000000000000000000000000000000000000000000000000000000000000000000000000000000000000000000000000000000000000000000000000054000000000000000000000000000000000000000000000000000000000000000000000000000000000000000000000000000000000000000000000000000000000000000000000000000000000000000000000000000000000000000000000000000000000000000000000000000000000000
#040351:000000000000000000000000000000000000000000000000000000000000000000000000000000000000000000000000000000000000000000000000000000000000000000000000000000000000000000000000000000000000000000000000000000000000000000000000000000000000000000000000000000000000000000000000000000000000000000000000000000000000000000000000000000000000000000000000000000000000000000000000000000000000000000000000000000000000000000000000000000000000000000000000000000000000000000000000000000000000000000000000000000000000000000000000000000000000000000000000000000000000000000000000000000000000000000000000000000000000000000000000000000000000000000000000000000000000000000000000000000000000000000000000000000000000000000000000000000000000000000000000000000000000000000000000000000000000000000000000000000000000000000000000000000000000000000000000000000000000000000000000000000000000000000000000000000000000000000000000000000000000000000000000000000000000000000000000000000000000000000000000000000000000000000000000000000000000000000000000000000000000000000000000000000000000000000000000000000000000000000000000000000000000000000000000000000000000000000000000000000000000000000000000000000000000000000000000000000000000000000000000000000000000000000000000000000000000000000000000000000000000000000000000000000000000000000000000000000000000000000000000000000000000000000000000000000000000000000000000000000000000000000000000000000000000000000000000000000000000000000000000000000000000000000000000000000000000000000000000000000000000000000000000000000000000000000000000000000000000000000000000000000000000000000000000000000000000000000000000000000000000000000000000000000005300000000000000000000000000000000000000000000000000000000000000000000000000000000000000000000000000000000000000000000000053000000000000000000000000000000000000000000000000000000000000000000000000000000000000000000000000000000000000000000000000000000000000000000000000000000000000000000000000000000000000000000000000000000000000000000000000000000000000000000000000000000000000000000000000000000000000000000000000000000000000000000000000000000000000000000000000000000000000000000000000000000000000000000000000000000000000000000000000000000000000000000000000000000000000000000000000000000000000000000000000000000000000000000000000000000000000000000000000000000000000000000000000000000000000000000000000000000000000000000000000000000000000000000000000000000000000000000000000000000000000000000000000000000000000000000000000000000000000000000000000000000000000000000000000000000000000000000000000000000000000000000000000000000000000000000000000000000000000000000000000000000000000000000000000000000000000000000000000000000000000000000000000000000000000000000000000000000000000000000000000000000000000000000000000000000000000000000000000000000000000000000000000000000000000000000000000000000000000000000000000000000000000000000000000000000000000000000000000000000000000000000000000000000000000000000000000000000000000000000000000000000000000000000000000000000000000000000000000000000000000000000000000000000000000000000000000000000000000000000000000000000000000000000000000000000000000000000000000000000000000000000000000000000000000000000000000000000000000000000000000000000000000000000000000000000000000000000000000000000000000000000000000000000000000000000000000000000000000000000000000000000000000000000000000000000000000000000000000000000000000000000000000000000000000000000000000000000000000000000000000000000000000000000000000000000000000000000000000000000000000000000000000000000000000000000000000000000000000000000000000000000000000000000000000000000000000000000000000000000000000000000000000000000000000000000000000000000000000000000000000000000000000000000000000000000000000000000000000000000000000000000000000000000000000000000000000000000000000000000000000000000000000000000000000000000000000
#040321:000000000000000000000056000000000000000000000000
#040361:0022
#0403b1:0000000000120000
#040381:000000000000000000000000000000000000000000000000000000000000000000000000000000000000000000000000000000000000000000000000000000000000000000000000000000000000000000000000000000000000000000000000000000000000000000000000000000000000000000000000000000000000000000000000000000000000000000000000000000000000000000000000000000000000000000000000000000000000000000000000000000000000000000000000000000000000000000000000000000000000000000000000000000000000000000000000000000000000000000000000000000000000000000000000000000000000000000000000000000000000000000000000000000000000000000000000000000000000000000000000000000000000000000000000000000000000000000000000000000000000000000000000000000000000000000000000000000000000000000000000000000000000000000000000000000000000000000000000000000000000000000000000000000000000000000000000000000000000000000000000000000000000000000000000000000000000000000000000000000000000000000000000000000000000000000000000000000000000000000000000000000000000000000000000000000000000000000000000000000000000000000000000000000000000000000000000000000000000000000000000000000000000000000000000000000000000000000000000000000000000000000000000000000000000000000000000000000000000000000000000000000000000000000000000000000000000000000000000000000000000000000000000000000000000000000000000000000000000000000000000000000000000000000000000000000000000000000000000000000000000000000000000000000000000000000000000000000000000000000000000000000000000000000000000000000000000000000000000000000000000000000000000000000000000000000000000000000000000000000000000000000000000000000000000000000000000000000000000000000000000000000000000000000000000000000000000000000000000000000000000000000000000000000000000000000000000000000000000000000000000000000000000000000000000000000000000000000000000000000000000000000000000000000000000000000000000000000000000000000000000000000000000000000000000000000000000000000000000000000000000000000000000000000000000000000000000000000000000000000000000000000000000000000000000000000000000000000000000000000000000000000000000000000000000000000000000000000000000000000000000000000000000000000000000000000000000000000000000000000000000000000000000000000000000000000000000000000000000000000000000000000000000000000000000000000000000000000000000000000000000000000000000000000000000000000000000000000000000000000000000000000000000000000000000000000000000000000000000000000000000000000000000000000000000000000000000000000000000000000000000000000000000000000000000000000000000000054000000000000000000000000000000000000000000000000000000000000000000000000000000000000000000000000005300000000000000000000000000000000000000000000000000000000000000000000000000000000000000000000000000000000000000000000005653000000000000000000000000000000000000000000000000000000000000000000000000000000000000000000000000000000000000000000000000000000000000000000000000000000000000220000000000000000000000000000000000000000000000000000000000000000000000000000000000000000000000000000000000000000000000000000000000000000000000000000000000000000000000000000000000000000000000000000000000000000000000000000000000000000000000000000000000000000000000000000000000000000000000000000000000000000000000000000000000000000000000000000000000000000000000000000000000000000000000000000000000000000000000000000000000000000000000000000000000000000000000000000000000000000000000000000000000000000000000000000000000000000000000000000000000000000000000000000000000000000000000000000000000000000000000000000000000000000000000000000000000000000000000000000000000000000000000000000000000000000000000000000000000000000000000000000000000000000000000000000000000000000000000000000000000000000000000000000000000000000000000000000000000000000000000000000000000000000000000000000000000000000000000000000000000000000000000000000000000000000000000000000000000000000000000
#040330:0000000000120000
#040340:000000000000000000000000000000000000000000000000000000000000000000000000000000000000000000000000000000000000000000000000000000000000000000000000000000000000000000000000000000000000000000000000000000000000000000000000000000000000000000000000000000000054000000000000000000000000000000000000000000000000000000000000000000000000000000000000000000000000000000000000000000000000000000000000
#040350:000000000000000000000000000000000000000000000000000000000000000000000000000000000000000000000000000000000000000000000000000000000000000000000000000000000000000000000000000000000000000000000000000000000000000000000000000000000000000000000000000000000000000000000000000000000000000000000000000000000000000000000000000000000000000000000000000000000000000000000000000000000000000000000000000000000000000000000000000000000000000000000000000000000000000000000000000000000000000000000000000000000000000000000000000000000000000000000000000000000000000000000000000000000000000000000000000000000000000000000000000000000000000000000000000000000000000000000000000000000000000000000000000000000000000000000000000000000000000000000000000000000000000000000000000000000000000000000000000000000000000000000000000000000000000000000000000000000000000000000000000000000000000000000000000000000000000000000000000000000000000000000000000000000000000000000000000000000000000000000000000000000000000000000000000000000000000000000000000000000000000000000000000000000000000000000000000000000000000000000000000000000000000000000000000000000000000000000000000000000000000000000000000000000000000000000000000000000000000000000000000000000000000000000000000000000000000000000000000000000000000000000000000000000000000000000000000000000000000000000000000000000000000000000000000000000000000000000000000000000000000000000000000000000000000000000000000000000000000000000000000000000000000000000000000000000000000000000000000000000000000000000000000000000000000000000000000000000000000000000000000000000000000000000000000000000000000000000000000000000000000000000000000000000000000000000000000000000000000000000000000000000000000000000000000000000000000000000000000000000000000000000000000000000000000000000000000000000000000000000000000000000000000000000000000000000000000000000000000000000000000000000000000000000000000000000000000000000000000000000000000000000000000000000000000000000000000000000000000000000000000000000000000000000000000000000000000000000000000000000000000000000000000000000000000000000000000000000000000000000000000000000000000000000000000000000000000000000000000000000000000000000000000000000000000000000000000000000000000000000000000000000000000000000000000000000000000000000000000000000000000000000000000000000000000000000000000000000000000000000000000000000000000000000000000000000000000000000000000000000000000000000000000000000000000000000000000000000000000000000000000000000000000000000000000000000000000000000000000000000000000000000000000000000000000000000000000000000000000000000000000000000000000000005300000000000000000000000000000000000000000000000000000000000000000000000000000000000000000000000000000000000000000000000053000000000000000000000000000000000000000000000000000000000000000000000000000000000000000000000000000000000000000000000000000000000000000000000000000000000000000000000000000000000000000000000000000000000000000000000000000000000000000000000000000000000000000000000000000000000000000000000000000000000000000000000000000000000000000000000000000000000000000000000000000000000000000000000000000000000000000000000000000000000000000000000000000000000000000000000000000000000000000000000000000000000000000000000000000000000000000000000000000000000000000000000000000000000000000000000000000000000000000000000000000000000000000000000000000000000000000000000000000000000000000000000000000000000000000000000000000000000000000000000000000000000000000000000000000000000000000000000000000000000000000000000000000000000000000000000000000000000000000000000000000000000000000000000000000000000000000000000000000000000000000000000000000000000000000000000000000000000000000000000000000000000000000000000000000000000000000000000000000000000000000000000000000000000000000000000000000000000000000000000000000000000000000000000000000000000000
#040320:000000000000000000000000000000000056000000000000
#040360:00000022
#0403b0:0000000000000012
#040380:000000000000000000000000000000000000000000000000000000000000000000000000000000000000000000000000000000000000000000000000000000000000000000000000000000000000000000000000000000000054000000005300
#041380:000000000000000000000000000000000000000000000000000000000000000000000000000000000000000000000000000000000000000000000000000000000000000000000000000000000000000056530000000000000000000000000000000000000000000000000000000000000000000000000000000000000000000000000000000000000000000000000000000000000000000000000000000000000000000000000000000000000000000000000000000000000000000000000000000000000000000000000000000000000000000000000000000000000000000000000000000000000000000000000000220000000000000000000000000000000000000000000000000000000000000000000000000000000000000000000000000000000000000000000000000000000000000000000000000000000000000000000000000000000000000000000000000000000000000000000000000000000000000000000000000000000000000000000000000000000000000000000000000000000000000000000000000000000000000000000000000000000000000000000000000000000000000000000000000000000000000000000000000000000000000000000000000000000000000000000000000000000000000000000000000000000000000000000000000000000000000000000000000000000000000000000000000000000000000000000000000000000000000000000000000000000000000000000000000000000000000000000000000000000000000000000000000000000000000000000000000000000000000000000000000000000000000000000000000000000000000000000000000000000000000000000000000000000000000000000000000000000000000000000000000000000000000000000000000000000000000000000000000000000000000000000000000000000000000000000000000000000000000000000000000000000000000000000000000000000000000000000000000000000000000000000000000000000000000000000000000000000000000000000000000000000000000000000000000000000000000000000000000000000000000000000000000000000000000000000000000000000000000000000000000000000000000000000000000000000000000000000000000000000000000000000000000000000000000000000000000000000000000000000000000000000000000000000000000000000000000000000000000000000000000000000000000000000000000000000000000000000000000000000000000000000000000000000000000000000000000000000000000000000000000000000000000000000000000000000000000000000000000000000000000000000000000000000000000000000000000000000000000000000000000000000000000000000000000000000000000000000000000000000000000000000000000000000000000000000000000000000000000000000000000000000000000000000000000000000000000000000000000000000000000000000000000000000000000000000000000000000000000000000000000000000000000000000000000000000000000000000000000000000000000000000000000000000000000000000000000000000000000000000000000000000000000000000000000000000000000000000000000000000000000000000000000000000000000000000000000000000000000000000000000000000000000000000000000000000000000000000000000000000000000000000000000000000000000000000000000000000000000000000000000000000000000000000000000000000000000000000000000000000000000000000000000000000000000000000000000000000000000000000000000000000000000000000000000000000000000000000000000000000000000000000000000000000000000000000000000000000000000000000000000000000000000000000000000000000000000000000000000000000000000000000000000000000000000000000000000000000000000000000000000000000000000000000000000000000000000000000000000000000000000000000000000000000000000000000000000000000000000000000000000000000000000000000000000000000000000000000000000000000000000000000000000000000000000000000000000000000000000000000000000000000000000000000000000000000000000000000000000000000000000000000000000000000000000000000000000000000000000000000000000000000000000000000000000000000000000000000000000000000000000000000000000000000000000000000000000000000000000000000000000000000000000000000000000000000000000000000000000000000000000000000000000000000000000000000000000000000000000000000000000000000000000000000000000000000000000000000000000000000000000000000000000000000000000000000000000000000000000000000000000000000000000000000000000000000000000000000000000000000000
#040331:0000000000000012
#040341:000000000000000000000000000000000000000000000000000000000000000000000000000000000000000000000000000000000000000000000000000000000000000000000000000000000000000000000000000000000054000000000000
#040351:000000000000000000000000000000000000000000000000000000000000000000000000000000000000000000000053
#041321:005600000000000000000000000000000000000000000000
#041351:00000000000000000000000000000000000000000000000000000053000000000000000000000000000000000000000000000000000000000000000000000000000000000000000000000000000000000000000000000000000000000000000000000000000000000000000000000000000000000000000000000000000000000000000000000000000000000000000000000000000000000000000000000000000000000000000000000000000000000000000000000000000000000000000000000000000000000000000000000000000000000000000000000000000000000000000000000000000000000000000000000000000000000000000000000000000000000000000000000000000000000000000000000000000000000000000000000000000000000000000000000000000000000000000000000000000000000000000000000000000000000000000000000000000000000000000000000000000000000000000000000000000000000000000000000000000000000000000000000000000000000000000000000000000000000000000000000000000000000000000000000000000000000000000000000000000000000000000000000000000000000000000000000000000000000000000000000000000000000000000000000000000000000000000000000000000000000000000000000000000000000000000000000000000000000000000000000000000000000000000000000000000000000000000000000000000000000000000000000000000000000000000000000000000000000000000000000000000000000000000000000000000000000000000000000000000000000000000000000000000000000000000000000000
#041361:0022000000000000
#042391:13330000
#042361:005300000000000000000053000000000000000000000000000000000000530000000000000000000000000000000000
#0423b1:000000000000000000000000005300000000000000000000330000000000000000000000230000000000000000000000
#043341:13330000
#043371:005300000000000000000053000000000000000000000000000000000000530000000000000000000000000000000000
#043321:000000000000000000000000005300000000000000000000330000000000000000000000230000000000000000000000
#044381:13230000
#0443b1:00530053000000000000000000000000
#044351:00001323
#044321:00000000000000000053005300000000
#0453b1:13
#045371:00530000230000000000000000000000
#045320:00130000
#045360:00000000005300002300000000000000
#046380:13330000
#0463b0:005300000000000000000053000000000000000000000000000000000000530000000000000000000000000000000000
#046360:000000000000000000000000005300000000000000000000330000000000000000000000230000000000000000000000
#047350:13330000
#047320:005300000000000000000053000000000000000000000000000000000000530000000000000000000000000000000000
#047370:000000000000000000000000005300000000000000000000330000000000000000000000230000000000000000000000
#0483b0:13230000
#048380:00530053000000000000000000000000
#048320:00001323
#048350:00000000000000000053005300000000
#0493b0:13230000
#049370:0053000000000000
#049321:00132300
#049361:0000005300000000
#0493b0:00001323
#049370:0000000000530000
#050320:00000016
#050360:0000000000000054
#051320:26
#050381:00000016
#050361:000000000000000000000000000000000000000000000000000000000000000000000000000000000000000000000000000000000000000000000000000000000000000000000000000000000000000000000000000000000000000000000000000000000000000000000000000000000000000000000000000000000000000000000000000000000000000000000000000000000000000000000000000000000000000000000000000000000000000000000000000000000000000000000000000000000000000000000000000000000000000000000000000000000000000000000000000000000000000000000000000000000000000000000000000000000000000000000000000000000000000000000000000000000000000000000000000000000000000000000000000000000000000000000000000000000000000000000000000000000000000000000000000000000000000000000000000000000000000000000000000000000000000000000000000000000000000000000000000000000000000000000000000000000000000000000000000000000000000000000000000000000000000000000000000000000000000000000000000000000000000000000000000000000000000000000000000000000000000000000000000000000000000000000000000000000000000000000000000000000000000000000000000000000000000000000000000000000000000000000000000000000000000000000000000000000000000000000000000000000000000000000000000000000000000000000000000000000000000000000000000000000000000000000000000000000000000000000000000000000000000000000000000000000000000000000000000000000000000000000000000000000000000000000000000000000000000000000000000000000000000000000000000000000000000000000000000000000000000000000000000000000000000000000000000000000000000000000000000000000000000000000000000000000000000000000000000000000000000000000000000000000000000000000000000000000000000000000000000000000000000000000000000000000000000000000000000000000000000000000000000000000000000000000000000000000000000000000000000000000000000000000000000000000000000000000000000000000000000000000000000000000000000000000000000000000000000000000000000000000000000000000000000000000000000000000000000000000000000000000000000000000000000000000000000000000000000000000000000000000000000000000000000000000000000000000000000000000000000000000000000000000000000000000000000000000000000000000000000000000000000000000000000000000000000000000000000000000000000000000000000000000000000000000000000000000000000000000000000000000000000000000000000000000000000000000000000000000000000000000000000000000000000000000000000000000000000000000000000000000000000000000000000000000000000000000000000000000000000000000000000000000000000000000000000000000000000000000000000000000000000000000000000000000000000000000000000000000000000000000000000000000000000000000000000000000000000000000000000000000000000000000000000000000000000000000000000000000000000000000000000000000000000000000000000000000000000000000000000000000000000000000000000000000000000000000000000000000000000000000000000000000000000000000000000000000000000000000000000000000000000000000000000000000000000000000000000000000000000000000000000000000000000000000000000000000000000000000000000000000000000000000000000000000000000000000000000000000000000000000000000000000000000000000000000000000000000000000000000000000000000000000000000000000000000000000000000000000000000000000000000000000000000000000000000000000000000000000000000000000000000000000000000000000000000000000000000000000000000000000000000000000000000000000000000000000000000000000000000000000000000000000000000000000000000000000000000000000000000000000054000000000000000000000000000000000000000000000000000000000000000000000000000000000000000000000000000000000000000000000000000000000000000000000000000000000000000000000000000000000000000000000000000000000000000000000000000000000000000000000000000000000000000000000000000000000000000000000000000000000000000000000000000000000000000000000000000000000000000000000000000000000000000000000000000000000000000000000000000000000000000000000000000000000000000000000000000000000000000000000000
#051381:26
#0533b1:13532300000000000000000000000000
#0533a1:0053005300000000000000000000000000000000000000000000000000000000
#053321:00000000135323000000000000000000
#053331:0000000000000000005300530000000000000000000000000000000000000000
#0543b1:13532300000000000000000000000000
#054391:0053005300000000000000000000000000000000000000000000000000000000
#054320:00001353230000000000000000000000
#054330:0000000000530053000000000000000000000000000000000000000000000000
#054381:00000000135323000000000000000000
#054391:0000000000000000005300530000000000000000000000000000000000000000
#054321:00000000000000001353230000000000
#054341:0000000000000000000000000000000000530053000000000000000000000000
#0543b0:00000000000000000000135323000000
#0543a0:0000000000000000000000000000000000000000005300530000000000000000
#058370:0000001200002200
#064380:00000000000000000000000000000016
#064390:000000000000000000000000000000000000000000000000000000000000000000000000000000000000000000000000000000000000000000000000000000000000000000000000000000000000000000000000000000000000000000000000000000000000000000000000000000000000000000000000000000000000000000000000000000000000000000000000000000000000000000000000000000000000000000000000000000000000000000000000000000000000000000000000000000000000000000000000000000000000000000000000000000000000000000000000000000000000000000000000000000000000000000000000000000000000000000000000000000000000000000000000000000000000000000000000000000000000000000000000000000000000000000000000000000000000000000000000000000000000000000000000000000000000000000000000000000000000000000000000000000000000000000000000000000000000000000000000000000000000000000000000000000000000000000000000000000000000000000000000000000000000000000000000000000000000000000000000000000000000000000000000000000000000000000000000000000000000000000000000000000000000000000000000000000000000000000000000000000000000000000000000000000000000000000000000000000000000000000000000000000000000000000000000000000000000000000000000000000000000000000000000000000000000000000000000000000000000000000000000000000000000000000000000000000000000000000000000000000000000000000000000000000000000000000000000000000000000000000000000000000000000000000000000000000000000000000000000000000000000000000000000000000000000000000000000000000000000000000000000000000000000000000000000000000000000000000000000000000000000000000000000000000000000000000000000000000000000000000000000000000000000000000000000000000000000000000000000000000000000000000000000000000000000000000000000000000000000000000000000000000000000000000000000000000000000000000000000000000000000000000000000000000000000000000000000000000000000000000000000000000000000000000000000000000000000000000000000000000000000000000000000000000000000000000000000000000000000000000000000000000000000000000000000000000000000000000000000000000000000000000000000000000000000000000000000000000000000000000000000000000000000000000000000000000000000000000000000000000000000000000000000000000000000000000000000000000000000000000000000000000000000000000000000000000000000000000000000000000000000000000000000000000000000000000000000000000000000000000000000000000000000000000000000000000000000000000000000000000000000000000000000000000000000000000000000000000000000000000000000000000000000000000000000000000000000000000000000000000000000000000000000000000000000000000000000000000000000000000000000000000000000000000000000000000000000000000000000000000000000000000000000000000000000000000000000000000000000000000000000000000000000000000000000000000000000000000000000000000000000000000000000000000000000000000000000000000000000000000000000000000000000000000000000000000000000000000000000000000000000000000000000000000000000000000000000000000000000000000000000000000000000000000000000000000000000000000000000000000000000000000000000000000000000000000000000000000000000000000000000000000000000000000000000000000000000000000000000000000000000000000000000000000000000000000000000000000000000000000000000000000000000000000000000000000000000000000000000000000000000000000000000000000000000000000000000000000000000000000000000000000000000000000000000000000000000000000000000000000000000000000000000000000000000000000000000000000000000000000000000000000000000000000000000000000000000000000000000000000000000000000000000000000000000000000000000000000000000000000000000000000000000000000000000000000000000000000000000000000000000000000000000000000000000000000000000000000000000000000000000000000000000000000000000000000000000000000000000000000000000000000000000000000000000000000000000000000000000000000000000000000000000000000000000000000000000000000000000000000000000000000000000000000000000000000000000000000000000000000000055
#0653b0:0053000000000000000000000000000000000000000000005300530000000000
#065390:0000550000000055000000000000000000000000000000000000000000000000
#065370:0000000000005700570000000000000000000000000000000000000000000057
#0653a0:00000000000054540000000000000000
#0653c0:0000000000000000000000000052000000000000000000000000000000000000
#065360:00000000000000000058580000000000
#065380:0000000000000000000000000000000000000056000000000000000000000000
#0653d0:0000000000000000000000000000000000000000000000000051000000000000
#065350:00000000000000000000000000000059
#066350:59
#0663a0:0000000054005400000000000000000000540000000000000000000000000000
#0663c0:0000000000520000000000000000000000000000000000000000000000000000
#066360:00000000005858000000000000000000
#066380:0000000000000000000000560000000056005600000000002600000000000000
#064321:000000000000000000000000000000000000000000000000000000000000000000000000000000000000000000000000000000000000000000000000000000000000000000000000000000000000000000000000000000000000000000000000000000000000000000000000000000000000000000000000000000000000000000000000000000000000000000000000000000000000000000000000000000000000000000000000000000000000000000000000000000000000000000000000000000000000000000000000000000000000000000000000000000000000000000000000000000000000000000000000000000000000000000000000000000000000000000000000000000000000000000000000000000000000000000000000000000000000000000000000000000000000000000000000000000000000000000000000000000000000000000000000000000000000000000000000000000000000000000000000000000000000000000000000000000000000000000000000000000000000000000000000000000000000000000000000000000000000000000000000000000000000000000000000000000000000000000000000000000000000000000000000000000000000000000000000000000000000000000000000000000000000000000000000000000000000000000000000000000000000000000000000000000000000000000000000000000000000000000000000000000000000000000000000000000000000000000000000000000000000000000000000000000000000000000000000000000000000000000000000000000000000000000000000000000000000000000000000000000000000000000000000000000000000000000000000000000000000000000000000000000000000000000000000000000000000000000000000000000000000000000000000000000000000000000000000000000000000000000000000000000000000000000000000000000000000000000000000000000000000000000000000000000000000000000000000000000000000000000000000000000000000000000000000000000000000000000000000000000000000000000000000000000000000000000000000000000000000000000000000000000000000000000000000000000000000000000000000000000000000000000000000000000000000000000000000000000000000000000000000000000000000000000000000000000000000000000000000000000000000000000000000000000000000000000000000000000000000000000000000000000000000000000000000000000000000000000000000000000000000000000000000000000000000000000000000000000000000000000000000000000000000000000000000000000000000000000000000000000000000000000000000000000000000000000000000000000000000000000000000000000000000000000000000000000000000000000000000000000000000000000000000000000000000000000000000000000000000000000000000000000000000000000000000000000000000000000000000000000000000000000000000000000000000000000000000000000000000000000000000000000000000000000000000000000000000000000000000000000000000000000000000000000000000000000000000000000000000000000000000000000000000000000000000000000000000000000000000000000000000000000000000000000000000000000000000000000000000000000000000000000000000000000000000000000000000000000000000000000000000000000000000000000000000000000000000000000000000000000000000000000000000000000000000000000000000000000000000000000000000000000000000000000000000000000000000000000000000000000000000000000000000000000000000000000000000000000000000000000000000000000000000000000000000000000000000000000000000000000000000000000000000000000000000000000000000000000000000000000000000000000000000000000000000000000000000000000000000000000000000000000000000000000000000000000000000000000000000000000000000000000000000000000000000000000000000000000000000000000000000000000000000000000000000000000000000000000000000000000000000000000000000000000000000000000000000000000000000000000000000000000000000000000000000000000000000000000000000000000000000000000000000000000000000000000000000000000000000000000000000000000000000000000000000000000000000000000000000000000000000000000000000000000000000000000000000000000000000000000000000160000000000000000000000000000000000000000000000000000000000000000000000000000000000000000000000000000000000000000000000000000000000000000000000000000000000000000000000000000000000000000000000000000000000000000000000000000000000000000000057
#065321:0055570000005553550000005856580000005452540000005957590000005351
#066321:5300000058565800000054525400000056545600000000002600000000000000
#067321:13230000
#067361:0053000000000000
#0673b0:00132300
#067370:0000005300000000
#067321:00001323
#067361:0000000000530000
#0683b1:13230000
#068371:0053000000000000
#068320:00132300
#068360:0000005300000000
#0683b1:00001323
#068371:0000000000530000
#069351:13
#069371:0053000000000000
#069321:00230000
#069381:0013
#069361:0000000000530000
#0693b1:00000023
#070321:13230000
#070361:0053000000000000
#0703b0:00130023
#070360:0053
#071370:13230000
#0713b0:0053000000000000
#071321:00132300
#071361:0000005300000000
#071370:00001323
#0713b0:0000000000530000
#072340:0000000000000000000000000000000000001a00000000005a00000000005a0000005a00005a005a005a005a005a005a
#072330:0000000000000000000000000000000000000000000000000000000000000000000000000000005a00000000005a00000000005a00000000005a000000005a0000005a0000005a00005a005a005a005a005a005a005a005a005a005a005a005a
#072320:0000000000000000000000000000000000000000005a00000000005a000000005a0000005a005a005a005a005a005a00
#073320:5a00000000000000000000000000005a00000000000000000000000000005a00000000000000000000000000005a00000000000000000000000000005a00000000000000000000000000005a00000000000000000000000000005a00000000000000000000000000005a00000000000000000000000000003a0000000000000000000000000000005a0000000000000000000000000000005a0000000000000000000000000000005a0000000000000000000000000000005a0000000000000000000000000000003a0000000000000000000000000000005a0000000000000000000000000000005a00000000000000000000000000000000000000000000005a000000000000000000000000000000000000000000000000000000000000005a0000000000000000000000000000000000000000000000000000000000000000000000000000000000000000000000000000005a00000000000000000000000000000000000000000000000000000000000000000000000000000000000000000000000000000000000000000000000000000000000000000000000000000000000000000000000000000000000000000000000000000000000000000000000000000000000000000000000000000000000000000000000000000000000000
#073330:0000000000000000000000000000005a00000000000000000000000000000000000000000000000000000000005a00000000000000000000000000000000000000000000000000000000005a00000000000000000000000000000000000000000000000000000000005a00000000000000000000000000000000000000000000000000000000005a00000000000000000000000000000000000000000000000000000000005a00000000000000000000000000000000000000000000000000000000005a00000000000000000000000000000000000000000000000000000000005a00000000000000000000000000000000000000000000000000000000005a00000000000000000000000000000000000000000000000000000000005a00000000000000000000000000000000000000000000000000000000005a00000000000000000000000000000000000000000000000000000000005a00000000000000000000000000000000000000000000000000000000005a00000000000000000000000000000000000000000000000000000000005a00000000000000000000000000000000000000000000000000000000005a00000000000000000000000000000000000000000000000000000000005a0000000000000000000000000000000000000000000000000000000000005a000000000000000000000000000000000000000000000000000000000000005a000000000000000000000000000000000000000000000000000000000000003a000000000000000000000000000000000000000000000000000000000000005a000000000000000000000000000000000000000000000000000000000000005a000000000000000000000000000000000000000000000000000000000000005a000000000000000000000000000000000000000000000000000000000000005a000000000000000000000000000000000000000000000000000000000000003a000000000000000000000000000000000000000000000000000000000000005a000000000000000000000000000000000000000000000000000000000000005a000000000000000000000000000000000000000000000000000000000000005a000000000000000000000000000000000000000000000000000000000000005a000000000000000000000000000000000000000000000000000000000000003a000000000000000000000000000000000000000000000000000000000000005a000000000000000000000000000000000000000000000000000000000000005a00000000000000000000000000000000000000000000000000000000000000000000000000000000000000000000005a0000000000000000000000000000000000000000000000000000000000000000000000000000000000000000000000000000000000000000000000000000005a0000000000000000000000000000000000000000000000000000000000000000000000000000000000000000000000000000000000000000000000000000003a0000000000000000000000000000000000000000000000000000000000000000000000000000000000000000000000000000000000000000000000000000005a00000000000000000000000000000000000000000000000000000000000000000000000000000000000000000000000000000000000000000000000000000000000000000000000000000000000000000000000000000000000000000000003a0000000000000000000000000000000000000000000000000000000000000000000000000000000000000000000000000000000000000000000000000000000000000000000000000000000000000000000000000000000000000000000000000000000000000000000000000000000000000000000000000000000000000000000000000000000000000000000000000000000000000000000000000000002a0000000000000000000000000000000000000000000000000000000000000000000000000000000000000000000000000000000000000000000000000000000000000000000000000000000000000000000000000000000000000000000000000000000000000000000000000000000000000000000000000000000000000000000000000000000000000000000000000000000000000000000000000000000000000000000000000000000000000000000000000000000000000000000000000000000000000000000000000000000000000000000000000000000000000000000000000000000000000000000000000000000000000000000000000000000000000000000000000000000000000000000000000000000000000000000000000000000000000000000000000000000000000000000000000000000000000000000000000000000000000000000000000000000000000000000000000000000000000000000000000000000000000000000000000000000000000000000000000000000000000000000000000000000000000000000000000000000000000000000000000000000000000000000000000000000000000000000000000000000000000000000000000000000000000000000000000000000000000000000000
#073340:0000000000000000000000000000005a00000000000000000000000000000000000000000000000000000000005a00000000000000000000000000000000000000000000000000000000005a00000000000000000000000000000000000000000000000000000000005a00000000000000000000000000000000000000000000000000000000005a00000000000000000000000000000000000000000000000000000000005a00000000000000000000000000000000000000000000000000000000005a00000000000000000000000000000000000000000000000000000000005a0000000000000000000000000000000000000000000000000000000000005a000000000000000000000000000000000000000000000000000000000000005a000000000000000000000000000000000000000000000000000000000000003a000000000000000000000000000000000000000000000000000000000000005a000000000000000000000000000000000000000000000000000000000000005a000000000000000000000000000000000000000000000000000000000000005a000000000000000000000000000000000000000000000000000000000000005a000000000000000000000000000000000000000000000000000000000000003a0000000000000000000000000000000000000000000000000000000000000000000000000000000000000000000000000000000000000000000000000000005a0000000000000000000000000000000000000000000000000000000000000000000000000000000000000000000000000000000000000000000000000000005a000000000000000000000000000000000000000000000000000000000000000000000000000000000000000000000000000000000000000000000000000000000000000000000000000000000000000000000000000000000000000000000000000000000000000000000000000000000000000000000000000000000000000000000000000000000000000000000000000000000000000000000000000000000000000000000000000000000000000000000000000000000000000000000000000000000000000000000000000000000000000000000000000000000000000000000000000000000000000000000000000000000000000000000000000000000000000000000000000000000000000000000000000000000000000000000000000000000000000000000000000000000000000000000000000000000000000000000000000000000000000000000000000000000000000000000000000000
#0753a0:00000014
#076380:23
#076320:00000015
#077340:24
#077380:00000016
#077350:0000000000000056
#078380:26
#079320:00120000
#079360:00000000000000220000000000000000
#0793c0:00000012
#080380:22
#080320:00130000
#080360:00000000000000230000000000000000
#0803b0:00000013
#081370:23
#081320:00140000
#081360:00000000000000240000000000000000
#0813a0:00000014
#081360:00000000000000000000000000000024
#0833b0:0000000000000011
#083390:00000000000000000000000000000055
#0843b0:21
#083341:0000000000000011
#083321:00000000000000000000000000000055
#084341:21
