This file was generated by Ched 2.6.4.0.
#TITLE ""
#ARTIST ""
#DESIGNER ""
#DIFFICULTY 0
#PLAYLEVEL
#SONGID ""
#WAVE ""
#WAVEOFFSET 0
#JACKET ""
#REQUEST "ticks_per_beat 480"
#00002: 4
#BPM01: 165
#00008: 01
#TIL00: ""
#HISPEED 00
#MEASUREHS 00
#01018:14
#01014:0014
#01010:41
#01118:14
#01114:0014
#01414:14
#01418:0014
#01514:14
#01518:0014
#01914:1414
#01918:00140014
#02612:00140014
#0261a:2414
#02718:1414
#02714:00140014
#03412:2414
#0341a:00140014
#03514:1414
#03518:00140014
#02918:00000014
#03012:14
#0301a:00140000
#03014:0014
#03018:00000014
#03112:14
#0311a:00140000
#03114:0014
#03118:00000014
#03110:41
#03212:1414
#0321a:00140000
#03714:00000014
#0381a:14
#03812:00140000
#03818:0014
#03814:00000014
#0391a:14
#03912:00140000
#03918:0014
#03914:00000014
#0401a:1414
#04012:00140000
#04314:14000014
#04318:00140000
#04418:14
#04413:00140000
#04419:0014
#04412:00000014
#0451a:14000014
#04512:00140000
#05112:14
#05118:14
#05114:0014
#0511a:0014
#05314:1414
#0531a:00140014
#05412:1414
#05418:00140000
#05718:1414
#05712:00140014
#06618:00000014
#0181a:14
#01818:00140000
#02012:14
#02014:00140000
#02010:41
#02118:1414
#02114:00140014
#02314:1414
#02318:00140014
#02218:14
#0221a:00140000
#0681a:14000014
#06812:00140000
#06810:41
#06912:14
#06919:00140000
#06913:0014
#06918:00000014
#07014:14000014
#07018:00140000
#04718:14000014
#04714:00140000
#04814:14
#04819:00140000
#04813:0014
#0481a:00000014
#04912:14
#0491a:00140000
#07213:000000000000000000000016000000160000001600000016
#07212:260000000000000000160000000000000016000000000000
#07214:000000000000000000000000001600000000000000160000
#07313:000000160000001600000016000000160000000000000000
#07312:001600000000000000160000000000000000000000000000
#07314:000000000016000000000000001600000000000000000000
#0361a:00000014
#03619:0000000000000034
#02812:00000014
#02813:0000000000000034
#0621a:14
#06112:14
#06018:14
#05914:14
#0591f:11
#06312:00140000
#06314:14
#0641a:00140000
#06418:14
#06512:14
#0651a:14
#05218:1414
#05212:1414
#05214:00140000
#0521a:00140000
#0551a:14
#05514:14
#05518:0014
#05512:0014
#05510:41
#05614:1414
#0561a:1414
#05618:00140000
#05612:00140000
#07412:00240024
#0741a:00240024
#07713:00240024
#07719:0024
#07519:00240024
#07513:0024
#08214:0000240000340000
#00912:24
#0091a:24
#0671f:21
#08314:3400003400003400
#04210:41
#07852:00160000
#08452:18
#0265a:14
#02954:0014000000000000
#03758:0014000000000000
#0185a:64
#01858:00240000
#02052:54
#02054:00240000
#02258:54
#0225a:00240000
#07252:000000000000000000260000000000000026000000000000
#07253:000000000000000000000066000000660000006600000066
#07254:000000000000000000000000002600000000000000260000
#03452:14
#07353:000000660000006600000066000000660000000000000000
#07352:002600000000000000260000000000000000000000000000
#07354:000000000026000000000000002600000000000000000000
#0365a:00000064
#02852:00000054
#0625a:64
#06152:54
#06058:54
#05954:64
#06352:00240000
#06354:64
#0645a:00240000
#06458:54
#04152:0014000000000000
#0335a:0014000000000000
#0023a0:14000034
#002380:00343400
#0033a0:34003424
#003380:00340000
#004320:14000034
#004340:00343400
#005320:34003424
#005340:00340000
#0063a0:14
#006380:0024
#007320:14
#007340:0024
#0083a0:14
#008380:0024
#0123a0:14
#012380:0034
#0133a0:34
#013390:00340000
#013380:0024
#016320:14
#016340:0034
#017320:34
#017330:00340000
#017340:0024
#0183a0:1424
#018380:00540000
#020320:1424
#020340:00540000
#022380:1424
#0223a0:00540000
#024320:14
#024340:0000000000000034
#025320:0034000000000000
#025340:0024
#0283a0:14240000
#028320:00001434
#028330:0000000000000034
#029340:0024000000000000
#0323a0:0000000000001434
#0333a0:0024000000000000
#036320:14240000
#0363a0:00001434
#036390:0000000000000034
#037380:0024000000000000
#040320:0000000000001434
#041320:0024000000000000
#0423a0:14
#042380:0024
#046320:14
#046340:0024
#049320:0014
#050340:0024
#0583a0:14000024
#058380:0000343400000000
#059340:14
#059320:0024
#060380:14
#0603a0:0024
#061320:14
#061340:0024
#0623a0:14
#062380:0024
#063340:1424
#063320:00540000
#064380:1424
#0643a0:00540000
#067340:14
#067320:0024
#071380:14
#0713a0:0024
#072320:160000000000000000360000000000000056000000000000
#072330:000000000000000000000056000000560000005600000056
#072340:000000000000000000000000005600000000000000560000
#073320:005600000000000000560000000000000000260000000000
#073330:000000560000005600000056000000560000000000000000
#073340:000000000056000000000000005600000000000000000000
#075390:00000014
#076380:00000026
#077330:00000014
#078320:00260000
#079380:00140000
#0793a0:00000024
#080340:00140000
#080320:00000024
#081380:00140000
#0813a0:00000024
#082340:0000140000340000
#083340:3400003400003400
#084320:28
