This file was generated by Ched 2.7.0.0.
#TITLE ""
#ARTIST ""
#DESIGNER ""
#DIFFICULTY 0
#PLAYLEVEL
#SONGID ""
#WAVE ""
#WAVEOFFSET 0
#JACKET ""
#REQUEST "ticks_per_beat 480"
#00002: 4
#BPM01: 178
#00008: 01
#TIL00: ""
#HISPEED 00
#MEASUREHS 00
#0021a:14
#00512:14
#00314:14
#00418:14
#0061a:14
#00714:14
#00818:14
#00912:14
#0101a:14
#01212:14
#01512:14
#0111a:14
#01312:14
#01418:14
#0161a:14
#02218:14
#02618:14
#02512:14
#02314:14
#0241a:14
#0281a:14
#02714:14
#03212:16
#03712:1616
#03618:2616
#03118:16
#03318:16
#03818:16
#03812:0016
#04012:1616
#04010:41
#04118:1616
#04212:16
#04218:0016
#04812:1616
#04918:1616
#0521a:14
#06818:16
#06812:0016
#06712:0016
#06718:26
#0671f:21
#06918:1616
#06910:41
#07112:16
#07118:0016
#07212:16
#07218:0016
#07312:1616
#07912:16
#07918:0016
#07910:41
#08012:16
#08018:0016
#0831a:14
#08612:14
#08414:14
#08518:14
#0871a:14
#08814:14
#08918:14
#0541f:11
#01714:24
#04418:25
#05012:26
#05018:0026
#05010:41
#05112:26
#05918:24
#0561a:24
#06118:24
#06312:26
#06418:26
#06512:26
#06518:0026
#06612:26
#07518:25
#08112:2626
#08212:26
#03010:41
#01810:41
#000330:14
#001330:24
#018380:14
#019380:24
#020340:14
#021340:24
#029320:16
#030320:26
#034320:1636
#035320:36362600
#039380:1626
#043320:1626
#044380:15
#045390:35
#046380:35
#047390:25
#051320:1626
#054320:1434
#055320:24
#0563a0:1434
#0573a0:24
#058340:1424
#059380:1424
#060340:1424
#061380:1424
#066320:16363626
#070380:1626
#074320:1626
#075380:15
#076390:35
#077380:35
#078390:25
#082320:1626
#090320:1424
