This file was generated by Ched 2.7.0.0.
#TITLE ""
#ARTIST ""
#DESIGNER ""
#DIFFICULTY 0
#PLAYLEVEL
#SONGID ""
#WAVE ""
#WAVEOFFSET 0
#JACKET ""
#REQUEST "ticks_per_beat 480"
#00002: 4
#BPM01: 178
#00008: 01
#TIL00: ""
#HISPEED 00
#MEASUREHS 00
#00018:12
#00016:0012000000000000
#00019:00120000
#00015:0000001200000000
#0001a:0012
#00014:0000000000120000
#0001b:00000012
#00013:0000000000000012
#00214:0013001300000000
#0021b:0000130013000013
#00215:0000000000131300
#00218:26000000000000000000001300000000
#00212:0000000013000013
#00216:00130000
#0031b:0013001300130000
#00312:0013001300131313
#00318:0013
#00319:00000013
#00315:13130000
#00317:0000000000000013
#0051b:0013001300000013
#00515:00000013
#00518:13000000130000000000001300000000
#00512:0013001300000013
#00615:13131313
#00618:00001300000013000000001300000000
#00612:0000001300130013
#0061b:0000130013000013
#00712:0013001300130000
#0071b:0013001300131313
#00715:1313
#00716:0000000000000013
#00718:00130000
#00714:00000013
#00915:0000001600000000
#00912:0013000000000000
#0091b:0013000000000000
#00918:13
#0101b:0000000013000013
#01016:0000000013000013
#01012:00130000
#01017:00130000
#01119:0013000000000000
#01114:0013000000000000
#01112:0000001300242400
#01117:0000001300000013
#01312:0023000000001400
#01317:0013000026000000
#01418:1313
#01415:0013000000000000
#0141b:00130013
#01412:0000000000130000
#01615:0000001300130013
#01618:00001300000000000000130000000013
#0161b:00130013
#01612:1313
#0151b:00130013
#01515:0000000013000013
#01518:0013000000130000
#01512:0000001300001300
#01718:0013000000000000
#01719:00130000
#0171a:0000001300000000
#0171b:0013
#01712:24
#02116:1313
#02117:00130000
#0211b:1313
#02112:00130000
#02212:13000013
#02218:0013001300000000
#02215:0000000000000013
#0221b:2313
#02318:1300130000242400
#02315:0013000000000000
#0231b:0000001300000000
#02412:1300001300000000
#02415:0013000013001300
#02418:0000000000000013
#02512:13002323
#0251b:13
#02518:00132626
#02515:0000001300000000
#02612:0013000013000013
#02615:13130013
#02618:0000001300130000
#0261b:1313
#02715:13000000001300000000130000001300
#02718:0013000000001300
#0271b:2300002300130000
#02712:00000023000000000000000000000000
#02915:1300000000000013
#02914:0013000000001300
#02913:0000130000130000
#02912:0000001313000000
#02916:00000000000000140000000000000000
#0291a:24
#03018:16
#03016:00180000
#03014:001a
#03012:0000001c
#03010:41
#03112:16181a2c
#09018:0016000026260000
#09015:00160000
#09012:00000000000016000026000000000000
#0361a:14141400
#03612:14141400
#03616:0014001400140014
#03613:00000014
#03619:00000014
#0371a:0014000000000024
#03716:00142424
#03712:0000001400240000
#03816:14000000000000000023000023000000
#03812:0013000000000000
#03815:00130000
#03818:0000001300000000
#0381b:00000000000000002300002300001300
#03912:0013000000000000
#03913:00130000
#03914:0000001300000000
#03918:0013000000000000
#0391b:0000000000130013
#03915:00002626
#04012:14141400
#0401a:14141400
#04016:0014001400140014
#04013:00000014
#04019:00000014
#04010:41
#04112:0014000000002300
#04116:00142300
#0411a:0000001400000000
#0411b:0023
#04117:00000023
#04216:14
#0421b:0013000000000000
#04218:00130000
#04215:0000001300000000
#04212:00000000000000002300002300001300
#04217:00000000000000000023000023000000
#0431b:0013000000000000
#0431a:00130000
#04319:0000001300000000
#04315:0013000026000000
#04717:13
#04713:00130000000000000000000000130000
#04718:0013000000000013
#04714:00000013000000000000001300000000
#04719:00130023
#04715:00000000001300000013000000000000
#0471a:0000001300130000
#04716:00000000000000130000000000000000
#04712:00000000000000000000000000000013
#0471b:0023
#04417:1313
#04419:0013001300130013
#0441b:00130013
#04414:0013001300130013
#04416:00130013
#04412:2313
#04519:0013001300130013
#0451b:00130013
#04517:2313
#04514:0013001300130013
#04516:00130013
#04512:0013
#04619:0013001300130013
#0461b:00130013
#04617:0013
#04614:0013001300130013
#04616:00130013
#04612:2313
#0481a:1414
#04815:0013000013130000
#04818:0000131300001313
#04812:00140014
#04914:00131313
#04912:0000001300000000
#04916:0013000000130000
#0491b:0023000000230000
#04919:00232323
#04917:0000002300000000
#05016:0014000028140000
#05012:28000014000014000000000000000000
#0501a:00000000000000000000001400001400
#05010:41
#05412:00130000
#0541b:00000013
#0541f:11
#05415:0023
#05512:00130000
#0551b:00000013
#05515:0023
#05612:00130000
#0561b:00000013
#05615:0023
#05712:00130000
#0571b:00000013
#05715:0023
#0581b:00130013
#05812:1414
#05816:00140000
#05817:1313
#0591a:2414
#05916:23142300
#05912:00230023
#06219:0014001400140014001400140014001400140014001400140000000000000000
#06218:00140014001400140014001400000000
#0621a:2414141414140000
#06213:0014001400140014001400140014001400140014001400140000000000000000
#06212:00140014001400140014001400000000
#06214:2414141414140000
#0671a:14141414
#06712:1400140014000014
#06716:0014001400140000
#06714:00000014
#0671f:21
#0681a:0014000000000024
#06816:00142424
#06812:0000001400240000
#06916:14000000000000000023000023000000
#06912:0013000000000000
#06915:00130000
#06918:0000001300000000
#0691b:00000000000000002300002300001300
#06910:41
#07012:0013000000000000
#07013:00130000
#07014:0000001300000000
#07018:0013000000000000
#0701b:0000000000130013
#07015:00002626
#07112:14141414
#0711a:1400140014000014
#07116:0014001400140000
#07118:00000014
#07212:0014000023000000
#07216:00140023
#0721a:0000001400000000
#07217:0023
#0721b:00000023
#07316:14
#0731b:0013000000000000
#07318:00130000
#07315:0000001300000000
#07312:00000000000000002300002300001300
#07317:00000000000000000023000023000000
#0741b:0013000000000000
#0741a:0000130000242400
#07419:0000001300000000
#07415:0013000026000000
#07412:0000000000242400
#07816:13
#0781a:00130000000000000000000000130000
#07815:0013000000000013
#07819:00000013000000000000001300000000
#07814:00130023
#07818:00000000001300000013000000000000
#07813:0000001300130000
#07817:00000000000000130000000000000000
#0781b:00000000000000000000000000000013
#07812:0023
#07516:1313
#07514:0013001300130013
#07512:00130013
#07519:0013001300130013
#07517:00130013
#0751b:2313
#07614:0013001300130013
#07612:00130013
#07616:2313
#07619:0013001300130013
#07617:00130013
#0761b:0013
#07714:0013001300130013
#07712:00130013
#07716:0013
#07719:0013001300130013
#07717:00130013
#0771b:2313
#07912:1414
#07918:0013000013130000
#07915:0000131300001313
#0791a:00140014
#07910:41
#01217:0013000000000000
#01216:0013
#0121b:0000000013000023
#01212:00130000
#01812:13
#01816:00130000
#0181b:0013
#01817:00000013
#01810:41
#01916:13
#01912:00130000
#01917:0013
#0191b:00000013
#02015:1313
#02012:0000130000130013
#02018:1313
#0201b:0013000000001300
#02816:00000014000000000014000000000000
#02812:1300002400000000
#0281a:24000014
#03217:0016001600160016000000000000000000000000000000000000000000000000
#03216:00160016000000000000000000000000
#03218:2616000000000000
#03213:0000000000000000000000000000000000160016001600160000000000000000
#03214:00000000000000000016001600000000
#03212:0000000026160000
#03318:0015001500150015000000000000000000150015001500150000000000000000
#03317:00150015000000000015001500000000
#03319:2515000025150000
#03313:0000000000000000001500150015001500000000000000000015001500150015
#03314:00000000001500150000000000150015
#03312:0000251500002515
#03419:00140014001400140000000000000000001400140014001400000000000000002400000014000000000000000000000024000000140000000000000000000000
#03418:00001400000014000000000000000000000014000000140000000000000000000014001400140014000000000000000000140014001400140000000000000000
#0341a:24140000241400000000000000000000
#03414:00000000000000000014001400140014000000000000000000140014001400140000000000000000000014000000140000000000000000000000140000001400
#03415:0000000000140014000000000014001400000000000000000000000000000000
#03413:00000000000000002400000014000000000000000000000024000000140000000000000000000000001400140014001400000000000000000014001400140014
#03417:0000000000000000000000000000000000140014000000000014001400000000
#03412:00000000000000000000241400002414
#03519:0013000000130000000000000000000000130000001300000000000000000000001300000013000000000000000000000013000000130000000000000000000000000000000000000000000000000000000000000000000000000000000000000000000000000000000000000000000000000000000000000000000000000000
#0351a:23131313000000002313131300000000231313130000000023131313000000000000000000000000000000000000000000000000000000000000000000000000
#0351b:0000001300000013000000000000000000000013000000130000000000000000000000130000001300000000000000000000001300000013000000000000000000000000000000000000000000000000000000000000000000000000000000000000000000000000000000000000000000000000000000000000000000000000
#03514:0000000000000000001300000013000000000000000000000013000000130000000000000000000000130000001300000000000000000000001300000013000000000000000000000000000000000000000000000000000000000000000000000000000000000000000000000000000000000000000000000000000000000000
#03513:00000000231313130000000023131313000000002313131300000000231313130000000000000000000000000000000000000000000000000000000000000000
#03512:00000000000000000000001300000013000000000000000000000013000000130000000000000000000000130000001300000000000000000000001300000013000000000000000000000000000000002c0000000000000000000000000000000000000000000000000000000000000000000000000000000000000000000000
#00419:0013001300000000
#00412:2600130013000013
#00418:0000000000131300
#00415:00000000000000000000001300000000
#0041b:0000000013000013
#00417:00130000
#00815:00001300000013000000001300000000
#00818:13131313
#0081b:0000001300130013
#00812:0000130013000013
#08214:0000000000000000000000000000000000343434143434340000000000000000
#08218:0000000000000000000000000000000000343434143434340000000000000000
#0821a:24000024000024002400000000000000
#08212:24000024000024002400000000000000
#08319:0013001300000000
#08312:2600130013000013
#08318:0000000000131300
#08315:00000000000000000000001300000000
#0831b:0000000013000013
#08317:00130000
#08412:0013001300130000
#0841b:0013001300131313
#08415:0013
#08414:00000013
#08418:13130000
#08416:0000000000000013
#08612:0013001300000013
#08618:00000013
#08615:13000000130000000000001300000000
#0861b:0013001300000013
#08718:13131313
#08715:00001300000013000000001300000000
#0871b:0000001300130013
#08712:1300130013000013
#0881b:0013001300130000
#08812:0013001300131313
#08818:1313
#08817:0000000000000013
#08815:00130000
#08819:00000013
#08514:0013001300000000
#0851b:0000130013000013
#08515:0000000000131300
#08518:26000000000000000000001300000000
#08512:0000000013000013
#08516:00130000
#0891b:0013000000000013
#08918:00000000130000001600001300000000
#08915:0000001300001300
#08912:1600000000130013
#08116:2814000000140000
#0811a:00000014000014000000000000000000
#08112:00000000000000002800001400001400
#06013:00000013
#06016:0000000000000023
#06019:00000023
#08019:00131313
#0801b:0000001300000000
#08017:0013000000130000
#08012:0023000000230000
#08014:00232323
#08016:0000002300000000
#05112:24000024000024002400000000000000
#0511a:24000024000024002400000000000000
#05312:00230000
#05314:0023
#05316:00000023
#06414:00250025
#06417:2525
#06314:2828
#06518:24242424
#06514:0024002400240024
#0661a:24
#06617:00242400
#06618:0024000000240000
#06616:0000002400002800
#06615:00240000000000000000002400000000
#06613:00000024000000000024000000000000
#06612:00000000002400240000000000000000
#0611a:0024
#06118:0000002400000000
#06116:00240000
#06114:0024000000000000
#06112:24
#00655:13
#0065b:0000000000000013
#01352:0063000000003400
#01357:0063000000000000
#0145b:00130013
#0155b:00130013
#01555:0000000000000053
#0165b:00130013
#01655:0000000000230000
#01652:2353
#02558:00004646
#02552:63
#09058:0000000046460000
#09052:00000000000000000036000000000000
#03752:0000000000140000
#0375a:0000000000000014
#0385b:0000000000000063
#03958:0023000000000000
#04252:0000000000000053
#04355:0023000000000000
#04354:00000018
#04557:2323
#0455b:00230023
#04559:0053005300530053
#04454:0053005300530053
#04456:00230023
#04452:2323
#04654:0053005300530053
#04656:00230023
#04652:2323
#05052:18
#05056:0018
#05452:00130000
#0545b:00000013
#05552:00130000
#0555b:00000013
#05652:00130000
#0565b:00000013
#05752:00130000
#0575b:00000013
#05856:00240000
#05852:6464
#0595a:5454
#05956:00240000
#06259:0054005400540054005400540054005400540054005400540000000000000000
#06258:00240024002400240024002400000000
#0625a:2424242424240000
#06253:0054005400540054005400540054005400540054005400540000000000000000
#06252:00240024002400240024002400000000
#06254:2424242424240000
#06454:00150015
#06457:1515
#06354:1818
#0675a:44444400
#0695b:0000000000000063
#07058:0023000000000000
#07152:34343400
#07352:0000000000000053
#07455:0023000000000000
#07452:00000014
#0745a:00000014
#07654:0063006300630063
#07652:00230023
#07656:2323
#07559:0063006300630063
#07557:00230023
#0755b:2323
#07759:0063006300630063
#07757:00230023
#0775b:2323
#07952:3434
#0795a:00440000
#0025b:0000000000000013
#00258:16
#0035b:0013000000000000
#00752:0013000000000000
#01052:00530000
#01057:00530000
#01056:0053
#0105b:0053
#01256:0053
#0125b:0000000053000063
#01252:00530000
#0215b:1313
#02152:00130000
#02052:0000000000230000
#0205b:0023000000000000
#02055:0063
#02058:53
#02252:53
#0225b:0053
#02852:0000006400000000
#0285a:54
#02856:00000024000000000024000000000000
#03258:2626000000000000
#03256:00260026000000000000000000000000
#03257:0066006600660066000000000000000000000000000000000000000000000000
#03253:0000000000000000000000000000000000560056005600560000000000000000
#03254:00000000000000000026002600000000
#03252:0000000026260000
#03359:2525000025250000
#03357:00250025000000000025002500000000
#03358:0065006500650065000000000000000000650065006500650000000000000000
#03353:0000000000000000005500550055005500000000000000000055005500550055
#03354:00000000002500250000000000250025
#03352:0000252500002525
#03459:00540054005400540000000000000000005400540054005400000000000000002400000024000000000000000000000024000000240000000000000000000000
#03458:00002400000024000000000000000000000024000000240000000000000000000054005400540054000000000000000000540054005400540000000000000000
#0345a:24240000242400000000000000000000
#03454:00000000000000000064006400640064000000000000000000640064006400640000000000000000000024000000240000000000000000000000240000002400
#03455:0000000000240024000000000024002400000000000000000000000000000000
#03453:00000000000000002400000024000000000000000000000024000000240000000000000000000000006400640064006400000000000000000064006400640064
#03457:0000000000000000000000000000000000240024000000000024002400000000
#03452:00000000000000000000242400002424
#03559:0023000000230000000000000000000000230000002300000000000000000000002300000023000000000000000000000023000000230000000000000000000000000000000000000000000000000000000000000000000000000000000000000000000000000000000000000000000000000000000000000000000000000000
#0355a:53535353000000005353535300000000535353530000000053535353000000000000000000000000000000000000000000000000000000000000000000000000
#0355b:0000002300000023000000000000000000000023000000230000000000000000000000230000002300000000000000000000002300000023000000000000000000000000000000000000000000000000000000000000000000000000000000000000000000000000000000000000000000000000000000000000000000000000
#03554:0000000000000000002300000023000000000000000000000023000000230000000000000000000000230000002300000000000000000000002300000023000000000000000000000000000000000000000000000000000000000000000000000000000000000000000000000000000000000000000000000000000000000000
#03553:00000000636363630000000063636363000000006363636300000000636363630000000000000000000000000000000000000000000000000000000000000000
#03552:0000000000000000000000230000002300000000000000000000002300000023000000000000000000000023000000230000000000000000000000230000002300000000000000000000000000000000000000000000000000000000000000001c00000000000000000000000000000000000000000000000000000000000000
#00452:0000000000000013
#00552:0013000000000000
#05152:0064
#05154:00000034
#0515a:0054
#05158:00000044
#06558:14141414
#06554:0014001400140014
#06656:00000048
#08252:00006434
#08254:0000000000240000
#08258:0000000000240000
#0825a:00005444
#08352:1600000000000013
#08452:0013000000000000
#08758:13
#08752:0000000000000013
#0885b:0013000000000000
#0855b:0000000000000013
#0865b:0013000000000000
#0175b:0013
#08156:18
#08152:0018
#0295a:54
#02956:00000000000000240000000000000000
#08952:16
#08958:0016
#04052:14141400
#0365a:14141400
#04852:00140000
#0485a:1414
#0685a:0000000000000014
#06852:0000000000140000
#0013c0:12
#0013b0:00320000000000000000000000000000
#0013a0:0032000000000000
#001390:00000032000000000000000000000000
#001380:00220000
#001361:00120000
#001351:00000000003200000000000000000000
#001341:0000003200000000
#001331:00000000000000320000000000000000
#001321:0022
#0013c0:0012
#0013b0:00000000000000000032000000000000
#0013a0:0000000000320000
#001390:00000000000000000000003200000000
#001380:00000022
#001361:00000012
#001351:00000000000000000000000000320000
#001341:0000000000000032
#001331:00000000000000000000000000000032
#002321:22
#005351:00000000000000001300002300000000
#009351:0013
#010321:22
#010370:13330023
#0103b0:0033
#010321:00130023
#010361:0033
#011371:0013
#0113b1:00000023
#012321:00130023
#012361:0033
#0123b0:0013
#012370:00000023
#0123b0:0000000000000013
#013370:0033000000000000
#0133b0:0000002300000000
#013321:0013000000000000
#013361:0000002300000000
#013371:0016
#013361:00000028
#014321:00130000
#014351:0023
#014351:0000000000000013
#015321:0023000000000000
#015351:0000000000000013
#016321:53
#016351:0023000000000000
#016321:00001323
#016351:0000000000530000
#017321:14
#017371:0022
#018371:13
#0183b1:00230000
#018361:0013
#018321:00000023
#0193b1:13
#019371:00230000
#019321:0013
#019361:00000023
#020381:13
#0203b1:0053000000000000
#020371:00230000
#020351:0013
#020321:0000000000530000
#020361:00000023
#022321:13
#022351:0023
#0223b0:0013
#022380:00000023
#023350:00001323
#024380:0013000000000000
#0243b0:0000002300000000
#0243b0:0013
#024380:00000023
#025320:13
#025350:00230000
#0283a0:1400002400000000
#028360:00000054000000000000000000000000
#028321:0000001400002400
#028361:00000000000000000054000000000000
#0293a1:1400000000000024
#029361:00000000000000540000000000000000
#032381:1656260000000000
#032371:0056005600560056000000000000000000000000000000000000000000000000
#032361:00560056000000000000000000000000
#032321:0000000016562600
#032331:0000000000000000000000000000000000560056005600560000000000000000
#032341:00000000000000000056005600000000
#033391:1555250000000000
#033381:0055005500550055000000000000000000000000000000000000000000000000
#033371:00550055000000000000000000000000
#033320:0000155525000000
#033330:0000000000000000005500550055005500000000000000000000000000000000
#033340:00000000005500550000000000000000
#033391:0000000015552500
#033381:0000000000000000000000000000000000550055005500550000000000000000
#033371:00000000000000000055005500000000
#033320:0000000000001555
#033330:0000000000000000000000000000000000000000000000000055005500550055
#033340:00000000000000000000000000550055
#034320:25
#0343a1:14542400000000000000000000000000
#034391:00540054005400540000000000000000000000000000000000000000000000000000000000000000000000000000000000000000000000000000000000000000
#034381:0054005400000000000000000000000000000000000000000000000000000000
#034330:00001454240000000000000000000000
#034340:00000000000000000054005400540054000000000000000000000000000000000000000000000000000000000000000000000000000000000000000000000000
#034350:0000000000540054000000000000000000000000000000000000000000000000
#0343a1:00000000145424000000000000000000
#034391:00000000000000000000000000000000005400540054005400000000000000000000000000000000000000000000000000000000000000000000000000000000
#034381:0000000000000000005400540000000000000000000000000000000000000000
#034330:00000000000014542400000000000000
#034340:00000000000000000000000000000000000000000000000000540054005400540000000000000000000000000000000000000000000000000000000000000000
#034350:0000000000000000000000000054005400000000000000000000000000000000
#034391:00000000000000001454240000000000
#034381:00000000000000000000000000000000000000000000000000000000000000000054005400540054000000000000000000000000000000000000000000000000
#034371:0000000000000000000000000000000000540054000000000000000000000000
#034320:00000000000000000000145424000000
#034330:00000000000000000000000000000000000000000000000000000000000000000000000000000000005400540054005400000000000000000000000000000000
#034340:0000000000000000000000000000000000000000005400540000000000000000
#034391:00000000000000000000000014542400
#034381:00000000000000000000000000000000000000000000000000000000000000000000000000000000000000000000000000540054005400540000000000000000
#034371:0000000000000000000000000000000000000000000000000054005400000000
#034320:00000000000000000000000000001454
#034330:00000000000000000000000000000000000000000000000000000000000000000000000000000000000000000000000000000000000000000054005400540054
#034340:0000000000000000000000000000000000000000000000000000000000540054
#035320:24
#0353a1:13535353230000000000000000000000000000000000000000000000000000000000000000000000000000000000000000000000000000000000000000000000
#035391:0053000000530000000000000000000000000000000000000000000000000000000000000000000000000000000000000000000000000000000000000000000000000000000000000000000000000000000000000000000000000000000000000000000000000000000000000000000000000000000000000000000000000000
#0353b1:0000005300000053000000000000000000000000000000000000000000000000000000000000000000000000000000000000000000000000000000000000000000000000000000000000000000000000000000000000000000000000000000000000000000000000000000000000000000000000000000000000000000000000
#035330:00000000135353532300000000000000000000000000000000000000000000000000000000000000000000000000000000000000000000000000000000000000
#035340:0000000000000000005300000053000000000000000000000000000000000000000000000000000000000000000000000000000000000000000000000000000000000000000000000000000000000000000000000000000000000000000000000000000000000000000000000000000000000000000000000000000000000000
#035320:0000000000000000000000530000005300000000000000000000000000000000000000000000000000000000000000000000000000000000000000000000000000000000000000000000000000000000000000000000000000000000000000000000000000000000000000000000000000000000000000000000000000000000
#0353a1:00000000000000001353535323000000000000000000000000000000000000000000000000000000000000000000000000000000000000000000000000000000
#035391:0000000000000000000000000000000000530000005300000000000000000000000000000000000000000000000000000000000000000000000000000000000000000000000000000000000000000000000000000000000000000000000000000000000000000000000000000000000000000000000000000000000000000000
#0353b1:0000000000000000000000000000000000000053000000530000000000000000000000000000000000000000000000000000000000000000000000000000000000000000000000000000000000000000000000000000000000000000000000000000000000000000000000000000000000000000000000000000000000000000
#035330:00000000000000000000000013535353230000000000000000000000000000000000000000000000000000000000000000000000000000000000000000000000
#035340:0000000000000000000000000000000000000000000000000053000000530000000000000000000000000000000000000000000000000000000000000000000000000000000000000000000000000000000000000000000000000000000000000000000000000000000000000000000000000000000000000000000000000000
#035320:0000000000000000000000000000000000000000000000000000005300000053000000000000000000000000000000000000000000000000000000000000000000000000000000000000000000000000000000000000000000000000000000000000000000000000000000000000000000000000000000000000000000000000
#0353a1:00000000000000000000000000000000135353532300000000000000000000000000000000000000000000000000000000000000000000000000000000000000
#035391:0000000000000000000000000000000000000000000000000000000000000000005300000053000000000000000000000000000000000000000000000000000000000000000000000000000000000000000000000000000000000000000000000000000000000000000000000000000000000000000000000000000000000000
#0353b1:0000000000000000000000000000000000000000000000000000000000000000000000530000005300000000000000000000000000000000000000000000000000000000000000000000000000000000000000000000000000000000000000000000000000000000000000000000000000000000000000000000000000000000
#035330:00000000000000000000000000000000000000001353535323000000000000000000000000000000000000000000000000000000000000000000000000000000
#035340:0000000000000000000000000000000000000000000000000000000000000000000000000000000000530000005300000000000000000000000000000000000000000000000000000000000000000000000000000000000000000000000000000000000000000000000000000000000000000000000000000000000000000000
#035320:0000000000000000000000000000000000000000000000000000000000000000000000000000000000000053000000530000000000000000000000000000000000000000000000000000000000000000000000000000000000000000000000000000000000000000000000000000000000000000000000000000000000000000
#0353a1:00000000000000000000000000000000000000000000000013535353230000000000000000000000000000000000000000000000000000000000000000000000
#035391:0000000000000000000000000000000000000000000000000000000000000000000000000000000000000000000000000053000000530000000000000000000000000000000000000000000000000000000000000000000000000000000000000000000000000000000000000000000000000000000000000000000000000000
#0353b1:0000000000000000000000000000000000000000000000000000000000000000000000000000000000000000000000000000005300000053000000000000000000000000000000000000000000000000000000000000000000000000000000000000000000000000000000000000000000000000000000000000000000000000
#035330:00000000000000000000000000000000000000000000000000000000135353532300000000000000000000000000000000000000000000000000000000000000
#035340:0000000000000000000000000000000000000000000000000000000000000000000000000000000000000000000000000000000000000000005300000053000000000000000000000000000000000000000000000000000000000000000000000000000000000000000000000000000000000000000000000000000000000000
#035320:0000000000000000000000000000000000000000000000000000000000000000000000000000000000000000000000000000000000000000000000530000005300000000000000000000000000000000000000000000000000000000000000000000000000000000000000000000000000000000000000000000000000000000
#035320:00000000001c2c00
#0383b0:0000000000000013
#039380:0053000000000000
#0393b0:0023
#0413b0:0000000013230000
#041361:0000000013230000
#041321:0000000000001323
#041370:0000000000001323
#042320:0000000000000013
#043350:0053000000000000
#043320:0023
#043350:0000000000160000
#043340:00000028
#044320:1353
#044340:0053005300530053
#044360:00330033
#045320:23
#045371:1353
#045391:0053005300530053
#0453b1:00330033
#046371:23
#046320:1353
#046340:0053005300530053
#046360:00330033
#047320:23
#050360:0000142400000000
#050360:0000000000001424
#051320:0014
#051340:0000000000542400
#0513a1:0014
#051381:0000000000542400
#052381:163636363636260000000000
#052320:000000000000163636363636
#053320:26
#053381:163636360000260000000000
#054381:13230000
#054351:00001323
#055381:13230000
#055351:00001323
#056381:13
#0563b1:00230000
#056351:0013
#056321:00000023
#057381:13
#0573b1:00230000
#057351:0013
#057321:00000023
#058321:1434
#058361:00340024
#0593a1:1434
#059361:00340024
#060361:14342400
#060371:003400
#060351:000000000034000000000000
#0623a1:1454545454542400
#062391:0054005400540054005400540054005400540054005400540000000000000000
#062381:00540054005400540054005400000000
#062340:1454545454542400
#062330:0054005400540054005400540054005400540054005400540000000000000000
#062320:00540054005400540054005400000000
#0693b0:0000000000000013
#070380:0053000000000000
#0703b0:0023
#072370:0000000013230000
#072321:0000000013230000
#072361:0000000000001323
#0723b0:0000000000001323
#073320:0000000000000013
#074350:0053000000000000
#074320:0023
#0753b0:1353
#075390:0053005300530053
#075370:00330033
#0763b0:23
#076361:1353
#076341:0053005300530053
#076321:00330033
#077361:23
#0773b0:1353
#077390:0053005300530053
#077370:00330033
#0783b0:23
#081360:0000142400000000
#081360:0000000000001424
#082320:00001424
#082340:0000000000000000000000000000000000343434343434340000000000000000
#0823a1:00001424
#082381:0000000000000000000000000000000000343434343434340000000000000000
#086381:00000000000000001300002300000000
