This file was generated by Ched 2.7.0.0.
#TITLE ""
#ARTIST ""
#DESIGNER ""
#DIFFICULTY 0
#PLAYLEVEL
#SONGID ""
#WAVE ""
#WAVEOFFSET 0
#JACKET ""
#REQUEST "ticks_per_beat 480"
#00002: 4
#BPM01: 178
#00008: 01
#TIL00: ""
#HISPEED 00
#MEASUREHS 00
#00019:12120000
#00015:0012001200000000
#0001b:00001212
#00013:0000000000120012
#0101a:0000000000000014
#01012:1313
#01018:00130000
#01116:0014000000000000
#01112:0000001400000000
#01115:0000000000000013
#01618:0013000000000013
#01615:0013
#01612:00130000
#02112:14
#02116:00140000
#0211a:0014
#02612:0013000000000013
#02618:00130013
#02615:0000001300130000
#0261b:0013
#02712:0000000000130000
#02718:2400002400001300
#02715:0000000000000013
#02714:00000024000000000000000000000000
#0301a:14
#03019:00150000
#03018:0016
#03017:00000017
#03010:41
#03112:14151627
#09014:0014001400000000
#09018:0000140026260000
#09012:00000000000000000026000000000000
#03612:1400140000000013
#0361b:0013
#03615:0000000000130000
#03618:14140013
#0371b:0013000000000000
#03715:00130000
#03718:0000001300000000
#03712:00002424
#0371a:0000000000240024
#03815:0013000000000013
#03818:00130000
#0381b:0000001300000000
#0391b:00130000
#03912:0000001300000000
#03918:00002323
#04012:0013
#04018:0000000000130000
#04015:00000013
#0401b:0000000000000013
#0401a:14140000
#04014:14140000
#04010:41
#04714:1414
#04712:00140000
#04612:00140000
#04614:2414
#04616:00000014
#04818:1414
#04812:00140000
#04815:00000013
#0481b:0000000000000013
#06219:0014001400140014001400140014001400140014001400140000000000000000
#06218:00140014001400140014001400000000
#0621a:2414141414140000
#06213:0014001400140014001400140014001400140014001400140000000000000000
#06212:00140014001400140014001400000000
#06214:2414141414140000
#01215:0013000000000000
#01218:0013
#0121b:00130000
#01212:0000000000000023
#01315:0013000000001300
#01318:0023
#02015:0013
#02018:13
#02012:13
#0201b:0013
#02816:0000001400000000
#0281a:24
#03217:0016001600160016000000000000000000000000000000000000000000000000
#03216:00160016000000000000000000000000
#03218:2616000000000000
#03213:0000000000000000000000000000000000160016001600160000000000000000
#03214:00000000000000000016001600000000
#03212:0000000026160000
#03318:0015001500150015001500150015001500000000000000000000000000000000
#03317:00150015001500150000000000000000
#03319:2515151500000000
#03313:0000000000000000000000000000000000150015001500150015001500150015
#03314:00000000000000000015001500150015
#03312:0000000025151515
#00115:0013
#0011b:13
#00112:00000000000000000000003333333333
#00113:0000000000330000
#00114:00000000000000000033000000000000
#00118:00000033333333330000000000000000
#00119:0033000000000000
#0011a:00330000000000000000000000000000
#00915:0000001300000000
#0091a:0014000000000000
#01412:0000000000000014
#0141b:1313
#01415:00130000
#01418:0013000000000000
#01516:0014000000000000
#0151a:0000001400000000
#01518:0000000000000013
#0221b:0013000000000000
#02215:2300001300000000
#02218:0013
#02212:00000013
#02217:0000000000000013
#02314:13
#02319:0013000000000000
#02316:00130000
#0231b:0000001300000000
#02315:0013
#0241b:00000013
#02416:0000000000000013
#02418:1300001300000000
#02412:0013000000000000
#02415:0013
#0251b:13
#02515:0000001300000000
#0251a:00002424
#02916:0000001400000000
#02912:24
#04112:0013000000002400
#04118:00130000
#04115:0000001300000000
#0411a:0024
#04218:0013000000000013
#04215:00130000
#04212:0000001300000000
#04312:00130000
#0431b:0000001300000000
#04318:0000000000130000
#04315:00002313
#0581b:1313
#05818:00130000
#05912:2313
#05915:00130000
#0601b:1300000000000023
#06018:00130000
#06015:00130023
#06012:23
#08312:0013000000000014
#08318:00130013
#08315:0000001300130000
#0831b:2313
#08412:0014000000130000
#08418:0000001300000013
#08415:00001313
#08615:0000001300000000
#0861a:0014000000000000
#0861b:0013
#08618:00000000000000000000003333000000
#08515:00130013
#08518:0000001300130000
#08512:0013
#0851b:0013000000000000
#0851a:0000000000000014
#0871b:0013000000000000
#08715:00130013
#08718:0000001300130000
#08712:1313
#0871a:0000000000000014
#08815:0000001300000013
#08818:00001313
#0881b:0000000000130000
#0881a:0014000000000000
#08912:0013000000000014
#08918:00130013
#08915:0000001300130000
#0891b:0013
#0891a:0000000000000014
#07914:1414
#0791a:00140000
#07918:00000013
#07912:0000000000000013
#07910:41
#0021b:0013000000000000
#00215:00130013
#00218:0000001300130000
#00212:2313
#0021a:0000000000000014
#0031a:0014000000000000
#00315:0000001300000013
#00318:00001313
#0031b:0000000000130000
#00518:0000001300000000
#00512:0014000013000000
#00515:00000000000000000000003333000000
#00418:00130013
#00415:0000001300130000
#0041b:0013
#00412:0013000000000014
#0061b:1313
#00612:0013000000000014
#00618:00130013
#00615:0000001300130000
#00718:0000001300000013
#00715:00001313
#00712:0014000000130000
#0081a:0000000000000014
#00815:00130013
#00818:0000001300130000
#00812:0013
#0081b:0013000000000000
#07112:1400140000000013
#07118:14140013
#07115:0000000000130000
#0711b:0013
#0671a:14140000
#06714:14140000
#0671b:0000000000000013
#06715:00000013
#06718:0000000000130000
#06712:0013
#0671f:21
#07315:0013000000000013
#0731b:0000001300000000
#07318:00130000
#07412:0000001300000000
#0741b:00130000
#07418:00002323
#07415:0000000000230000
#07218:0000001300000000
#07215:00130000
#0721b:0013000000000000
#07212:0024
#0721a:00000024
#06918:0013000000000013
#06912:0000001300000000
#06915:00130000
#06910:41
#0701b:0000001300000000
#07012:00130000
#07015:00002323
#06815:0000001300000000
#06818:00130000
#06812:0013000000240024
#0681a:00002424
#03419:0014001400140014000000000000000000140014001400140000000000000000
#03418:00140014000000000014001400000000
#0341a:2414000024140000
#03413:0000000000000000001400140014001400000000000000000014001400140014
#03414:00000000001400140000000000140014
#03412:0000241400002414
#06616:14
#06612:003c3c3c3c3c3c3c3c3c3c3c00000000
#04518:1414
#0451a:00140000
#0441a:00140000
#04418:2414
#04416:00000014
#07614:1414
#07612:00140000
#07512:00140000
#07514:2414
#07516:00000014
#07818:1414
#0781a:00140000
#0771a:00140000
#07718:2414
#07716:00000014
#0541f:11
#05415:0023
#04912:0024000000000000
#04918:00240000
#04913:0000002400000000
#04919:0024
#04914:0000000000240000
#0491a:00000024
#05012:26
#05018:0026
#05010:41
#05112:2600002600002600
#05118:00000026000000002600000000000000
#05314:0024
#05316:00000024
#05312:00240000
#06412:0000002c
#06413:002a0000
#06314:00000028
#06315:00260000
#01715:0023000000000000
#0351a:24343434343434000000000024000000
#03512:0000000000240000
#06112:2323
#06118:0023000000000000
#06115:00230000
#0611b:0000002300000000
#0801a:0024000000000000
#08014:00240000
#08019:0000002400000000
#08013:0024
#08018:0000000000240000
#08012:00000024
#08118:26
#08112:0026
#08218:2600002600000000
#08212:00000026000000002600000000000000
#05512:0023
#05615:0023
#05712:0023
#0521a:003434343434003434343434
#06512:003c3c3c3c3c3c3c
#01810:41
#0255a:00004444
#0255b:53
#04754:6464
#04752:00240000
#04652:00240000
#04654:6464
#04656:00000024
#06259:0054005400540054005400540054005400540054005400540000000000000000
#06258:00240024002400240024002400000000
#0625a:2424242424240000
#06254:2424242424240000
#06253:0054005400540054005400540054005400540054005400540000000000000000
#06252:00240024002400240024002400000000
#01258:0063
#0125b:00630000
#01252:0000000000000053
#01355:0053000000001300
#0215a:0014
#02055:0063
#02058:53
#02052:53
#0205b:0063
#0285a:54
#02856:0000005400000000
#03258:2626000000000000
#03256:00260026000000000000000000000000
#03257:0066006600660066000000000000000000000000000000000000000000000000
#03253:0000000000000000000000000000000000560056005600560000000000000000
#03254:00000000000000000026002600000000
#03252:0000000026260000
#03359:2525252500000000
#03357:00250025002500250000000000000000
#03358:0065006500650065006500650065006500000000000000000000000000000000
#03353:0000000000000000000000000000000000550055005500550055005500550055
#03354:00000000000000000025002500250025
#03352:0000000025252525
#00155:0053
#0015b:53
#01655:0053
#01652:00530000
#01052:0053
#02355:0053
#02952:64
#02956:0000002400000000
#03855:0000000000000063
#04258:0000000000000053
#04858:1414
#04852:00140000
#05152:00000016
#0585b:5353
#05858:00230000
#05952:6363
#05955:00230000
#0605b:63
#06058:00230000
#06055:00230000
#06052:53
#07954:1414
#0795a:00140000
#08252:00000016
#0355a:54000014
#07458:00000013
#07355:0000000000000063
#06958:0000000000000053
#03459:0064006400640064000000000000000000640064006400640000000000000000
#03458:00240024000000000024002400000000
#0345a:2424000024240000
#03453:0000000000000000005400540054005400000000000000000054005400540054
#03454:00000000002400240000000000240024
#03452:0000242400002424
#00552:0053
#06656:24
#06652:0000001c
#04558:5454
#0455a:00240000
#0445a:00240000
#04458:5454
#04456:00000024
#07654:6464
#07652:00240000
#07552:00240000
#07554:6464
#07556:00000024
#07858:5454
#0785a:00240000
#0775a:00240000
#07758:5454
#07756:00000024
#0865b:0063
#00252:13
#04355:00000013
#0145b:0063
#0835b:13
#0013b0:13
#0013a0:00330000000000000000000000000000
#001390:0033000000000000
#001380:00000033333333332300000000000000
#001351:0013
#001341:00000000000000000033000000000000
#001331:0000000000330000
#001321:00000000000000000000003333333333
#002321:23
#005321:0013
#005351:00000000000000000000003333002300
#009381:00001323
#010321:0013
#010351:00000023
#011381:00001323
#0123b1:00130023
#012381:0033
#012321:0000000000000013
#013351:0033000000000000
#013321:0000002300000000
#0143b1:0013
#014381:00000023
#015351:00001323
#016321:00130023
#016351:0033
#017351:0013333333002300
#0183b1:1333
#018381:00330023
#019321:1333
#019351:00330023
#020381:13
#0203b1:00230000
#020320:13
#020350:00230000
#020350:0013
#020320:00000023
#0203b1:0013
#020381:00000023
#023351:0013
#023321:00000023
#0253b1:13
#025381:00230000
#0283a1:14000024
#028361:0000003400000000
#029321:14000024
#029361:0000005400000000
#032381:1656260000000000
#032371:0056005600560056000000000000000000000000000000000000000000000000
#032361:00560056000000000000000000000000
#032321:0000000016562600
#032331:0000000000000000000000000000000000560056005600560000000000000000
#032341:00000000000000000056005600000000
#033391:1555355525000000
#033381:0055005500550055005500550055005500000000000000000000000000000000
#033371:00550055005500550000000000000000
#033320:0000000015553555
#033330:0000000000000000000000000000000000550055005500550055005500550055
#033340:00000000000000000055005500550055
#034320:25
#0343a1:1434240000000000
#034391:0054005400540054000000000000000000000000000000000000000000000000
#034381:00540054000000000000000000000000
#034320:0000143424000000
#034330:0000000000000000005400540054005400000000000000000000000000000000
#034340:00000000005400540000000000000000
#0343a1:0000000014342400
#034391:0000000000000000000000000000000000540054005400540000000000000000
#034381:00000000000000000054005400000000
#034320:0000000000001434
#034330:0000000000000000000000000000000000000000000000000054005400540054
#034340:00000000000000000000000000540054
#035320:24
#0353a1:14343434343434000000000000000000
#035361:00000000000000240000000000000000
#038351:00000000000000001333003333003300
#039321:0023000000000000
#0413a1:0000000014240000
#041321:0000000000001424
#042381:00000000000000001333003333003300
#0433b1:0023000000000000
#044381:1434
#0443a1:00340000
#044361:00000034
#045381:3434
#0453a1:00340000
#045361:00000024
#046341:1434
#046321:00340000
#046361:00000034
#047341:3434
#047321:00340000
#047361:00000024
#050321:16003636360026000000000000000000
#050381:00000000000000001600363636002600
#0523a1:143434343434003434343434
#052361:0034
#0533a1:24
#0543b1:13230000
#054351:00001323
#055381:13230000
#055321:00001323
#0563b1:13230000
#056351:00001323
#057381:13230000
#057321:00001323
#0583b1:1333
#058381:00330023
#059321:1333
#059351:00330023
#0603b1:1323
#060381:00530000
#060320:1323
#060350:00530000
#0623a0:1454545454542400
#062390:0054005400540054005400540054005400540054005400540000000000000000
#062380:00540054005400540054005400000000
#062341:1454545454542400
#062331:0054005400540054005400540054005400540054005400540000000000000000
#062321:00540054005400540054005400000000
#063351:00162600
#063341:00000018
#064341:28
#064331:001a2a00
#064321:0000001c
#065321:3c3c3c3c3c3c3c3c
#066361:34
#066321:003c3c3c3c3c3c3c3c3c3c3c2c000000
#069381:00000000000000001333003333003300
#0703b1:0023000000000000
#072321:0000000014240000
#0723a1:0000000000001424
#073351:00000000000000001333003333003300
#074321:0023000000000000
#075341:1434
#075321:00340000
#075361:00000034
#076341:3434
#076321:00340000
#076361:00000024
#077381:1434
#0773a1:00340000
#077361:00000034
#078381:3434
#0783a1:00340000
#078361:00000024
#081381:16003636360026000000000000000000
#081321:00000000000000001600363636002600
#082321:00001626
#0863b1:0013
#086381:00000000000000000000003333002300
